<?xml version="1.0" standalone="no"?>
<!DOCTYPE svg PUBLIC "-//W3C//DTD SVG 1.1//EN" "http://www.w3.org/Graphics/SVG/1.1/DTD/svg11.dtd" >
<svg xmlns="http://www.w3.org/2000/svg">
<metadata></metadata>
<defs>
<font id="tall_filmsregular" horiz-adv-x="475" >
<font-face units-per-em="2048" ascent="1638" descent="-410" />
<missing-glyph horiz-adv-x="366" />
<glyph horiz-adv-x="2048" />
<glyph horiz-adv-x="2048" />
<glyph horiz-adv-x="682" />
<glyph horiz-adv-x="387" d="M63 1403h41l89 -98q23 25 46 49t44 49h41l-119 -133h-23z" />
<glyph unicode="&#xd;" horiz-adv-x="366" />
<glyph horiz-adv-x="483" d="M74 0l305 1413h29l-302 -1413h-32z" />
<glyph horiz-adv-x="542" d="M76 0v1247q0 70 47 118t115 48q70 0 115.5 -52t45.5 -124h-32q0 59 -38 101t-91 42t-91 -38.5t-38 -94.5v-196h358v-1051h-33v1018h-325v-1018h-33z" />
<glyph horiz-adv-x="542" d="M76 0v1247q0 70 47 118t115 48q70 0 115.5 -52t45.5 -124h-32q0 59 -38 101t-91 42t-91 -38.5t-38 -94.5v-196h325v362h33v-1413h-33v1018h-325v-1018h-33z" />
<glyph horiz-adv-x="473" d="M74 0l286 1380h-278v33h317l-286 -1380h276v-33h-315zM106 1593h41l91 -96q23 23 45 47.5t43 48.5h41l-119 -131h-23z" />
<glyph horiz-adv-x="473" d="M72 0l286 1018h-276v33h319l-286 -1018h274v-33h-317zM121 1251h43l88 -96q23 25 44 48.5t44 47.5h41l-117 -131h-24z" />
<glyph unicode=" "  horiz-adv-x="366" />
<glyph unicode="&#x09;" horiz-adv-x="366" />
<glyph unicode="&#xa0;" horiz-adv-x="366" />
<glyph unicode="!" horiz-adv-x="180" d="M74 0v119h32v-119h-32zM74 293v1120h32v-1120h-32z" />
<glyph unicode="&#x22;" horiz-adv-x="280" d="M74 1176v290h32v-290h-32zM174 1176v290h33v-290h-33z" />
<glyph unicode="#" horiz-adv-x="483" d="M76 492l2 28h72q4 35 9 62.5t9 62.5h-70v31h72q10 72 20.5 148.5t20.5 148.5h35l-43 -297h102q10 72 20.5 148.5t20.5 148.5h31l-43 -297h74l-2 -31h-74q-4 -35 -9.5 -62.5t-9.5 -62.5h74l-4 -28h-74q-10 -74 -21.5 -153t-21.5 -151h-33l43 304h-100q-10 -74 -20.5 -153 t-20.5 -151h-33l43 304h-69zM182 520h99q4 35 9 62.5t9 62.5h-102q-4 -35 -7.5 -62.5t-7.5 -62.5z" />
<glyph unicode="$" d="M76 281v108h33v-108q0 -53 37.5 -93.5t91.5 -40.5q53 0 91 40t38 94v297q0 31 -14.5 56t-37.5 46q-10 10 -29.5 19.5t-39.5 19.5h2h-4q-2 0 -2 2q-4 2 -8.5 3t-8.5 3v-2q-35 14 -52 24.5t-40 26.5q-27 23 -42 54.5t-15 72.5v230q0 66 42 112.5t103 50.5v117h33v-117 q61 -4 103 -51t42 -112v-109h-32v109q0 55 -38 94t-91 39t-91 -39t-38 -94v-230q0 -66 45 -104q12 -12 28.5 -19.5t38.5 -15.5q6 -4 12.5 -5t12.5 -5v2q29 -12 48 -22.5t42 -26.5q29 -23 46 -56t17 -73v-297q0 -63 -42 -111.5t-103 -54.5v-115h-31v115q-63 6 -105 53 t-42 113z" />
<glyph unicode="%" horiz-adv-x="757" d="M78 1028v221q0 59 40 102.5t95 43.5q59 0 97 -43t38 -103v-221q0 -63 -38 -105t-97 -42q-55 0 -95 42t-40 105zM109 1028q0 -47 30.5 -81t73.5 -34q45 0 75.5 34t30.5 81v221q0 47 -30.5 81t-75.5 34q-43 0 -73.5 -34t-30.5 -81v-221zM205 0l299 1380h31l-297 -1380h-33z M408 145v220q0 63 38.5 105t96.5 42q57 0 96 -42t39 -105v-220q0 -59 -39 -102t-96 -43t-96 43t-39 102zM438 145q0 -47 30 -80.5t75 -33.5q43 0 74.5 33.5t31.5 80.5v220q0 49 -31.5 83.5t-74.5 34.5q-45 0 -75 -34.5t-30 -83.5v-220z" />
<glyph unicode="&#x26;" d="M76 166v487q0 49 25.5 89t66.5 61q-41 23 -66.5 62.5t-25.5 86.5v295q0 70 47 118t115 48t114.5 -52t46.5 -124h-32q0 59 -38 101t-91 42t-91 -38.5t-38 -94.5v-295q0 -55 37.5 -95t91.5 -40h129v84h32v-985h-32v150q-23 -29 -56.5 -47.5t-72.5 -18.5q-68 0 -115 47 t-47 119zM109 166q0 -55 37.5 -94t91.5 -39q53 0 91 39t38 94v622h-129q-53 0 -91 -39.5t-38 -95.5v-487z" />
<glyph unicode="'" horiz-adv-x="180" d="M74 1176v290h32v-290h-32z" />
<glyph unicode="(" horiz-adv-x="323" d="M76 1331q0 68 49 116t123 48v-31q-59 0 -100.5 -40t-41.5 -93v-1249q0 -53 41 -93t101 -40v-21l-10 -10q-70 0 -116 47t-44 117q0 315 -1 625.5t-1 623.5z" />
<glyph unicode=")" horiz-adv-x="323" d="M76 -51q57 0 98 40t41 93v1249q0 53 -41 93t-98 40v31q72 0 122 -48t50 -116v-1249q0 -70 -50.5 -117t-121.5 -47v31z" />
<glyph unicode="*" horiz-adv-x="415" d="M76 1135l98 61q-25 14 -50.5 29.5t-47.5 27.5l4 31l110 -63v182h33v-184q27 14 52.5 30.5t50.5 30.5l22 -25l-108 -59q27 -16 55.5 -34.5t50.5 -31.5l-20 -22l-103 61v-184h-33v184q-29 -16 -57.5 -33.5t-52.5 -31.5z" />
<glyph unicode="+" horiz-adv-x="458" d="M76 477v31h133v346h33v-346h141v-31h-141v-342h-33v342h-133z" />
<glyph unicode="," horiz-adv-x="225" d="M68 -111l51 125v105h33v-113l-48 -117h-36z" />
<glyph unicode="-" horiz-adv-x="458" d="M76 477v31h307v-31h-307z" />
<glyph unicode="." horiz-adv-x="180" d="M74 0v119h32v-119h-32z" />
<glyph unicode="/" horiz-adv-x="483" d="M74 0l305 1413h29l-302 -1413h-32z" />
<glyph unicode="0" d="M76 115v1181q0 72 47 94.5t115 22.5t114.5 -22.5t46.5 -94.5v-1181q0 -70 -47 -92.5t-114 -22.5q-68 0 -115 22.5t-47 92.5zM109 115q0 -53 37.5 -67.5t91.5 -14.5q53 0 91 14t38 68v1181q0 53 -38 68.5t-91 15.5t-91 -15t-38 -69v-1181z" />
<glyph unicode="1" horiz-adv-x="309" d="M70 1163l141 252h22v-1415h-28v1348q-27 -47 -53.5 -95.5t-51.5 -91.5z" />
<glyph unicode="2" d="M76 0v594q0 41 17.5 73.5t45.5 55.5q20 16 40 26.5t50 22.5v-2q6 4 12.5 5t12.5 5q20 6 37.5 13.5t30.5 21.5q45 41 45 105v327q0 55 -38 94t-91 39t-91 -38.5t-38 -94.5v-108h-33v108q0 70 47 118t115 48t114.5 -48t46.5 -118v-327q0 -41 -15 -74t-42 -55 q-23 -16 -40 -25.5t-52 -24.5v2q-4 -2 -8 -3t-9 -3q-2 0 -3 -1t-3 -1h2q-23 -10 -41 -19t-28 -20q-23 -20 -37 -45.5t-14 -56.5v-561h274v-33h-307z" />
<glyph unicode="3" d="M76 176h33q0 -59 37.5 -101t91.5 -42q53 0 91 39t38 94v455q0 53 -38 93t-91 40h-72v32h72q53 0 91 39t38 97v325q0 55 -38 94t-91 39t-91 -42t-38 -101h-33q0 72 47 124t115 52t114.5 -48t46.5 -118v-325q0 -49 -25.5 -90t-66.5 -62q41 -20 66.5 -60t25.5 -89v-455 q0 -72 -46.5 -119t-114.5 -47t-115 50t-47 126z" />
<glyph unicode="4" horiz-adv-x="464" d="M74 461l231 954h29v-921h55v-33h-55v-461h-31v461h-229zM111 494h192v778q-47 -199 -96 -389.5t-96 -388.5z" />
<glyph unicode="5" d="M76 176h33q0 -59 37.5 -101t91.5 -42q53 0 91 39t38 94v553q0 55 -38 94t-91 39t-91 -42t-38 -101l-33 4v700h313v-33h-280v-561q23 29 56.5 47.5t72.5 18.5q68 0 114.5 -48.5t46.5 -117.5v-553q0 -72 -46.5 -119t-114.5 -47t-115 50t-47 126z" />
<glyph unicode="6" d="M76 166v1081q0 70 47 118t115 48t114.5 -48t46.5 -118v-123h-32v123q0 55 -38 94t-91 39t-91 -38.5t-38 -94.5v-510q23 29 56.5 46.5t72.5 17.5q68 0 114.5 -47t46.5 -117v-471q0 -72 -46.5 -119t-114.5 -47t-115 47t-47 119zM109 166q0 -55 37.5 -94t91.5 -39 q53 0 91 39t38 94v471q0 55 -38 95t-91 40t-91 -40t-38 -95v-471z" />
<glyph unicode="7" horiz-adv-x="464" d="M76 1380v33h315l-227 -1413h-31l221 1380h-278z" />
<glyph unicode="8" d="M76 166v455q0 49 25.5 89t66.5 60q-41 20 -66.5 61t-25.5 91v325q0 70 47 118t115 48t114.5 -48t46.5 -118v-325q0 -49 -25.5 -90t-66.5 -62q41 -20 66.5 -60t25.5 -89v-455q0 -72 -46.5 -119t-114.5 -47t-115 47t-47 119zM109 166q0 -55 37.5 -94t91.5 -39q53 0 91 39 t38 94v455q0 53 -38 93t-91 40t-91 -40t-38 -93v-455zM109 922q0 -57 37.5 -96.5t91.5 -39.5q53 0 91 39t38 97v325q0 55 -38 94t-91 39t-91 -38.5t-38 -94.5v-325z" />
<glyph unicode="9" d="M76 166v121h33v-121q0 -55 37.5 -94t91.5 -39q53 0 91 39t38 94v510q-23 -29 -55.5 -47.5t-73.5 -18.5q-68 0 -115 48.5t-47 117.5v471q0 70 47 118t115 48t114.5 -48t46.5 -118v-1081q0 -72 -46.5 -119t-114.5 -47t-115 47t-47 119zM109 776q0 -55 37.5 -94t91.5 -39 q53 0 91 39t38 94v471q0 55 -38 94t-91 39t-91 -38.5t-38 -94.5v-471z" />
<glyph unicode=":" horiz-adv-x="180" d="M74 0v119h32v-119h-32zM74 659v121h32v-121h-32z" />
<glyph unicode=";" horiz-adv-x="225" d="M68 -111l51 125v105h33v-113l-48 -117h-36zM119 659v121h33v-121h-33z" />
<glyph unicode="&#x3c;" horiz-adv-x="403" d="M72 502l219 246l47 -3l-221 -243q25 -29 54.5 -60.5t59 -63.5t57 -63.5t52.5 -58.5h-45z" />
<glyph unicode="=" horiz-adv-x="458" d="M76 403v33h307v-33h-307zM76 559v33h307v-33h-307z" />
<glyph unicode="&#x3e;" horiz-adv-x="403" d="M63 256l224 246q-53 57 -110.5 120.5t-110.5 122.5l45 3l221 -246l-223 -246h-46z" />
<glyph unicode="?" d="M76 1139v108q0 70 47 118t115 48t114.5 -48t46.5 -118v-344q0 -74 -37 -117l-32 -32q-4 -2 -13.5 -10.5t-19.5 -16.5q-10 -6 -23.5 -15.5t-23.5 -23.5q-25 -37 -25 -96v-299h-30v299q0 76 30 115q10 16 26.5 28.5t35.5 24.5q16 10 28.5 21.5t22.5 23.5q29 41 29 98v344 q0 55 -38 94t-91 39t-91 -38.5t-38 -94.5v-108h-33zM195 0v119h30v-119h-30z" />
<glyph unicode="@" d="M76 299v774q0 70 47 117t115 47t114.5 -47t46.5 -117v-616q0 -23 -12 -38.5t-31 -15.5q-18 0 -31.5 15.5t-13.5 38.5v43q-12 -12 -32.5 -24.5t-36.5 -12.5q-45 0 -75 39t-30 98v215q0 59 30 98t75 39q47 0 69 -34v43h33v-504q0 -20 12 -21q10 0 11 21v616q0 53 -38 93 t-91 40t-91 -40t-38 -93v-774q0 -55 37.5 -94t91.5 -39q53 0 91 42t38 101h22l10 -10q0 -70 -47 -118t-114 -48q-68 0 -115 48t-47 118zM168 600q0 -43 21.5 -73.5t52.5 -30.5q29 0 49 30.5t20 73.5v213q0 45 -20.5 76t-48.5 31q-31 0 -52.5 -31t-21.5 -76v-213z" />
<glyph unicode="A" horiz-adv-x="387" d="M31 0l147 1413h31l145 -1413h-30l-60 578h-141q-14 -141 -27.5 -289t-29.5 -289h-35zM127 610h135q-10 88 -17 166t-15.5 153t-16.5 153.5t-18 168.5q-16 -164 -33 -319.5t-35 -321.5z" />
<glyph unicode="B" horiz-adv-x="460" d="M76 0v1413h147q33 0 62.5 -13.5t51 -36t35 -52t13.5 -64.5v-377q0 -49 -25.5 -88t-66.5 -61q41 -23 66.5 -61.5t25.5 -88.5v-405q0 -72 -48 -119t-114 -47h-147zM109 33h114q53 0 91 39t38 94v405q0 55 -38 94.5t-91 39.5h-114v-672zM109 737h114q53 0 91 38t38 95v377 q0 55 -38 94t-91 39h-114v-643z" />
<glyph unicode="C" d="M76 166v1081q0 70 47 118t115 48t114.5 -48t46.5 -118v-108h-32v108q0 55 -38 94t-91 39t-91 -38.5t-38 -94.5v-1081q0 -55 37.5 -94t91.5 -39q53 0 91 39t38 94v108h32v-108q0 -72 -47 -119t-114 -47q-68 0 -115 47t-47 119z" />
<glyph unicode="D" horiz-adv-x="460" d="M76 0v1413h147q68 0 115 -49t47 -117v-1081q0 -70 -47 -118t-115 -48h-147zM109 33h114q55 0 92 40t37 93v1081q0 53 -36.5 93t-92.5 40h-114v-1347z" />
<glyph unicode="E" horiz-adv-x="458" d="M76 0v1413h307v-33h-274v-643h233v-30h-233v-674h274v-33h-307z" />
<glyph unicode="F" horiz-adv-x="411" d="M76 0v1413h307v-33h-274v-655h233v-33h-233v-692h-33z" />
<glyph unicode="G" d="M76 166v1081q0 70 47 118t115 48t114.5 -48t46.5 -118v-108h-32v108q0 55 -38 94t-91 39t-91 -38.5t-38 -94.5v-1081q0 -55 37.5 -94t91.5 -39q53 0 91 39t38 94v530h-138v31h170v-561q0 -72 -47 -119t-114 -47q-68 0 -115 47t-47 119z" />
<glyph unicode="H" horiz-adv-x="473" d="M76 0v1413h33v-676h258v676h30v-1413h-30v707h-258v-707h-33z" />
<glyph unicode="I" horiz-adv-x="180" d="M74 0v1415h32v-1415h-32z" />
<glyph unicode="J" d="M76 166v108h33v-108q0 -55 37.5 -94t91.5 -39q53 0 91 39t38 94v1241h32v-1241q0 -72 -47 -119t-114 -47q-68 0 -115 47t-47 119z" />
<glyph unicode="K" horiz-adv-x="425" d="M76 0v1413h33v-665l260 665h34l-288 -737q72 -166 144.5 -338t143.5 -338h-34l-260 610v-610h-33z" />
<glyph unicode="L" horiz-adv-x="458" d="M76 0v1413h33v-1380h274v-33h-307z" />
<glyph unicode="M" horiz-adv-x="575" d="M76 -4v1417h30l181 -1288q45 322 91 645.5t91 642.5h29v-1417h-31v1184q-41 -299 -83 -591t-83 -589h-29l-163 1182v-1186h-33z" />
<glyph unicode="N" horiz-adv-x="473" d="M76 0v1413h30l261 -1251v1251h30v-1413h-28l-260 1249v-1249h-33z" />
<glyph unicode="O" d="M76 166v1081q0 70 47 118t115 48t114.5 -48t46.5 -118v-1081q0 -72 -47 -119t-114 -47q-68 0 -115 47t-47 119zM109 166q0 -55 37.5 -94t91.5 -39q53 0 91 39t38 94v1081q0 55 -38 94t-91 39t-91 -38.5t-38 -94.5v-1081z" />
<glyph unicode="P" horiz-adv-x="460" d="M76 0v1413h147q33 0 62.5 -13.5t51 -36t35 -52t13.5 -64.5v-377q0 -35 -13.5 -64.5t-35 -52t-51 -35.5t-62.5 -13h-114v-705h-33zM109 737h114q53 0 91 38t38 95v377q0 55 -38 94t-91 39h-114v-643z" />
<glyph unicode="Q" horiz-adv-x="462" d="M76 166v1081q0 70 47 118t115 48t114.5 -48t46.5 -118v-1081q0 -70 -44 -116t-107 -50q47 -29 95 -59.5t93 -59.5l-20 -26l-264 172q-33 23 -54.5 58.5t-21.5 80.5zM109 166q0 -55 37.5 -94t91.5 -39q53 0 91 39t38 94v1081q0 55 -38 94t-91 39t-91 -38.5t-38 -94.5 v-1081z" />
<glyph unicode="R" horiz-adv-x="460" d="M76 0v1413h147q33 0 62.5 -13.5t51 -36t35 -52t13.5 -64.5v-377q0 -49 -25.5 -88t-66.5 -61q41 -23 66.5 -61.5t25.5 -88.5v-571h-33v571q0 55 -38 94.5t-91 39.5h-114v-705h-33zM109 737h114q53 0 91 38t38 95v377q0 55 -38 94t-91 39h-114v-643z" />
<glyph unicode="S" d="M76 166v108h33v-108q0 -55 37.5 -94t91.5 -39q53 0 91 39t38 94v412q0 31 -14.5 56t-37.5 46q-10 10 -29.5 19.5t-39.5 19.5h2h-4q-2 0 -2 2q-4 2 -8.5 3t-8.5 3v-2q-35 14 -52 24.5t-40 26.5q-27 23 -42 54.5t-15 72.5v344q0 70 47 118t115 48t114.5 -48t46.5 -118v-108 h-32v108q0 55 -38 94t-91 39t-91 -38.5t-38 -94.5v-344q0 -66 45 -104q12 -12 28.5 -19.5t38.5 -15.5q6 -4 12.5 -5t12.5 -5v2q29 -12 48 -22.5t42 -26.5q29 -23 46 -56t17 -73v-412q0 -72 -47 -119t-114 -47q-68 0 -115 47t-47 119z" />
<glyph unicode="T" horiz-adv-x="374" d="M33 1380v33h309v-33h-137v-1380h-33v1380h-139z" />
<glyph unicode="U" d="M76 166v1241h33v-1241q0 -55 37.5 -94t91.5 -39q53 0 91 39t38 94v1241h32v-1241q0 -72 -47 -119t-114 -47q-68 0 -115 47t-47 119z" />
<glyph unicode="V" horiz-adv-x="387" d="M31 1413h35l129 -1249q33 311 64.5 624.5t64.5 624.5h32l-147 -1413h-31z" />
<glyph unicode="W" horiz-adv-x="632" d="M37 1413h33l114 -1237q29 311 58.5 619.5t58.5 617.5h31l117 -1241q29 303 58.5 621.5t57.5 619.5h31l-131 -1413h-33l-117 1235q-29 -307 -57.5 -617.5t-56.5 -617.5h-33z" />
<glyph unicode="X" horiz-adv-x="387" d="M31 0l147 707q-35 170 -73.5 353t-73.5 353h32l132 -631q35 156 66.5 315.5t64.5 315.5h30l-147 -706q35 -170 74 -353.5t73 -353.5h-30l-131 633q-35 -158 -67 -316.5t-65 -316.5h-32z" />
<glyph unicode="Y" horiz-adv-x="380" d="M29 1413h30l131 -665q35 166 66 332.5t66 332.5h30l-145 -751v-662h-31v662q-35 182 -74 376.5t-73 374.5z" />
<glyph unicode="Z" horiz-adv-x="473" d="M74 0l286 1380h-278v33h317l-286 -1380h276v-33h-315z" />
<glyph unicode="[" horiz-adv-x="256" d="M76 -82v1577h188v-31h-158v-1515h158v-31h-188z" />
<glyph unicode="\" horiz-adv-x="395" d="M31 1413h30l306 -1413h-33z" />
<glyph unicode="]" horiz-adv-x="256" d="M2 -51h158v1515h-158v31h188v-1577h-188v31z" />
<glyph unicode="^" horiz-adv-x="307" d="M74 961l65 452h29l65 -452h-30l-49 315q-12 -78 -25.5 -158t-24.5 -157h-30z" />
<glyph unicode="_" horiz-adv-x="493" d="M12 -117h467v-33h-467v33z" />
<glyph unicode="`" horiz-adv-x="286" d="M63 1403h41l117 -141h-37z" />
<glyph unicode="a" d="M76 164v297q0 68 47 117t115 49q41 0 73.5 -18.5t55.5 -49.5v324q0 53 -38 93t-91 40t-91 -40t-38 -93v-109h-33v109q0 68 47 117t115 49t114.5 -49.5t46.5 -116.5v-885h-32v65q-48 -65 -127 -65h-2q-68 0 -115 48t-47 118zM109 164q0 -55 37.5 -94t91.5 -39q53 0 91 39 t38 94v297q0 53 -38 93t-91 40t-91 -40t-38 -93v-297z" />
<glyph unicode="b" d="M76 0v1413h33v-430q23 29 56.5 48.5t72.5 19.5q68 0 114.5 -49.5t46.5 -116.5v-719q0 -72 -47 -119t-114 -47q-39 0 -73 18.5t-56 47.5v-66h-33zM109 166q0 -55 37.5 -94t91.5 -39q53 0 91 39t38 94v719q0 53 -38 93t-91 40t-91 -40t-38 -93v-719z" />
<glyph unicode="c" d="M76 166v719q0 68 47 117t115 49t114.5 -49.5t46.5 -116.5v-109h-32v109q0 53 -38 93t-91 40t-91 -40t-38 -93v-719q0 -55 37.5 -94t91.5 -39q53 0 91 39t38 94v108h32v-108q0 -72 -47 -119t-114 -47q-68 0 -115 47t-47 119z" />
<glyph unicode="d" d="M76 166v719q0 68 47 117t115 49q39 0 72.5 -19.5t56.5 -48.5v430h32v-1413h-32v66q-49 -66 -129 -66q-68 0 -115 47t-47 119zM109 166q0 -55 37.5 -94t91.5 -39q53 0 91 39t38 94v719q0 53 -38 93t-91 40t-91 -40t-38 -93v-719z" />
<glyph unicode="e" d="M76 166v719q0 68 47 117t115 49t114.5 -49.5t46.5 -116.5v-324h-290v-395q0 -55 37.5 -94t91.5 -39q53 0 91 39t38 94v108h32v-108q0 -72 -47 -119t-114 -47q-68 0 -115 47t-47 119zM109 592h258v293q0 53 -38 93t-91 40t-91 -40t-38 -93v-293z" />
<glyph unicode="f" horiz-adv-x="393" d="M76 0v1247q0 70 47 118t115 48t114.5 -52t46.5 -124h-32q0 59 -38 101t-91 42t-91 -38.5t-38 -94.5v-196h231v-33h-231v-1018h-33z" />
<glyph unicode="g" d="M76 166v719q0 68 47 117t115 49q39 0 72.5 -19.5t56.5 -48.5v68h32v-1250q0 -68 -47 -115.5t-114 -47.5q-68 0 -115 51t-47 123h33q0 -59 37.5 -101.5t91.5 -42.5q53 0 91 40t38 93v265q-23 -29 -57 -47.5t-72 -18.5q-68 0 -115 47t-47 119zM109 166q0 -55 37.5 -94 t91.5 -39q53 0 91 39t38 94v719q0 53 -38 93t-91 40t-91 -40t-38 -93v-719z" />
<glyph unicode="h" d="M76 0v1413h33v-430q23 29 56.5 48.5t72.5 19.5q68 0 114.5 -49.5t46.5 -116.5v-885h-32v885q0 53 -38 93t-91 40t-91 -40t-38 -93v-885h-33z" />
<glyph unicode="i" horiz-adv-x="180" d="M74 0v1051h32v-1051h-32zM74 1157v166h32v-166h-32z" />
<glyph unicode="j" horiz-adv-x="190" d="M-57 -328q59 0 100 40t41 95v1244h29v-1244q0 -70 -49.5 -117.5t-120.5 -47.5v30zM84 1157v166h29v-166h-29z" />
<glyph unicode="k" horiz-adv-x="425" d="M76 0v1409h33v-827q66 117 132 235.5t132 233.5h30l-290 -521q72 -129 145.5 -265t144.5 -265h-30l-264 479v-479h-33z" />
<glyph unicode="l" horiz-adv-x="180" d="M74 0v1413h32v-1413h-32z" />
<glyph unicode="m" horiz-adv-x="772" d="M78 0v1051h33v-68q23 29 56.5 48.5t72.5 19.5q47 0 86 -28t59 -69q20 43 59 70t88 27q33 0 63 -13.5t51.5 -36t34.5 -53t13 -63.5v-885h-32v885q0 53 -38 93t-92 40q-55 0 -93 -40t-38 -93v-885h-32v885q0 53 -38 93t-91 40t-91 -40t-38 -93v-885h-33z" />
<glyph unicode="n" d="M76 0v1051h33v-68q23 29 56.5 48.5t72.5 19.5q68 0 114.5 -49.5t46.5 -116.5v-885h-32v885q0 53 -38 93t-91 40t-91 -40t-38 -93v-885h-33z" />
<glyph unicode="o" d="M76 166v719q0 68 47 117t115 49t114.5 -49.5t46.5 -116.5v-719q0 -72 -47 -119t-114 -47q-68 0 -115 47t-47 119zM109 166q0 -55 37.5 -94t91.5 -39q53 0 91 39t38 94v719q0 53 -38 93t-91 40t-91 -40t-38 -93v-719z" />
<glyph unicode="p" d="M76 -362v1413h33v-68q23 29 56.5 48.5t72.5 19.5q68 0 114.5 -49.5t46.5 -116.5v-719q0 -72 -47 -119t-114 -47q-39 0 -73 18.5t-56 47.5v-428h-33zM109 166q0 -55 37.5 -94t91.5 -39q53 0 91 39t38 94v719q0 53 -38 93t-91 40t-91 -40t-38 -93v-719z" />
<glyph unicode="q" d="M76 166v719q0 68 47 117t115 49q39 0 72.5 -19.5t56.5 -48.5v68h32v-1413h-32v428q-49 -66 -129 -66q-68 0 -115 47t-47 119zM109 166q0 -55 37.5 -94t91.5 -39q53 0 91 39t38 94v719q0 53 -38 93t-91 40t-91 -40t-38 -93v-719z" />
<glyph unicode="r" horiz-adv-x="417" d="M76 0v1051h33v-68q23 29 56.5 48.5t72.5 19.5q33 0 62.5 -14.5t52 -39t34.5 -56.5t12 -67h-32q0 59 -38 101.5t-91 42.5t-91 -40t-38 -93v-885h-33z" />
<glyph unicode="s" d="M76 164v108h33v-108q0 -55 37.5 -94t91.5 -39q53 0 91 39t38 94v217q0 31 -14.5 57.5t-37.5 46.5q-10 10 -29.5 18.5t-39.5 18.5h2h-4q-2 0 -2 2q-4 2 -8.5 3t-8.5 3v-2q-35 14 -52 24.5t-40 27.5q-27 23 -42 54.5t-15 72.5v178q0 68 47 117t115 49t114.5 -49.5 t46.5 -116.5v-109h-32v109q0 53 -38 93t-91 40t-91 -40t-38 -93v-178q0 -63 45 -103q16 -12 35.5 -22.5t41.5 -20.5q4 -2 11.5 -5t11.5 -5q-2 0 10 -2q20 -10 36.5 -18.5t35.5 -22.5q29 -23 46 -54.5t17 -72.5v-217q0 -70 -47 -118t-114 -48q-68 0 -115 48t-47 118z" />
<glyph unicode="t" horiz-adv-x="309" d="M27 1018v33h90v256h33v-256h137v-33h-137v-852q0 -55 40.5 -94t98.5 -39v-23l-10 -10q-66 0 -114 47t-48 119v852h-90z" />
<glyph unicode="u" d="M76 166v885h33v-885q0 -55 37.5 -94t91.5 -39q53 0 91 39t38 94v885h32v-885q0 -72 -47 -119t-114 -47q-68 0 -115 47t-47 119z" />
<glyph unicode="v" horiz-adv-x="387" d="M31 1051h32l132 -926q35 233 65.5 462.5t65.5 463.5h30l-147 -1051h-29z" />
<glyph unicode="w" horiz-adv-x="663" d="M35 1051h31l122 -918q33 229 66 458.5t65 459.5h27l131 -918q31 229 62.5 458.5t60.5 459.5h29l-137 -1051h-27l-133 924q-33 -231 -66 -463t-65 -461h-27z" />
<glyph unicode="x" horiz-adv-x="389" d="M31 0l149 524q-35 125 -74.5 263.5t-74.5 263.5h35l129 -467q33 115 66.5 233.5t66.5 233.5h32l-149 -527q35 -125 75 -262t74 -262h-32l-133 465q-33 -117 -66 -233.5t-63 -231.5h-35z" />
<glyph unicode="y" d="M76 166v885h33v-885q0 -55 37.5 -94t91.5 -39q53 0 91 39t38 94v885h32v-1250q0 -68 -47 -115.5t-114 -47.5q-68 0 -115 51t-47 123h33q0 -59 37.5 -101.5t91.5 -42.5q53 0 91 40t38 93v265q-23 -29 -57 -47.5t-72 -18.5q-68 0 -115 47t-47 119z" />
<glyph unicode="z" horiz-adv-x="473" d="M72 0l286 1018h-276v33h319l-286 -1018h274v-33h-317z" />
<glyph unicode="{" horiz-adv-x="380" d="M76 694v33q59 0 99 40t42 93q0 117 -1 234.5t-1 234.5q0 33 13.5 63.5t37 53t55 36t68.5 13.5v-33q-59 0 -99 -40t-40 -93v-469q0 -49 -25.5 -88t-66.5 -61q41 -23 66.5 -62t25.5 -88v-471q0 -53 40 -93t99 -40v-23l-10 -8q-68 0 -116 48.5t-46 115.5q0 117 -1 235.5 t-1 235.5q0 55 -40 94t-99 39z" />
<glyph unicode="|" horiz-adv-x="180" d="M74 -82v1577h32v-1577h-32z" />
<glyph unicode="}" horiz-adv-x="370" d="M-8 -43q59 0 99 40t40 93v471q0 49 24.5 89t65.5 61q-41 20 -65.5 60t-24.5 89v469q0 53 -40 93t-99 40v33q35 0 66.5 -13.5t55 -36t37 -53t13.5 -63.5q0 -117 1 -234.5t1 -234.5q0 -53 40 -93t99 -40v-33q-59 0 -99 -39t-42 -94v-469l2 -2q0 -68 -51.5 -116t-122.5 -48 v31z" />
<glyph unicode="~" horiz-adv-x="600" d="M74 1083q27 33 59.5 49.5t67.5 16.5q59 0 108 -43q37 -31 88 -31q27 0 55.5 11.5t53.5 39.5l20 -20q-27 -33 -61.5 -49.5t-69.5 -16.5q-59 0 -106 39q-41 35 -88 35q-27 0 -55.5 -13.5t-51.5 -37.5z" />
<glyph unicode="&#xa1;" horiz-adv-x="180" d="M74 -82v1118h32v-1118h-32zM74 1212v119h32v-119h-32z" />
<glyph unicode="&#xa2;" d="M76 166v590q0 66 42 112.5t103 53.5v114h33v-114q61 -6 103 -53.5t42 -112.5v-111h-32v111q0 53 -38 93t-91 40t-91 -40t-38 -93v-590q0 -55 37.5 -94t91.5 -39q53 0 91 39t38 94v108h32v-108q0 -66 -42 -113t-103 -53v-115h-33v115q-61 6 -103 53t-42 113z" />
<glyph unicode="&#xa3;" d="M76 0v1247q0 70 47 118t115 48t114.5 -48t46.5 -118v-108h-32v108q0 55 -38 94t-91 39t-91 -38.5t-38 -94.5v-452h227v-31h-227v-731h274v-33h-307z" />
<glyph unicode="&#xa4;" horiz-adv-x="647" d="M78 479v47l69 74q-29 68 -28 150q0 84 28 147q-18 16 -35.5 33.5t-33.5 34.5v49l86 -86q61 102 160 102q49 0 88 -25.5t67 -72.5l90 90v-49l-71 -72q16 -35 24 -72.5t8 -78.5q0 -84 -34 -154l73 -76v-47l-90 90q-59 -90 -155 -90q-100 0 -156 96zM154 750q0 -51 13 -96.5 t36.5 -79t54.5 -53t66 -19.5t66.5 19.5t55 53t37 79t13.5 96.5t-13.5 96t-37 78.5t-55.5 53t-66 19.5q-35 0 -66 -19.5t-54.5 -53t-36.5 -78.5t-13 -96z" />
<glyph unicode="&#xa5;" horiz-adv-x="393" d="M35 1413h31l131 -665q35 166 65.5 332.5t65.5 332.5h30l-145 -751v-70h141v-33h-141v-123h141v-33h-141v-403h-33v403h-133v33h133v123h-133v33h133v70q-35 182 -72.5 376.5t-72.5 374.5z" />
<glyph unicode="&#xa6;" horiz-adv-x="180" d="M74 -150v670h32v-670h-32zM74 725v670h32v-670h-32z" />
<glyph unicode="&#xa7;" horiz-adv-x="481" d="M76 889v164q0 70 47 118t115 48t114.5 -48.5t46.5 -117.5v-111h-32v111q0 55 -38 94t-91 39t-91 -39t-38 -94v-164q0 -68 45 -103q10 -10 28.5 -20t38.5 -18h2q0 -2 23 -11v2q31 -12 50 -22t40 -27q29 -23 46 -54.5t17 -72.5v-39q0 -41 -17 -76.5t-52 -58.5q10 -4 12 -7 t6 -7h-2q59 -47 60 -127v-164q0 -70 -48.5 -117t-115.5 -47q-66 0 -114 47t-48 117v111h33v-111q0 -53 37.5 -93t91.5 -40q53 0 92 40t39 93v164q0 66 -58 110q-6 8 -20 14.5t-31 12.5l-10 5t-21 7q-29 12 -49 22.5t-39 26.5q-29 23 -47 56t-18 71v39q0 41 18.5 76t51.5 57 q-4 4 -10.5 8.5t-8.5 8.5h2q-27 23 -42 54.5t-15 72.5zM113 573q0 -61 51 -100q31 -29 80 -43q6 -4 20.5 -10t30.5 -14q31 16 51.5 46.5t20.5 71.5v39q0 31 -14.5 56.5t-37.5 44.5q-14 12 -34.5 23t-42.5 20q-12 4 -19.5 5t-36.5 17q-31 -16 -50 -48t-19 -69v-39zM176 733 q0 -2 2 -2zM297 406q4 -4 8 -5l-4 5h-2h-2z" />
<glyph unicode="&#xa8;" horiz-adv-x="272" d="M74 1327v90h32v-90h-32zM166 1327v90h33v-90h-33z" />
<glyph unicode="&#xa9;" horiz-adv-x="421" d="M76 881v368q0 59 40 102.5t95 43.5q57 0 96 -43t39 -103v-368q0 -63 -39 -105.5t-96 -42.5q-55 0 -95 42t-40 106zM106 881q0 -49 30 -83t75 -34t75.5 33.5t30.5 83.5v368q0 47 -30.5 81t-75.5 34t-75 -34t-30 -81v-368zM123 895v354q0 37 24.5 62.5t63.5 25.5 q37 0 61.5 -25.5t24.5 -62.5v-63h-29v63q0 23 -17.5 40.5t-39.5 17.5q-25 0 -42 -17.5t-17 -40.5v-354q0 -25 17 -42t42 -17q23 0 40 17t17 42v59h29v-59q0 -37 -24.5 -63.5t-61.5 -26.5q-39 0 -63.5 26.5t-24.5 63.5z" />
<glyph unicode="&#xaa;" d="M76 788v455q0 72 47 119t115 47q39 0 72.5 -18.5t56.5 -47.5v48h32v-766h-32v63q-47 -63 -129 -63q-68 0 -115 47t-47 116zM109 788q0 -55 37.5 -94t91.5 -39q53 0 91 39t38 94v455q0 55 -38 94t-91 39t-91 -39t-38 -94v-455z" />
<glyph unicode="&#xab;" horiz-adv-x="452" d="M76 434l123 248l43 -2l-129 -246q31 -57 65.5 -121.5t65.5 -122.5h-39zM213 434l127 248l41 -2l-129 -246q31 -57 65.5 -121.5t65.5 -122.5h-39z" />
<glyph unicode="&#xac;" horiz-adv-x="483" d="M76 477v31h330v-164h-31v133h-299z" />
<glyph unicode="&#xad;" horiz-adv-x="483" d="M76 477v31h330v-31h-330z" />
<glyph unicode="&#xae;" horiz-adv-x="421" d="M76 881v368q0 59 40 102.5t95 43.5q57 0 96 -43t39 -103v-368q0 -63 -39 -105.5t-96 -42.5q-55 0 -95 42t-40 106zM106 881q0 -51 27 -80v526q-14 -16 -20.5 -35.5t-6.5 -42.5v-368zM137 797q27 -33 74 -33t74 33h-13v200q0 23 -17 41.5t-40 18.5h-51v-260h-27zM139 1335 h76q39 0 63.5 -26.5t24.5 -63.5v-100q0 -53 -37 -74q14 -12 25.5 -31.5t11.5 -42.5v-176q6 14 10 28.5t4 31.5v368q0 47 -30.5 81t-75.5 34q-43 0 -72 -29zM164 1085h51q23 0 40 17.5t17 42.5v100q0 25 -17 41.5t-40 16.5h-51v-218z" />
<glyph unicode="&#xaf;" horiz-adv-x="380" d="M76 1321v31h229v-31h-229z" />
<glyph unicode="&#xb0;" d="M76 1233q0 72 47 120t115 48t114.5 -48t46.5 -120q0 -68 -47 -116t-114 -48q-68 0 -115 48t-47 116zM109 1233q0 -53 37.5 -93t91.5 -40q53 0 91 40t38 93q0 57 -38 96t-91 39t-91 -39t-38 -96z" />
<glyph unicode="&#xb1;" horiz-adv-x="458" d="M76 27v32h307v-32h-307zM76 477v31h137v346h33v-346h137v-31h-137v-342h-33v342h-137z" />
<glyph unicode="&#xb2;" d="M76 584v258q0 41 17.5 72.5t45.5 54.5q20 16 40 26.5t50 22.5v-2q20 10 21.5 11t1.5 -1q23 10 41 18.5t29 20.5q45 35 45 102v64q0 55 -38 94t-91 39t-91 -39t-38 -94v-43h-33v43q0 70 47 117t115 47t114.5 -47.5t46.5 -116.5v-64q0 -41 -15 -72.5t-42 -54.5 q-23 -16 -40 -26t-52 -25v2l-12 -6q-20 -10 -42 -21.5t-36 -21.5q-23 -18 -37 -44t-14 -56v-232h274v-32z" />
<glyph unicode="&#xb3;" d="M76 754h33q0 -59 37.5 -101.5t91.5 -42.5q53 0 91 39t38 94v158q0 53 -38 93t-91 40h-72v33h72q53 0 91 39t38 96v29q0 55 -38 94t-91 39t-91 -42t-38 -101h-33q0 74 47 124t115 50t114.5 -47.5t46.5 -116.5v-29q0 -49 -25.5 -90t-66.5 -61q41 -23 66.5 -63t25.5 -87 v-158q0 -72 -46.5 -118.5t-114.5 -46.5t-115 50t-47 126z" />
<glyph unicode="&#xb4;" horiz-adv-x="286" d="M66 1262l116 141h41l-121 -141h-36z" />
<glyph unicode="&#xb5;" horiz-adv-x="489" d="M76 -274v1325h33v-885q0 -55 37.5 -94t91.5 -39q53 0 91 39t38 94v885h32v-885q0 -53 -28 -96l-2 -4l-7 -7v2q-14 -20 -30 -41q-6 -10 -11.5 -21t-5.5 -22q0 -29 28 -36t71 6v-23l-8 -10q-57 -14 -89 1t-32 62q0 18 6 31q-23 -8 -53 -8q-41 0 -74 18.5t-55 47.5v-340h-33 z" />
<glyph unicode="&#xb6;" horiz-adv-x="522" d="M76 987v260q0 70 47 118t115 48h260v-33h-60v-1495h-32v1495h-70v-1495h-31v934h-67q-68 0 -115 49.5t-47 118.5z" />
<glyph unicode="&#xb7;" horiz-adv-x="180" d="M74 702v119h32v-119h-32z" />
<glyph unicode="&#xb8;" horiz-adv-x="274" d="M74 -156q41 0 68.5 23.5t27.5 56.5q0 29 -25.5 52.5t-62.5 27.5v31q51 -4 85 -35t34 -76q0 -47 -37 -78.5t-90 -31.5v30z" />
<glyph unicode="&#xb9;" horiz-adv-x="309" d="M70 1147l141 252h22v-821h-28v753q-27 -47 -53.5 -94t-51.5 -92z" />
<glyph unicode="&#xba;" d="M76 924v321q0 70 47 118t115 48t114.5 -48t46.5 -118v-321q0 -72 -47 -119t-114 -47q-68 0 -115 47t-47 119zM109 924q0 -55 37.5 -95.5t91.5 -40.5q53 0 91 40t38 96v321q0 55 -38 94t-91 39t-91 -39t-38 -94v-321z" />
<glyph unicode="&#xbb;" horiz-adv-x="452" d="M70 190l131 244q-31 59 -65 123t-64 123l39 2l127 -248l-129 -244h-39zM207 190l133 244q-31 59 -65.5 123t-65.5 123l41 2l127 -248l-131 -244h-39z" />
<glyph unicode="&#xbc;" horiz-adv-x="823" d="M72 1147l141 252h25v-821h-31v753q-25 -47 -51.5 -94t-51.5 -92zM231 0l306 1413h30l-303 -1413h-33zM428 164l231 657h31v-624h55v-33h-55v-164h-33v164h-229zM473 197h184v522q-47 -135 -92 -261t-92 -261z" />
<glyph unicode="&#xbd;" horiz-adv-x="907" d="M74 1147l141 252h23v-821h-29v753q-27 -47 -53.5 -94t-51.5 -92zM233 0l304 1413h30l-303 -1413h-31zM506 6v258q0 78 61 127q18 16 40 27.5t50 21.5q8 4 16.5 6.5t14.5 6.5q18 6 32.5 13t31.5 21q45 35 45 103v63q0 55 -39 95t-92 40t-92 -39.5t-39 -95.5v-43h-29v43 q0 70 46 117t114 47t114.5 -47t46.5 -117v-63q0 -78 -55 -127q-18 -14 -33.5 -22.5t-38.5 -18.5q-12 -4 -32.5 -13.5t-14.5 -5.5q-16 -4 -33.5 -15t-33.5 -21q-23 -18 -37 -45t-14 -58v-231h276v-33z" />
<glyph unicode="&#xbe;" horiz-adv-x="925" d="M80 754h31q0 -59 38.5 -101.5t92.5 -42.5q53 0 91 39t38 94v158q0 53 -38 93t-91 40h-74v33h74q53 0 91 39t38 96v29q0 55 -38 94t-91 39t-92 -42t-39 -101h-31q0 74 46 124t116 50q68 0 113.5 -47.5t45.5 -116.5v-29q0 -49 -25.5 -90t-66.5 -61q41 -23 66.5 -63 t25.5 -87v-158q0 -72 -45.5 -118.5t-113.5 -46.5q-70 0 -116 50t-46 126zM334 0l305 1413h31l-303 -1413h-33zM530 164l232 657h31v-624h53v-33h-53v-164h-33v164h-230zM569 197h191v520q-47 -127 -95.5 -259t-95.5 -261z" />
<glyph unicode="&#xbf;" d="M76 82v346q0 72 37 115q14 16 23 25.5t26 21.5h-2q4 4 6 5t6 5q29 12 53 43q25 31 25 96v297h31v-297q0 -39 -6.5 -67.5t-24.5 -48.5q-10 -12 -21.5 -21.5t-21.5 -17.5q-4 -2 -10.5 -6.5t-10.5 -6.5h2q-27 -20 -51 -49q-16 -20 -22 -41.5t-6 -52.5v-346q0 -53 37.5 -93 t91.5 -40q53 0 91 40t38 93v111h32v-111q0 -70 -47 -117t-114 -47q-68 0 -115 47t-47 117zM250 1212v119h31v-119h-31z" />
<glyph unicode="&#xc0;" horiz-adv-x="387" d="M31 0l147 1413h31l145 -1413h-30l-60 578h-141q-14 -141 -27.5 -289t-29.5 -289h-35zM115 1593h41l118 -139h-38zM127 610h135q-10 88 -17 166t-15.5 153t-16.5 153.5t-18 168.5q-16 -164 -33 -319.5t-35 -321.5z" />
<glyph unicode="&#xc1;" horiz-adv-x="387" d="M31 0l147 1413h31l145 -1413h-30l-60 578h-141q-14 -141 -27.5 -289t-29.5 -289h-35zM113 1454l118 139h41l-120 -139h-39zM127 610h135q-10 88 -17 166t-15.5 153t-16.5 153.5t-18 168.5q-16 -164 -33 -319.5t-35 -321.5z" />
<glyph unicode="&#xc2;" horiz-adv-x="387" d="M31 0l147 1413h31l145 -1413h-30l-60 578h-141q-14 -141 -27.5 -289t-29.5 -289h-35zM63 1462l119 131h25l117 -131h-41l-88 99l-89 -99h-43zM127 610h135q-10 88 -17 166t-15.5 153t-16.5 153.5t-18 168.5q-16 -164 -33 -319.5t-35 -321.5z" />
<glyph unicode="&#xc3;" horiz-adv-x="387" d="M18 1518q49 49 105 49q49 0 86 -31q31 -25 65 -25q41 0 82 41l17 -16v-14q-41 -41 -99 -41q-45 0 -86 28q-14 10 -31.5 16.5t-33.5 6.5q-39 0 -78 -37zM29 0l145 1413h31l145 -1413h-31l-57 578h-141q-16 -141 -29.5 -289t-30.5 -289h-32zM125 610h133q-10 90 -18.5 166 t-15.5 149.5t-15 149.5t-19 168q-16 -160 -32.5 -316.5t-32.5 -316.5z" />
<glyph unicode="&#xc4;" horiz-adv-x="387" d="M31 0l147 1413h31l145 -1413h-30l-60 578h-141q-14 -141 -27.5 -289t-29.5 -289h-35zM127 610h135q-10 88 -17 166t-15.5 153t-16.5 153.5t-18 168.5q-16 -164 -33 -319.5t-35 -321.5zM131 1483v92h33v-92h-33zM223 1483v92h33v-92h-33z" />
<glyph unicode="&#xc5;" horiz-adv-x="387" d="M31 0l147 1413h31l145 -1413h-30l-60 578h-141q-14 -141 -27.5 -289t-29.5 -289h-35zM84 1526q0 47 30.5 79.5t78.5 32.5q47 0 77.5 -32.5t30.5 -79.5q0 -45 -30.5 -77t-77.5 -32t-78 32t-31 77zM117 1526q0 -31 22.5 -53.5t53.5 -22.5t52 22.5t21 53.5q0 33 -21.5 56.5 t-51.5 23.5q-31 0 -53.5 -23.5t-22.5 -56.5zM127 610h135q-10 88 -17 166t-15.5 153t-16.5 153.5t-18 168.5q-16 -164 -33 -319.5t-35 -321.5z" />
<glyph unicode="&#xc6;" horiz-adv-x="667" d="M35 0l325 1413h271v-33h-240v-643h199v-30h-199v-674h240v-33h-273v707h-127q-41 -174 -81.5 -353.5t-81.5 -353.5h-33zM238 737h120v527z" />
<glyph unicode="&#xc7;" d="M76 166v1081q0 70 47 118t115 48t114.5 -48t46.5 -118v-108h-32v108q0 55 -38 94t-91 39t-91 -38.5t-38 -94.5v-1081q0 -55 37.5 -94t91.5 -39q53 0 91 39t38 94v108h32v-108q0 -59 -31.5 -103.5t-84.5 -56.5q16 -16 26 -37.5t10 -44.5q0 -47 -35.5 -78.5t-88.5 -31.5v30 q41 0 68.5 23.5t27.5 56.5q0 25 -18.5 46.5t-43.5 29.5q-63 4 -108 51t-45 115z" />
<glyph unicode="&#xc8;" horiz-adv-x="458" d="M76 0v1413h307v-33h-274v-643h233v-30h-233v-674h274v-33h-307zM150 1593h43l116 -139h-39z" />
<glyph unicode="&#xc9;" horiz-adv-x="458" d="M76 0v1413h307v-33h-274v-643h233v-30h-233v-674h274v-33h-307zM150 1454l118 139h41l-119 -139h-40z" />
<glyph unicode="&#xca;" horiz-adv-x="458" d="M76 0v1413h307v-33h-274v-643h233v-30h-233v-674h274v-33h-307zM100 1462l119 131h23l118 -131h-43l-88 99l-88 -99h-41z" />
<glyph unicode="&#xcb;" horiz-adv-x="458" d="M76 0v1413h307v-33h-274v-643h233v-30h-233v-674h274v-33h-307zM168 1483v92h31v-92h-31zM260 1483v92h31v-92h-31z" />
<glyph unicode="&#xcc;" horiz-adv-x="180" d="M10 1593h41l119 -139h-39zM74 0v1415h32v-1415h-32z" />
<glyph unicode="&#xcd;" horiz-adv-x="180" d="M10 1454l119 139h41l-121 -139h-39zM74 0v1415h32v-1415h-32z" />
<glyph unicode="&#xce;" horiz-adv-x="180" d="M-41 1462l119 131h24l117 -131h-41l-88 97l-88 -97h-43zM74 0v1415h32v-1415h-32z" />
<glyph unicode="&#xcf;" horiz-adv-x="180" d="M27 1483v92h34v-92h-34zM74 0v1415h32v-1415h-32zM121 1483v92h33v-92h-33z" />
<glyph unicode="&#xd0;" horiz-adv-x="460" d="M76 0v1413h147q68 0 115 -49t47 -117v-1081q0 -70 -47 -118t-115 -48h-147zM109 33h114q55 0 92 40t37 93v1081q0 53 -36.5 93t-92.5 40h-114v-643h114v-30h-114v-674z" />
<glyph unicode="&#xd1;" horiz-adv-x="501" d="M70 1518q49 49 104 49q49 0 86 -31q31 -25 66 -25q43 0 80 41l18 -16v-14q-41 -41 -98 -41q-45 0 -86 28q-14 10 -32 16.5t-34 6.5q-41 0 -78 -37zM90 0v1413h31l260 -1251v1251h31v-1413h-29l-260 1249v-1249h-33z" />
<glyph unicode="&#xd2;" d="M76 166v1081q0 70 47 118t115 48t114.5 -48t46.5 -118v-1081q0 -72 -47 -119t-114 -47q-68 0 -115 47t-47 119zM109 166q0 -55 37.5 -94t91.5 -39q53 0 91 39t38 94v1081q0 55 -38 94t-91 39t-91 -38.5t-38 -94.5v-1081zM158 1593h43l116 -139h-38z" />
<glyph unicode="&#xd3;" d="M76 166v1081q0 70 47 118t115 48t114.5 -48t46.5 -118v-1081q0 -72 -47 -119t-114 -47q-68 0 -115 47t-47 119zM109 166q0 -55 37.5 -94t91.5 -39q53 0 91 39t38 94v1081q0 55 -38 94t-91 39t-91 -38.5t-38 -94.5v-1081zM158 1454l118 139h41l-118 -139h-41z" />
<glyph unicode="&#xd4;" d="M76 166v1081q0 70 47 118t115 48t114.5 -48t46.5 -118v-1081q0 -72 -47 -119t-114 -47q-68 0 -115 47t-47 119zM109 166q0 -55 37.5 -94t91.5 -39q53 0 91 39t38 94v1081q0 55 -38 94t-91 39t-91 -38.5t-38 -94.5v-1081zM109 1462l118 131h23l119 -131h-41l-90 97 l-88 -97h-41z" />
<glyph unicode="&#xd5;" horiz-adv-x="501" d="M70 1518q49 49 104 49q49 0 86 -31q31 -25 66 -25q43 0 80 41l18 -16v-14q-41 -41 -98 -41q-45 0 -86 28q-14 10 -32 16.5t-34 6.5q-41 0 -78 -37zM88 166v1081q0 70 48 118t116 48q33 0 62.5 -13.5t51 -36t35 -52t13.5 -64.5v-1081q0 -72 -48.5 -119t-113.5 -47 q-68 0 -116 47t-48 119zM121 166q0 -55 38 -94t93 -39q53 0 91 39t38 94v1081q0 55 -38 94t-91 39q-55 0 -93 -38.5t-38 -94.5v-1081z" />
<glyph unicode="&#xd6;" d="M76 166v1081q0 70 47 118t115 48t114.5 -48t46.5 -118v-1081q0 -72 -47 -119t-114 -47q-68 0 -115 47t-47 119zM109 166q0 -55 37.5 -94t91.5 -39q53 0 91 39t38 94v1081q0 55 -38 94t-91 39t-91 -38.5t-38 -94.5v-1081zM176 1483v92h31v-92h-31zM268 1483v92h31v-92h-31 z" />
<glyph unicode="&#xd7;" horiz-adv-x="473" d="M70 143l149 355q-37 86 -75 175t-74 175h36l130 -309q33 78 66.5 156.5t66.5 152.5h34l-149 -350q37 -86 75 -177.5t74 -177.5h-34l-133 310l-66 -156t-64 -154h-36z" />
<glyph unicode="&#xd8;" horiz-adv-x="516" d="M74 -33l30 139q-4 12 -6 28t-2 32v1081q0 70 47 118t115 48q43 0 75 -17.5t54 -49.5q6 23 13.5 50t11.5 50h30l-30 -141q8 -25 8 -58v-1081q0 -72 -48 -119t-114 -47q-41 0 -73.5 18.5t-55.5 49.5q-4 -25 -11 -51.5t-12 -49.5h-32zM127 205q61 274 124.5 545.5 t127.5 547.5q-16 35 -50 58.5t-71 23.5q-53 0 -92 -38.5t-39 -94.5v-1042zM139 111q16 -35 47 -56.5t72 -21.5q53 0 91 39t38 94v1038q-61 -274 -124.5 -546.5t-123.5 -546.5z" />
<glyph unicode="&#xd9;" d="M76 166v1241h33v-1241q0 -55 37.5 -94t91.5 -39q53 0 91 39t38 94v1241h32v-1241q0 -72 -47 -119t-114 -47q-68 0 -115 47t-47 119zM158 1593h43l116 -139h-38z" />
<glyph unicode="&#xda;" d="M76 166v1241h33v-1241q0 -55 37.5 -94t91.5 -39q53 0 91 39t38 94v1241h32v-1241q0 -72 -47 -119t-114 -47q-68 0 -115 47t-47 119zM158 1454l118 139h41l-118 -139h-41z" />
<glyph unicode="&#xdb;" d="M76 166v1241h33v-1241q0 -55 37.5 -94t91.5 -39q53 0 91 39t38 94v1241h32v-1241q0 -72 -47 -119t-114 -47q-68 0 -115 47t-47 119zM109 1462l118 131h23l119 -131h-41l-90 97l-88 -97h-41z" />
<glyph unicode="&#xdc;" d="M76 166v1241h33v-1241q0 -55 37.5 -94t91.5 -39q53 0 91 39t38 94v1241h32v-1241q0 -72 -47 -119t-114 -47q-68 0 -115 47t-47 119zM176 1483v92h31v-92h-31zM268 1483v92h31v-92h-31z" />
<glyph unicode="&#xdd;" horiz-adv-x="389" d="M33 1413h33l129 -661q33 166 66.5 331.5t66.5 329.5h30l-145 -751v-662h-33v662q-35 182 -73.5 376.5t-73.5 374.5zM117 1454l116 139h43l-120 -139h-39z" />
<glyph unicode="&#xde;" horiz-adv-x="477" d="M76 0v1415h33v-344h129q68 0 115.5 -49t47.5 -117v-295q0 -72 -48 -119t-115 -47h-129v-444h-33zM109 475h129q53 0 91 39t38 96v295q0 53 -38 93t-91 40h-129v-563z" />
<glyph unicode="&#xdf;" d="M76 0v1247q0 70 47 118t115 48t114.5 -48t46.5 -118v-114q0 -41 -17 -73t-46 -54q-31 -23 -45 -29q-37 -18 -41 -23q-57 -45 -57 -110q0 -59 47 -101q16 -14 51 -30q4 -2 5 -3t5 -3q6 -4 16.5 -10.5t18.5 -10.5q29 -23 46 -55.5t17 -73.5v-391q0 -72 -47 -119t-114 -47 h-62v33h62q53 0 91 39t38 94v391q0 31 -14.5 57.5t-37.5 44.5q-8 8 -20 15h2q-4 0 -12 4q-4 2 -6 4h2q-43 23 -52.5 28t-13.5 9h2q-55 49 -55 127q0 76 55 125h-2q4 4 13.5 9t52.5 28l12 6q6 2 16 12q27 23 42.5 47.5t15.5 59.5v114q0 55 -38 94t-91 39t-91 -38.5t-38 -94.5 v-1247h-33z" />
<glyph unicode="&#xe0;" d="M76 166v297q0 68 47 117t115 49q41 0 73.5 -18.5t55.5 -49.5v324q0 53 -38 93t-91 40t-91 -40t-38 -93v-109h-33v109q0 68 47 117t115 49t114.5 -49.5t46.5 -116.5v-885h-32v66q-49 -66 -129 -66q-68 0 -115 47t-47 119zM109 166q0 -55 37.5 -94t91.5 -39q53 0 91 39 t38 94v297q0 53 -38 93t-91 40t-91 -40t-38 -93v-297zM158 1253h41l116 -141h-36z" />
<glyph unicode="&#xe1;" d="M76 166v297q0 68 47 117t115 49q41 0 73.5 -18.5t55.5 -49.5v324q0 53 -38 93t-91 40t-91 -40t-38 -93v-109h-33v109q0 68 47 117t115 49t114.5 -49.5t46.5 -116.5v-885h-32v66q-49 -66 -129 -66q-68 0 -115 47t-47 119zM109 166q0 -55 37.5 -94t91.5 -39q53 0 91 39 t38 94v297q0 53 -38 93t-91 40t-91 -40t-38 -93v-297zM160 1112l116 141h41l-120 -141h-37z" />
<glyph unicode="&#xe2;" d="M76 166v297q0 68 47 117t115 49q41 0 73.5 -18.5t55.5 -49.5v324q0 53 -38 93t-91 40t-91 -40t-38 -93v-109h-33v109q0 68 47 117t115 49t114.5 -49.5t46.5 -116.5v-885h-32v66q-49 -66 -129 -66q-68 0 -115 47t-47 119zM109 166q0 -55 37.5 -94t91.5 -39q53 0 91 39 t38 94v297q0 53 -38 93t-91 40t-91 -40t-38 -93v-297zM109 1120l118 131h23l119 -131h-41l-90 99l-88 -99h-41z" />
<glyph unicode="&#xe3;" d="M53 1180q47 47 107 47q45 0 86 -31q14 -10 31.5 -16t31.5 -6q18 0 40 9t42 29l19 -14v-14q-41 -45 -101 -45q-47 0 -84 30q-31 25 -65 25q-39 0 -80 -41zM74 166v297q0 33 13 63.5t34.5 53t51.5 36t63 13.5q41 0 74.5 -18.5t56.5 -49.5v324q0 53 -39 93t-92 40t-91.5 -40 t-38.5 -93v-109h-32v109q0 35 13 64.5t34.5 52t51.5 36t63 13.5q68 0 114.5 -49.5t46.5 -116.5v-885h-30v66q-49 -66 -131 -66q-66 0 -114 47t-48 119zM106 166q0 -55 38 -94t92 -39q53 0 92 39t39 94v297q0 53 -39 93t-92 40t-91.5 -40t-38.5 -93v-297z" />
<glyph unicode="&#xe4;" d="M76 166v297q0 68 47 117t115 49q41 0 73.5 -18.5t55.5 -49.5v324q0 53 -38 93t-91 40t-91 -40t-38 -93v-109h-33v109q0 68 47 117t115 49t114.5 -49.5t46.5 -116.5v-885h-32v66q-49 -66 -129 -66q-68 0 -115 47t-47 119zM109 166q0 -55 37.5 -94t91.5 -39q53 0 91 39 t38 94v297q0 53 -38 93t-91 40t-91 -40t-38 -93v-297zM176 1145v90h31v-90h-31zM268 1145v90h31v-90h-31z" />
<glyph unicode="&#xe5;" d="M76 166v297q0 68 47 117t115 49q41 0 73.5 -18.5t55.5 -49.5v324q0 53 -38 93t-91 40t-91 -40t-38 -93v-109h-33v109q0 68 47 117t115 49t114.5 -49.5t46.5 -116.5v-885h-32v66q-49 -66 -129 -66q-68 0 -115 47t-47 119zM109 166q0 -55 37.5 -94t91.5 -39q53 0 91 39 t38 94v297q0 53 -38 93t-91 40t-91 -40t-38 -93v-297zM131 1182q0 47 29.5 78.5t77.5 31.5q47 0 77.5 -31.5t30.5 -78.5t-30.5 -79t-77.5 -32t-77 32t-30 79zM164 1182q0 -33 21.5 -55.5t52.5 -22.5q33 0 53 22.5t20 55.5t-20.5 54t-52.5 21q-31 0 -52.5 -21.5t-21.5 -53.5z " />
<glyph unicode="&#xe6;" horiz-adv-x="772" d="M78 166v297q0 68 47 117t115 49q39 0 72.5 -18.5t56.5 -47.5v332q-4 51 -40 87t-89 36t-91 -40t-38 -93v-109h-33v109q0 68 47 117t115 49q47 0 86 -27t59 -68q20 41 59 68t88 27q33 0 63 -13.5t51.5 -36t34.5 -53t13 -63.5v-324h-293v-405q4 -53 41 -88t90 -35t91.5 39 t38.5 94v108h32v-108q0 -72 -48 -119t-114 -47q-49 0 -87.5 25.5t-59.5 66.5q-20 -41 -59 -66.5t-86 -25.5q-68 0 -115 47t-47 119zM111 166q0 -55 37.5 -94t91.5 -39q53 0 89 34.5t40 88.5l2 8l-2 2v309q0 49 -39 85t-90 36q-53 0 -91 -40t-38 -93v-297zM401 592h261v293 q0 53 -38 93t-92 40q-53 0 -89.5 -36t-41.5 -87v-303z" />
<glyph unicode="&#xe7;" d="M76 166v719q0 68 47 117t115 49t114.5 -49.5t46.5 -116.5v-109h-32v109q0 53 -38 93t-91 40t-91 -40t-38 -93v-719q0 -55 37.5 -94t91.5 -39q53 0 91 39t38 94v108h32v-108q0 -59 -31.5 -103.5t-84.5 -56.5q16 -16 26 -37.5t10 -44.5q0 -47 -35.5 -78.5t-88.5 -31.5v30 q41 0 68.5 23.5t27.5 56.5q0 25 -18.5 46.5t-43.5 29.5q-63 4 -108 51t-45 115z" />
<glyph unicode="&#xe8;" d="M76 166v719q0 68 47 117t115 49t114.5 -49.5t46.5 -116.5v-324h-290v-395q0 -55 37.5 -94t91.5 -39q53 0 91 39t38 94v108h32v-108q0 -72 -47 -119t-114 -47q-68 0 -115 47t-47 119zM109 592h258v293q0 53 -38 93t-91 40t-91 -40t-38 -93v-293zM158 1253h41l116 -141h-36 z" />
<glyph unicode="&#xe9;" d="M76 166v719q0 68 47 117t115 49t114.5 -49.5t46.5 -116.5v-324h-290v-395q0 -55 37.5 -94t91.5 -39q53 0 91 39t38 94v108h32v-108q0 -72 -47 -119t-114 -47q-68 0 -115 47t-47 119zM109 592h258v293q0 53 -38 93t-91 40t-91 -40t-38 -93v-293zM160 1112l116 141h41 l-120 -141h-37z" />
<glyph unicode="&#xea;" d="M76 166v719q0 68 47 117t115 49t114.5 -49.5t46.5 -116.5v-324h-290v-395q0 -55 37.5 -94t91.5 -39q53 0 91 39t38 94v108h32v-108q0 -72 -47 -119t-114 -47q-68 0 -115 47t-47 119zM109 592h258v293q0 53 -38 93t-91 40t-91 -40t-38 -93v-293zM109 1120l118 131h23 l119 -131h-41l-90 99l-88 -99h-41z" />
<glyph unicode="&#xeb;" d="M76 166v719q0 68 47 117t115 49t114.5 -49.5t46.5 -116.5v-324h-290v-395q0 -55 37.5 -94t91.5 -39q53 0 91 39t38 94v108h32v-108q0 -72 -47 -119t-114 -47q-68 0 -115 47t-47 119zM109 592h258v293q0 53 -38 93t-91 40t-91 -40t-38 -93v-293zM176 1145v90h31v-90h-31z M268 1145v90h31v-90h-31z" />
<glyph unicode="&#xec;" horiz-adv-x="180" d="M10 1253h41l117 -141h-37zM74 0v1051h32v-1051h-32z" />
<glyph unicode="&#xed;" horiz-adv-x="180" d="M12 1112l117 141h41l-121 -141h-37zM74 0v1051h32v-1051h-32z" />
<glyph unicode="&#xee;" horiz-adv-x="180" d="M-41 1120l119 131h24l117 -131h-41l-88 99l-88 -99h-43zM74 0v1051h32v-1051h-32z" />
<glyph unicode="&#xef;" horiz-adv-x="180" d="M29 1145v90h30v-90h-30zM74 0v1051h30v-1051h-30zM119 1145v90h33v-90h-33z" />
<glyph unicode="&#xf0;" d="M76 166v643q0 72 47 119t115 47q53 0 90 -27q-16 53 -36 105.5t-38 105.5h-166v33h156q-18 53 -40 111.5t-38 109.5h33l80 -221h108v-33h-98q25 -72 51.5 -146.5t50.5 -146.5q8 -23 8 -57v-643q0 -72 -47 -119t-114 -47q-68 0 -115 47t-47 119zM109 166q0 -55 37.5 -94 t91.5 -39q53 0 91 39t38 94v643q0 55 -38 94t-91 39t-91 -39t-38 -94v-643z" />
<glyph unicode="&#xf1;" horiz-adv-x="501" d="M70 1180q47 47 104 47q45 0 86 -31q14 -10 32.5 -16t33.5 -6q43 0 80 38l18 -14v-14q-41 -45 -100 -45q-47 0 -84 30q-31 25 -66 25q-41 0 -78 -41zM88 0v1051h33v-66q23 29 56.5 47.5t74.5 18.5q33 0 62.5 -13.5t51 -36t35 -53t13.5 -63.5v-885h-33v885q0 53 -38 93 t-91 40q-55 0 -93 -40t-38 -93v-885h-33z" />
<glyph unicode="&#xf2;" d="M76 166v719q0 68 47 117t115 49t114.5 -49.5t46.5 -116.5v-719q0 -72 -47 -119t-114 -47q-68 0 -115 47t-47 119zM109 166q0 -55 37.5 -94t91.5 -39q53 0 91 39t38 94v719q0 53 -38 93t-91 40t-91 -40t-38 -93v-719zM158 1253h41l116 -141h-36z" />
<glyph unicode="&#xf3;" d="M76 166v719q0 68 47 117t115 49t114.5 -49.5t46.5 -116.5v-719q0 -72 -47 -119t-114 -47q-68 0 -115 47t-47 119zM109 166q0 -55 37.5 -94t91.5 -39q53 0 91 39t38 94v719q0 53 -38 93t-91 40t-91 -40t-38 -93v-719zM160 1112l116 141h41l-120 -141h-37z" />
<glyph unicode="&#xf4;" d="M76 166v719q0 68 47 117t115 49t114.5 -49.5t46.5 -116.5v-719q0 -72 -47 -119t-114 -47q-68 0 -115 47t-47 119zM109 166q0 -55 37.5 -94t91.5 -39q53 0 91 39t38 94v719q0 53 -38 93t-91 40t-91 -40t-38 -93v-719zM109 1120l118 131h23l119 -131h-41l-90 99l-88 -99 h-41z" />
<glyph unicode="&#xf5;" horiz-adv-x="501" d="M70 1180q47 47 104 47q45 0 86 -31q14 -10 32.5 -16t33.5 -6q43 0 80 38l18 -14v-14q-41 -45 -100 -45q-47 0 -84 30q-31 25 -66 25q-41 0 -78 -41zM88 166v719q0 68 48 117t116 49q33 0 62.5 -13.5t51 -36t35 -53t13.5 -63.5v-719q0 -72 -48.5 -119t-113.5 -47 q-68 0 -116 47t-48 119zM121 166q0 -55 38 -94t93 -39q53 0 91 39t38 94v719q0 53 -38 93t-91 40q-55 0 -93 -40t-38 -93v-719z" />
<glyph unicode="&#xf6;" d="M76 166v719q0 68 47 117t115 49t114.5 -49.5t46.5 -116.5v-719q0 -72 -47 -119t-114 -47q-68 0 -115 47t-47 119zM109 166q0 -55 37.5 -94t91.5 -39q53 0 91 39t38 94v719q0 53 -38 93t-91 40t-91 -40t-38 -93v-719zM176 1145v90h31v-90h-31zM268 1145v90h31v-90h-31z " />
<glyph unicode="&#xf7;" horiz-adv-x="458" d="M76 477v31h307v-31h-307zM209 186v119h33v-119h-33zM209 686v119h33v-119h-33z" />
<glyph unicode="&#xf8;" d="M74 -33l28 105q-27 39 -26 94v719q0 68 47 117t115 49q33 0 60.5 -12.5t49.5 -30.5q4 20 10.5 42.5t10.5 39.5h30l-30 -111q31 -39 30 -94v-719q0 -72 -47 -119t-114 -47q-33 0 -59.5 12.5t-49.5 30.5q-4 -18 -10 -38.5t-10 -37.5h-35zM109 166q0 -27 6 -47 q55 215 111.5 426t111.5 426q-18 20 -45 33.5t-55 13.5q-53 0 -91 -40t-38 -93v-719zM137 78q18 -20 44 -32.5t57 -12.5q53 0 91 39t38 94v719q0 16 -1.5 26.5t-7.5 22.5q-53 -215 -110.5 -429t-110.5 -427z" />
<glyph unicode="&#xf9;" d="M76 166v885h33v-885q0 -55 37.5 -94t91.5 -39q53 0 91 39t38 94v885h32v-885q0 -72 -47 -119t-114 -47q-68 0 -115 47t-47 119zM158 1253h41l116 -141h-36z" />
<glyph unicode="&#xfa;" d="M76 166v885h33v-885q0 -55 37.5 -94t91.5 -39q53 0 91 39t38 94v885h32v-885q0 -72 -47 -119t-114 -47q-68 0 -115 47t-47 119zM160 1112l116 141h41l-120 -141h-37z" />
<glyph unicode="&#xfb;" d="M76 166v885h33v-885q0 -55 37.5 -94t91.5 -39q53 0 91 39t38 94v885h32v-885q0 -72 -47 -119t-114 -47q-68 0 -115 47t-47 119zM109 1120l118 131h23l119 -131h-41l-90 99l-88 -99h-41z" />
<glyph unicode="&#xfc;" d="M76 166v885h33v-885q0 -55 37.5 -94t91.5 -39q53 0 91 39t38 94v885h32v-885q0 -72 -47 -119t-114 -47q-68 0 -115 47t-47 119zM176 1145v90h31v-90h-31zM268 1145v90h31v-90h-31z" />
<glyph unicode="&#xfd;" d="M76 166v885h33v-885q0 -55 37.5 -94t91.5 -39q53 0 91 39t38 94v885h32v-1250q0 -68 -47 -115.5t-114 -47.5q-68 0 -115 51t-47 123h33q0 -59 37.5 -101.5t91.5 -42.5q53 0 91 40t38 93v265q-23 -29 -57 -47.5t-72 -18.5q-68 0 -115 47t-47 119zM170 1112l123 141h41 l-123 -141h-41z" />
<glyph unicode="&#xfe;" d="M76 -362v1759h33v-414q23 29 56.5 48.5t72.5 19.5q68 0 114.5 -49.5t46.5 -116.5v-719q0 -72 -47 -119t-114 -47q-39 0 -73 18.5t-56 47.5v-428h-33zM109 166q0 -55 37.5 -94t91.5 -39q53 0 91 39t38 94v719q0 53 -38 93t-91 40t-91 -40t-38 -93v-719z" />
<glyph unicode="&#xff;" d="M76 166v885h33v-885q0 -55 37.5 -94t91.5 -39q53 0 91 39t38 94v885h32v-1250q0 -68 -47 -115.5t-114 -47.5q-68 0 -115 51t-47 123h33q0 -59 37.5 -101.5t91.5 -42.5q53 0 91 40t38 93v265q-23 -29 -57 -47.5t-72 -18.5q-68 0 -115 47t-47 119zM190 1145v90h33v-90h-33z M283 1145v90h30v-90h-30z" />
<glyph unicode="&#x152;" horiz-adv-x="743" d="M78 166v1081q0 70 47 118t115 48h426v-33h-277v-643h236v-30h-236v-674h277v-33h-426q-68 0 -115 47t-47 119zM111 166q0 -55 37.5 -94t91.5 -39h118v1347h-118q-53 0 -91 -38.5t-38 -94.5v-1081z" />
<glyph unicode="&#x153;" horiz-adv-x="772" d="M78 166v719q0 68 47 117t115 49q47 0 86 -28t59 -69q20 43 59 70t88 27q33 0 63 -13.5t51.5 -36t34.5 -53t13 -63.5v-324h-293v-395q0 -55 38 -94t93 -39q53 0 91.5 39t38.5 94v108h32v-108q0 -72 -48 -119t-114 -47q-49 0 -87.5 25.5t-59.5 66.5q-20 -41 -59 -66.5 t-86 -25.5q-68 0 -115 47t-47 119zM111 166q0 -55 37.5 -94t91.5 -39q53 0 91 39t38 94v719q0 53 -38 93t-91 40t-91 -40t-38 -93v-719zM401 592h261v293q0 53 -38 93t-92 40q-55 0 -93 -40t-38 -93v-293z" />
<glyph unicode="&#x178;" horiz-adv-x="380" d="M29 1413h30l131 -665q35 166 66 332.5t66 332.5h30l-145 -751v-662h-33v662q-35 182 -73 376.5t-72 374.5zM129 1483v92h31v-92h-31zM219 1483v92h33v-92h-33z" />
<glyph unicode="&#x2c6;" horiz-adv-x="387" d="M63 1270l119 133h23l119 -133h-41l-90 98l-89 -98h-41z" />
<glyph unicode="&#x2dc;" horiz-adv-x="501" d="M70 1362q47 47 104 47q47 0 88 -31q29 -20 64 -20q45 0 80 37l18 -15v-14q-43 -43 -98 -43q-47 0 -86 31q-29 23 -66 22q-39 0 -78 -39z" />
<glyph unicode="&#x2000;" horiz-adv-x="819" />
<glyph unicode="&#x2001;" horiz-adv-x="1638" />
<glyph unicode="&#x2002;" horiz-adv-x="819" />
<glyph unicode="&#x2003;" horiz-adv-x="1638" />
<glyph unicode="&#x2004;" horiz-adv-x="546" />
<glyph unicode="&#x2005;" horiz-adv-x="409" />
<glyph unicode="&#x2006;" horiz-adv-x="273" />
<glyph unicode="&#x2007;" horiz-adv-x="273" />
<glyph unicode="&#x2008;" horiz-adv-x="204" />
<glyph unicode="&#x2009;" horiz-adv-x="327" />
<glyph unicode="&#x200a;" horiz-adv-x="91" />
<glyph unicode="&#x2010;" horiz-adv-x="458" d="M76 477v31h307v-31h-307z" />
<glyph unicode="&#x2011;" horiz-adv-x="458" d="M76 477v31h307v-31h-307z" />
<glyph unicode="&#x2012;" horiz-adv-x="458" d="M76 477v31h307v-31h-307z" />
<glyph unicode="&#x2013;" horiz-adv-x="538" d="M76 477v31h387v-31h-387z" />
<glyph unicode="&#x2014;" horiz-adv-x="657" d="M78 477v31h500v-31h-500z" />
<glyph unicode="&#x2018;" horiz-adv-x="225" d="M74 1227v114l47 117h37l-52 -123v-106z" />
<glyph unicode="&#x2019;" horiz-adv-x="225" d="M70 1229l49 125v104h33v-112l-48 -117h-34z" />
<glyph unicode="&#x201a;" horiz-adv-x="225" d="M68 -111l51 125v105h33v-113l-48 -117h-36z" />
<glyph unicode="&#x201c;" horiz-adv-x="337" d="M76 1227v114l45 117h37l-52 -123v-108h-30zM186 1227v114l47 117h35l-49 -123v-106z" />
<glyph unicode="&#x201d;" horiz-adv-x="337" d="M72 1229l49 125v104h31v-112l-48 -117h-32zM182 1229l49 125v104h31v-112l-45 -117h-35z" />
<glyph unicode="&#x201e;" horiz-adv-x="333" d="M70 -111l49 125v105h33v-113l-48 -117h-34zM176 -111l51 125v105h31v-113l-45 -117h-37z" />
<glyph unicode="&#x2022;" horiz-adv-x="212" d="M74 702v119h65v-119h-65z" />
<glyph unicode="&#x2026;" horiz-adv-x="413" d="M76 0v119h33v-119h-33zM193 0v119h32v-119h-32zM305 0v119h33v-119h-33z" />
<glyph unicode="&#x202f;" horiz-adv-x="327" />
<glyph unicode="&#x2039;" horiz-adv-x="311" d="M76 434l123 248l41 -2l-129 -246q31 -57 66.5 -121.5t64.5 -122.5h-37z" />
<glyph unicode="&#x203a;" horiz-adv-x="311" d="M70 190l131 244q-31 59 -66 123t-63 123l37 2l127 -248l-130 -244h-36z" />
<glyph unicode="&#x205f;" horiz-adv-x="409" />
<glyph unicode="&#x20ac;" d="M76 166v1081q0 70 47 118t115 48t114.5 -48t46.5 -118v-108h-32v108q0 55 -38 94t-91 39t-91 -38.5t-38 -94.5v-375h247v-32h-247v-213h210v-31h-210v-430q0 -55 37.5 -94t91.5 -39q53 0 91 39t38 94v108h32v-108q0 -72 -47 -119t-114 -47q-68 0 -115 47t-47 119z" />
<glyph unicode="&#x2122;" horiz-adv-x="790" d="M78 1380v33h280v-33h-122v-622h-33v622h-125zM356 760v569h31l148 -504q39 127 74.5 253t74.5 251h29v-569h-31v454q-35 -113 -66.5 -227.5t-66.5 -224.5h-29l-131 446v-448h-33z" />
<glyph unicode="&#xe000;" horiz-adv-x="1054" d="M0 0v1055h1055v-1055h-1055z" />
</font>
</defs>
</svg>
