<?xml version="1.0" standalone="no"?>
<!DOCTYPE svg PUBLIC "-//W3C//DTD SVG 1.1//EN" "http://www.w3.org/Graphics/SVG/1.1/DTD/svg11.dtd" >
<svg xmlns="http://www.w3.org/2000/svg">
<metadata></metadata>
<defs>
<font id="tall_films_expandedregular" horiz-adv-x="641" >
<font-face units-per-em="2048" ascent="1638" descent="-410" />
<missing-glyph horiz-adv-x="495" />
<glyph horiz-adv-x="2048" />
<glyph horiz-adv-x="2048" />
<glyph horiz-adv-x="682" />
<glyph horiz-adv-x="522" d="M86 1403h55l119 -98q31 25 62.5 49t58.5 49h55l-160 -133h-30z" />
<glyph unicode="&#xd;" horiz-adv-x="495" />
<glyph horiz-adv-x="653" d="M100 0l412 1413h39l-408 -1413h-43z" />
<glyph horiz-adv-x="733" d="M102 0v1247q0 70 63.5 118t156.5 48q45 0 84.5 -14.5t69.5 -38t46.5 -55t16.5 -68.5h-43q0 59 -51.5 101t-122.5 42q-72 0 -123.5 -38.5t-51.5 -94.5v-196h484v-1051h-45v1018h-439v-1018h-45z" />
<glyph horiz-adv-x="733" d="M102 0v1247q0 70 63.5 118t156.5 48q45 0 84.5 -14.5t69.5 -38t46.5 -55t16.5 -68.5h-43q0 59 -51.5 101t-122.5 42q-72 0 -123.5 -38.5t-51.5 -94.5v-196h439v362h45v-1413h-45v1018h-439v-1018h-45z" />
<glyph horiz-adv-x="638" d="M100 0l387 1380h-376v33h428l-387 -1380h372v-33h-424zM143 1593h56l123 -96q29 23 59.5 47.5t58.5 48.5h56l-162 -131h-31z" />
<glyph horiz-adv-x="638" d="M96 0l387 1018h-372v33h432l-387 -1018h368v-33h-428zM164 1251h57l119 -96q29 25 59.5 48.5t59.5 47.5h55l-158 -131h-32z" />
<glyph unicode=" "  horiz-adv-x="495" />
<glyph unicode="&#x09;" horiz-adv-x="495" />
<glyph unicode="&#xa0;" horiz-adv-x="495" />
<glyph unicode="!" horiz-adv-x="243" d="M100 0v119h43v-119h-43zM100 293v1120h43v-1120h-43z" />
<glyph unicode="&#x22;" horiz-adv-x="378" d="M100 1176v290h43v-290h-43zM236 1176v290h43v-290h-43z" />
<glyph unicode="#" horiz-adv-x="653" d="M102 492l2 28h99q6 35 12 62.5t12 62.5h-94v31h96q12 72 27.5 148.5t28.5 148.5h47l-58 -297h138q12 72 26.5 148.5t28.5 148.5h41l-57 -297h100l-4 -31h-98q-6 -35 -13.5 -62.5t-11.5 -62.5h98l-6 -28h-98q-16 -74 -29.5 -153t-30.5 -151h-43l58 304h-135 q-12 -74 -25.5 -153t-30.5 -151h-45l60 304h-95zM246 520h133q6 35 12 62.5t12 62.5h-137q-6 -35 -10 -62.5t-10 -62.5z" />
<glyph unicode="$" d="M102 281v108h45v-108q0 -53 50.5 -93.5t124.5 -40.5q72 0 123 40t51 94v297q0 31 -19.5 56t-50.5 46q-16 10 -41 19.5t-53 19.5h2h-4q-2 0 -4 2q-4 2 -11.5 3t-11.5 3v-2q-45 14 -69.5 24.5t-53.5 26.5q-35 23 -56.5 54.5t-21.5 72.5v230q0 66 56.5 112.5t140.5 50.5v117 h43v-117q84 -4 140.5 -51t56.5 -112v-109h-43v109q0 55 -51.5 94t-122.5 39q-74 0 -124.5 -39t-50.5 -94v-230q0 -68 60 -104q16 -12 39.5 -19.5t52.5 -15.5q8 -4 16.5 -5t16.5 -5v2q41 -12 66.5 -22.5t54.5 -26.5q41 -23 63.5 -56t22.5 -73v-297q0 -63 -56.5 -111.5 t-140.5 -54.5v-115h-41v115q-86 6 -142.5 53t-56.5 113z" />
<glyph unicode="%" horiz-adv-x="1024" d="M104 1028v221q0 31 14.5 56.5t40 46t58.5 32t70 11.5q80 0 132 -43t52 -103v-221q0 -63 -52 -105t-132 -42q-74 0 -128.5 42t-54.5 105zM147 1028q0 -47 41 -81t99 -34q61 0 103 34t42 81v221q0 47 -42 81t-103 34q-57 0 -98.5 -34t-41.5 -81v-221zM276 0l404 1380h41 l-399 -1380h-46zM551 145v220q0 63 52 105t130 42t130 -42t52 -105v-220q0 -59 -52 -102t-130 -43t-130 43t-52 102zM592 145q0 -47 41 -80.5t100 -33.5t101.5 33.5t42.5 80.5v220q0 49 -42 83.5t-102 34.5q-59 0 -100 -34.5t-41 -83.5v-220z" />
<glyph unicode="&#x26;" d="M102 166v487q0 49 36 89t89 61q-53 23 -89 62.5t-36 86.5v295q0 70 63.5 118t156.5 48q45 0 84.5 -14.5t68.5 -38t46.5 -55t17.5 -68.5h-43q0 59 -51.5 101t-122.5 42q-74 0 -124.5 -38.5t-50.5 -94.5v-295q0 -55 50.5 -95t124.5 -40h174v84h43v-985h-43v150 q-33 -29 -78 -47.5t-96 -18.5q-92 0 -156 47t-64 119zM147 166q0 -55 50.5 -94t124.5 -39q72 0 123 39t51 94v622h-174q-74 0 -124.5 -39.5t-50.5 -95.5v-487z" />
<glyph unicode="'" horiz-adv-x="243" d="M100 1176v290h43v-290h-43z" />
<glyph unicode="(" horiz-adv-x="436" d="M102 1331q0 68 67 116t165 48v-31q-39 0 -74 -10t-60.5 -28.5t-41 -43t-15.5 -51.5v-1249q0 -27 15.5 -51.5t41 -43t60.5 -28.5t74 -10v-21l-12 -10q-94 0 -157 47t-61 117q0 315 -1 625.5t-1 623.5z" />
<glyph unicode=")" horiz-adv-x="436" d="M102 -51q39 0 73 10t59.5 28.5t41 43t15.5 51.5v1249q0 27 -15.5 51.5t-41 43t-59.5 28.5t-73 10v31q49 0 91.5 -13.5t73 -35t49 -52t18.5 -63.5v-1249q0 -35 -18.5 -64.5t-49 -52t-72.5 -35t-92 -12.5v31z" />
<glyph unicode="*" horiz-adv-x="561" d="M102 1135l134 61q-35 14 -69 29.5t-65 27.5l7 31l149 -63v182h43v-184q35 14 70 30.5t69 30.5l31 -25l-147 -59q35 -16 73.5 -34.5t69.5 -31.5l-27 -22l-139 61v-184h-43v184q-39 -16 -78 -33.5t-71 -31.5z" />
<glyph unicode="+" horiz-adv-x="618" d="M102 477v31h181v346h43v-346h190v-31h-190v-342h-43v342h-181z" />
<glyph unicode="," horiz-adv-x="303" d="M92 -111l68 125v105h45v-113l-64 -117h-49z" />
<glyph unicode="-" horiz-adv-x="618" d="M102 477v31h414v-31h-414z" />
<glyph unicode="." horiz-adv-x="243" d="M100 0v119h43v-119h-43z" />
<glyph unicode="/" horiz-adv-x="653" d="M100 0l412 1413h39l-408 -1413h-43z" />
<glyph unicode="0" d="M102 115v1181q0 70 63.5 93.5t156.5 23.5q45 0 84.5 -5t68.5 -18.5t46.5 -36t17.5 -57.5v-1181q0 -35 -17.5 -57.5t-46.5 -35t-68.5 -17.5t-84.5 -5q-92 0 -156 22.5t-64 92.5zM147 115q0 -53 50.5 -67.5t124.5 -14.5q72 0 123 14t51 68v1181q0 53 -51.5 68.5 t-122.5 15.5q-74 0 -124.5 -15t-50.5 -69v-1181z" />
<glyph unicode="1" horiz-adv-x="417" d="M94 1163l191 252h30v-1415h-39v1348q-35 -47 -70.5 -95.5t-70.5 -91.5z" />
<glyph unicode="2" d="M102 0v594q0 41 22.5 73.5t63.5 55.5q27 16 53.5 26.5t67.5 22.5v-2q10 4 17.5 5t15.5 5q29 6 52.5 13.5t39.5 21.5q61 43 62 105v327q0 55 -51.5 94t-122.5 39q-74 0 -124.5 -38.5t-50.5 -94.5v-108h-45v108q0 70 63.5 118t156.5 48q45 0 84.5 -13.5t68.5 -36t46.5 -52 t17.5 -64.5v-327q0 -41 -21.5 -74t-56.5 -55q-29 -16 -53.5 -25.5t-69.5 -24.5v2q-4 -2 -11.5 -3t-11.5 -3q-2 0 -4 -1t-4 -1h2q-29 -10 -53.5 -19t-40.5 -20q-31 -20 -49.5 -45.5t-18.5 -56.5v-561h369v-33h-414z" />
<glyph unicode="3" d="M102 176h45q0 -59 50.5 -101t124.5 -42q72 0 123 39t51 94v455q0 53 -51.5 93t-122.5 40h-99v32h99q72 0 123 39t51 97v325q0 55 -51.5 94t-122.5 39q-74 0 -124.5 -42t-50.5 -101h-45q0 37 17.5 68.5t46.5 55t68.5 38t87.5 14.5q45 0 84.5 -13.5t68.5 -36t46.5 -52 t17.5 -64.5v-325q0 -49 -35 -90t-90 -62q55 -20 90 -60t35 -89v-455q0 -72 -62.5 -119t-154.5 -47t-156 50t-64 126z" />
<glyph unicode="4" horiz-adv-x="626" d="M100 461l312 954h39v-921h73v-33h-73v-461h-41v461h-310zM150 494h260v778q-66 -199 -130.5 -389.5t-129.5 -388.5z" />
<glyph unicode="5" d="M102 176h45q0 -59 50.5 -101t124.5 -42q72 0 123 39t51 94v553q0 55 -51.5 94t-122.5 39q-74 0 -124.5 -42t-50.5 -101l-45 4v700h422v-33h-377v-561q31 29 76 47.5t99 18.5q45 0 84.5 -13.5t68.5 -36t46.5 -52t17.5 -64.5v-553q0 -72 -62.5 -119t-154.5 -47t-156 50 t-64 126z" />
<glyph unicode="6" d="M102 166v1081q0 70 63.5 118t156.5 48q45 0 84.5 -13.5t68.5 -36t46.5 -52t17.5 -64.5v-123h-43v123q0 55 -51.5 94t-122.5 39q-74 0 -124.5 -38.5t-50.5 -94.5v-510q31 29 76 46.5t99 17.5q92 0 154.5 -47t62.5 -117v-471q0 -72 -62.5 -119t-154.5 -47t-156 47t-64 119z M147 166q0 -55 50.5 -94t124.5 -39q72 0 123 39t51 94v471q0 55 -51.5 95t-122.5 40q-74 0 -124.5 -40t-50.5 -95v-471z" />
<glyph unicode="7" horiz-adv-x="626" d="M102 1380v33h426l-307 -1413h-41l299 1380h-377z" />
<glyph unicode="8" d="M102 166v455q0 49 36 89t89 60q-53 20 -89 61t-36 91v325q0 70 63.5 118t156.5 48q45 0 84.5 -13.5t68.5 -36t46.5 -52t17.5 -64.5v-325q0 -49 -35 -90t-90 -62q55 -20 90 -60t35 -89v-455q0 -72 -62.5 -119t-154.5 -47t-156 47t-64 119zM147 166q0 -55 50.5 -94 t124.5 -39q72 0 123 39t51 94v455q0 53 -51.5 93t-122.5 40q-74 0 -124.5 -40t-50.5 -93v-455zM147 922q0 -57 50.5 -96.5t124.5 -39.5q72 0 123 39t51 97v325q0 55 -51.5 94t-122.5 39q-74 0 -124.5 -38.5t-50.5 -94.5v-325z" />
<glyph unicode="9" d="M102 166v121h45v-121q0 -55 50.5 -94t124.5 -39q72 0 123 39t51 94v510q-33 -29 -77 -47.5t-97 -18.5q-92 0 -156 48.5t-64 117.5v471q0 70 63.5 118t156.5 48q45 0 84.5 -13.5t68.5 -36t46.5 -52t17.5 -64.5v-1081q0 -72 -62.5 -119t-154.5 -47t-156 47t-64 119z M147 776q0 -55 50.5 -94t124.5 -39q72 0 123 39t51 94v471q0 55 -51.5 94t-122.5 39q-74 0 -124.5 -38.5t-50.5 -94.5v-471z" />
<glyph unicode=":" horiz-adv-x="243" d="M100 0v119h43v-119h-43zM100 659v121h43v-121h-43z" />
<glyph unicode=";" horiz-adv-x="303" d="M92 -111l68 125v105h45v-113l-64 -117h-49zM160 659v121h45v-121h-45z" />
<glyph unicode="&#x3c;" horiz-adv-x="544" d="M96 502l297 246l64 -3l-299 -243q70 -55 152.5 -124t148.5 -122h-62z" />
<glyph unicode="=" horiz-adv-x="618" d="M102 403v33h414v-33h-414zM102 559v33h414v-33h-414z" />
<glyph unicode="&#x3e;" horiz-adv-x="544" d="M86 256l301 246q-72 57 -149.5 120.5t-149.5 122.5l62 3l299 -246l-302 -246h-61z" />
<glyph unicode="?" d="M102 1139v108q0 70 63.5 118t156.5 48q45 0 84.5 -13.5t68.5 -36t46.5 -52t17.5 -64.5v-344q0 -74 -50 -117l-45 -32q-4 -2 -17 -10.5t-26 -16.5q-16 -6 -32.5 -15.5t-30.5 -23.5q-35 -39 -35 -96v-299h-41v299q0 74 41 115q16 16 37.5 28.5t46.5 24.5q23 10 38 21.5 t32 23.5q39 41 39 98v344q0 55 -51.5 94t-122.5 39q-74 0 -124.5 -38.5t-50.5 -94.5v-108h-45zM262 0v119h41v-119h-41z" />
<glyph unicode="@" d="M102 299v774q0 70 63.5 117t156.5 47q92 0 154.5 -47t62.5 -117v-616q0 -23 -16.5 -38.5t-41.5 -15.5t-43 15.5t-18 38.5v43q-16 -12 -44 -24.5t-50 -12.5q-59 0 -100.5 39t-41.5 98v215q0 59 41 98t101 39q61 0 94 -34v43h45v-504q0 -20 16 -21q14 0 15 21v616 q0 53 -51.5 93t-122.5 40q-74 0 -124.5 -40t-50.5 -93v-774q0 -55 50.5 -94t124.5 -39q72 0 123 42t51 101h28l15 -10q0 -35 -17.5 -64.5t-46.5 -52t-68.5 -36t-84.5 -13.5q-92 0 -156 48t-64 118zM227 600q0 -43 29 -73.5t70 -30.5t67.5 30.5t26.5 73.5v213q0 45 -26.5 76 t-67.5 31t-70 -31t-29 -76v-213z" />
<glyph unicode="A" horiz-adv-x="522" d="M41 0l199 1413h43l196 -1413h-43l-80 578h-190q-18 -141 -36.5 -289t-41.5 -289h-47zM172 610h182q-12 88 -23.5 166t-21.5 153t-21.5 153.5t-25.5 168.5q-23 -164 -44 -319.5t-46 -321.5z" />
<glyph unicode="B" horiz-adv-x="622" d="M102 0v1413h199q45 0 85 -13.5t69.5 -36t47 -52t17.5 -64.5v-377q0 -49 -35.5 -88t-89.5 -61q53 -23 89 -61.5t36 -88.5v-405q0 -35 -17.5 -65.5t-47 -53t-69.5 -35t-85 -12.5h-199zM147 33h154q72 0 123 39t51 94v405q0 55 -51 94.5t-123 39.5h-154v-672zM147 737h154 q72 0 123 38t51 95v377q0 55 -51 94t-123 39h-154v-643z" />
<glyph unicode="C" d="M102 166v1081q0 70 63.5 118t156.5 48q45 0 84.5 -13.5t68.5 -36t46.5 -52t17.5 -64.5v-108h-43v108q0 55 -51.5 94t-122.5 39q-74 0 -124.5 -38.5t-50.5 -94.5v-1081q0 -55 50.5 -94t124.5 -39q72 0 123 39t51 94v108h43v-108q0 -72 -62.5 -119t-154.5 -47t-156 47 t-64 119z" />
<glyph unicode="D" horiz-adv-x="622" d="M102 0v1413h199q45 0 86 -13.5t69.5 -36t46 -53t17.5 -63.5v-1081q0 -70 -63.5 -118t-155.5 -48h-199zM147 33h154q76 0 125 40t49 93v1081q0 53 -49 93t-125 40h-154v-1347z" />
<glyph unicode="E" horiz-adv-x="618" d="M102 0v1413h414v-33h-369v-643h314v-30h-314v-674h369v-33h-414z" />
<glyph unicode="F" horiz-adv-x="555" d="M102 0v1413h414v-33h-369v-655h314v-33h-314v-692h-45z" />
<glyph unicode="G" d="M102 166v1081q0 70 63.5 118t156.5 48q45 0 84.5 -13.5t68.5 -36t46.5 -52t17.5 -64.5v-108h-43v108q0 55 -51.5 94t-122.5 39q-74 0 -124.5 -38.5t-50.5 -94.5v-1081q0 -55 50.5 -94t124.5 -39q72 0 123 39t51 94v530h-187v31h230v-561q0 -72 -62.5 -119t-154.5 -47 t-156 47t-64 119z" />
<glyph unicode="H" horiz-adv-x="638" d="M102 0v1413h45v-676h349v676h41v-1413h-41v707h-349v-707h-45z" />
<glyph unicode="I" horiz-adv-x="243" d="M100 0v1415h43v-1415h-43z" />
<glyph unicode="J" d="M102 166v108h45v-108q0 -55 50.5 -94t124.5 -39q72 0 123 39t51 94v1241h43v-1241q0 -72 -62.5 -119t-154.5 -47t-156 47t-64 119z" />
<glyph unicode="K" horiz-adv-x="575" d="M102 0v1413h45v-665l351 665h47l-389 -737q96 -166 194.5 -338t194.5 -338h-47l-351 610v-610h-45z" />
<glyph unicode="L" horiz-adv-x="618" d="M102 0v1413h45v-1380h369v-33h-414z" />
<glyph unicode="M" horiz-adv-x="776" d="M102 -4v1417h41l244 -1288q59 322 122.5 645.5t123.5 642.5h39v-1417h-41v1184q-57 -299 -112.5 -591t-112.5 -589h-37l-222 1182v-1186h-45z" />
<glyph unicode="N" horiz-adv-x="638" d="M102 0v1413h41l353 -1251v1251h41v-1413h-39l-351 1249v-1249h-45z" />
<glyph unicode="O" d="M102 166v1081q0 70 63.5 118t156.5 48q45 0 84.5 -13.5t68.5 -36t46.5 -52t17.5 -64.5v-1081q0 -72 -62.5 -119t-154.5 -47t-156 47t-64 119zM147 166q0 -55 50.5 -94t124.5 -39q72 0 123 39t51 94v1081q0 55 -51.5 94t-122.5 39q-74 0 -124.5 -38.5t-50.5 -94.5v-1081z " />
<glyph unicode="P" horiz-adv-x="622" d="M102 0v1413h199q45 0 85 -13.5t69.5 -36t47 -52t17.5 -64.5v-377q0 -35 -17.5 -64.5t-47 -52t-69.5 -35.5t-85 -13h-154v-705h-45zM147 737h154q72 0 123 38t51 95v377q0 55 -51 94t-123 39h-154v-643z" />
<glyph unicode="Q" horiz-adv-x="624" d="M102 166v1081q0 70 63.5 118t156.5 48q45 0 84.5 -13.5t68.5 -36t46.5 -52t17.5 -64.5v-1081q0 -70 -59.5 -116t-145.5 -50q63 -29 128.5 -59.5t127.5 -59.5l-29 -26l-356 172q-43 23 -73 58.5t-30 80.5zM147 166q0 -55 51.5 -94t123.5 -39t123 39t51 94v1081 q0 55 -51.5 94t-122.5 39q-72 0 -123.5 -38.5t-51.5 -94.5v-1081z" />
<glyph unicode="R" horiz-adv-x="622" d="M102 0v1413h199q45 0 85 -13.5t69.5 -36t47 -52t17.5 -64.5v-377q0 -49 -35.5 -88t-89.5 -61q53 -23 89 -61.5t36 -88.5v-571h-45v571q0 55 -51 94.5t-123 39.5h-154v-705h-45zM147 737h154q72 0 123 38t51 95v377q0 55 -51 94t-123 39h-154v-643z" />
<glyph unicode="S" d="M102 166v108h45v-108q0 -55 50.5 -94t124.5 -39q72 0 123 39t51 94v412q0 31 -19.5 56t-50.5 46q-16 10 -41 19.5t-53 19.5h2h-4q-2 0 -4 2q-4 2 -11.5 3t-11.5 3v-2q-45 14 -69.5 24.5t-53.5 26.5q-35 23 -56.5 54.5t-21.5 72.5v344q0 70 63.5 118t156.5 48 q45 0 84.5 -13.5t68.5 -36t46.5 -52t17.5 -64.5v-108h-43v108q0 55 -51.5 94t-122.5 39q-74 0 -124.5 -38.5t-50.5 -94.5v-344q0 -68 60 -104q16 -12 39.5 -19.5t52.5 -15.5q8 -4 16.5 -5t16.5 -5v2q41 -12 66.5 -22.5t54.5 -26.5q41 -23 63.5 -56t22.5 -73v-412 q0 -72 -62.5 -119t-154.5 -47t-156 47t-64 119z" />
<glyph unicode="T" horiz-adv-x="505" d="M45 1380v33h416v-33h-185v-1380h-45v1380h-186z" />
<glyph unicode="U" d="M102 166v1241h45v-1241q0 -55 50.5 -94t124.5 -39q72 0 123 39t51 94v1241h43v-1241q0 -72 -62.5 -119t-154.5 -47t-156 47t-64 119z" />
<glyph unicode="V" horiz-adv-x="522" d="M41 1413h47l174 -1249q45 311 88 624.5t86 624.5h45l-198 -1413h-43z" />
<glyph unicode="W" horiz-adv-x="854" d="M49 1413h45l156 -1237q39 311 78 619.5t78 617.5h43l157 -1241q39 303 79 621.5t79 619.5h41l-178 -1413h-43l-158 1235q-41 -307 -79 -617.5t-77 -617.5h-43z" />
<glyph unicode="X" horiz-adv-x="522" d="M41 0l199 707q-47 170 -99.5 353t-99.5 353h45l176 -631q47 156 90 315.5t88 315.5h41l-198 -706q47 -170 99 -353.5t99 -353.5h-41l-178 633q-45 -158 -89 -316.5t-87 -316.5h-45z" />
<glyph unicode="Y" horiz-adv-x="514" d="M39 1413h41l178 -665q45 166 87 332.5t89 332.5h41l-196 -751v-662h-41v662q-47 182 -99.5 376.5t-99.5 374.5z" />
<glyph unicode="Z" horiz-adv-x="638" d="M100 0l387 1380h-376v33h428l-387 -1380h372v-33h-424z" />
<glyph unicode="[" horiz-adv-x="346" d="M102 -82v1577h254v-31h-213v-1515h213v-31h-254z" />
<glyph unicode="\" horiz-adv-x="534" d="M41 1413h41l414 -1413h-45z" />
<glyph unicode="]" horiz-adv-x="346" d="M2 -51h213v1515h-213v31h256v-1577h-256v31z" />
<glyph unicode="^" horiz-adv-x="413" d="M100 961l88 452h39l88 -452h-41l-67 315q-16 -78 -33.5 -158t-32.5 -157h-41z" />
<glyph unicode="_" horiz-adv-x="665" d="M16 -117h631v-33h-631v33z" />
<glyph unicode="`" horiz-adv-x="387" d="M86 1403h55l158 -141h-49z" />
<glyph unicode="a" d="M102 164v297q0 33 17.5 63.5t46.5 53t68.5 36t87.5 13.5q53 0 97 -18.5t77 -49.5v324q0 53 -51.5 93t-122.5 40q-74 0 -124.5 -40t-50.5 -93v-109h-45v109q0 33 17.5 63.5t46.5 53t68.5 36t87.5 13.5q45 0 84.5 -13.5t68.5 -36t46.5 -53.5t17.5 -63v-885h-43v65 q-33 -31 -77 -48t-97 -17q-92 0 -156 48t-64 118zM147 164q0 -55 50.5 -94t124.5 -39q72 0 123 39t51 94v297q0 53 -51.5 93t-122.5 40q-74 0 -124.5 -40t-50.5 -93v-297z" />
<glyph unicode="b" d="M102 0v1413h45v-430q31 29 76 48.5t99 19.5q45 0 84.5 -13.5t68.5 -36t46.5 -53t17.5 -63.5v-719q0 -72 -62.5 -119t-154.5 -47q-53 0 -98.5 18.5t-76.5 47.5v-66h-45zM147 166q0 -55 50.5 -94t124.5 -39q72 0 123 39t51 94v719q0 53 -51.5 93t-122.5 40 q-74 0 -124.5 -40t-50.5 -93v-719z" />
<glyph unicode="c" d="M102 166v719q0 33 17.5 63.5t46.5 53t68.5 36t87.5 13.5q45 0 84.5 -13.5t68.5 -36t46.5 -53t17.5 -63.5v-109h-43v109q0 53 -51.5 93t-122.5 40q-74 0 -124.5 -40t-50.5 -93v-719q0 -55 50.5 -94t124.5 -39q72 0 123 39t51 94v108h43v-108q0 -72 -62.5 -119t-154.5 -47 t-156 47t-64 119z" />
<glyph unicode="d" d="M102 166v719q0 33 17.5 63.5t46.5 53t68.5 36t87.5 13.5q51 0 96 -19.5t78 -48.5v430h43v-1413h-43v66q-33 -31 -77 -48.5t-97 -17.5q-92 0 -156 47t-64 119zM147 166q0 -55 50.5 -94t124.5 -39q72 0 123 39t51 94v719q0 53 -51.5 93t-122.5 40q-74 0 -124.5 -40 t-50.5 -93v-719z" />
<glyph unicode="e" d="M102 166v719q0 33 17.5 63.5t46.5 53t68.5 36t87.5 13.5q45 0 84.5 -13.5t68.5 -36t46.5 -53t17.5 -63.5v-324h-392v-395q0 -55 50.5 -94t124.5 -39q72 0 123 39t51 94v108h43v-108q0 -72 -62.5 -119t-154.5 -47t-156 47t-64 119zM147 592h349v293q0 53 -51.5 93 t-122.5 40q-74 0 -124.5 -40t-50.5 -93v-293z" />
<glyph unicode="f" horiz-adv-x="530" d="M102 0v1247q0 70 63.5 118t156.5 48q45 0 84.5 -14.5t68.5 -38t46.5 -55t17.5 -68.5h-43q0 59 -51.5 101t-122.5 42q-74 0 -124.5 -38.5t-50.5 -94.5v-196h312v-33h-312v-1018h-45z" />
<glyph unicode="g" d="M102 166v719q0 33 17.5 63.5t46.5 53t68.5 36t87.5 13.5q51 0 96 -19.5t78 -48.5v68h43v-1250q0 -35 -17.5 -64.5t-46.5 -51t-68.5 -34.5t-84.5 -13q-47 0 -87 14t-69 37.5t-46.5 55.5t-17.5 67h45q0 -59 50.5 -101.5t124.5 -42.5q72 0 123 40t51 93v265 q-33 -29 -78 -47.5t-96 -18.5q-92 0 -156 47t-64 119zM147 166q0 -55 50.5 -94t124.5 -39q72 0 123 39t51 94v719q0 53 -51.5 93t-122.5 40q-74 0 -124.5 -40t-50.5 -93v-719z" />
<glyph unicode="h" d="M102 0v1413h45v-430q31 29 76 48.5t99 19.5q45 0 84.5 -13.5t68.5 -36t46.5 -53t17.5 -63.5v-885h-43v885q0 53 -51.5 93t-122.5 40q-74 0 -124.5 -40t-50.5 -93v-885h-45z" />
<glyph unicode="i" horiz-adv-x="243" d="M100 0v1051h43v-1051h-43zM100 1157v166h43v-166h-43z" />
<glyph unicode="j" horiz-adv-x="258" d="M-78 -328q39 0 74 10.5t60.5 29t41 43t15.5 52.5v1244h39v-1244q0 -70 -66 -117.5t-164 -47.5v30zM113 1157v166h39v-166h-39z" />
<glyph unicode="k" horiz-adv-x="575" d="M102 0v1409h45v-827q86 117 177.5 235.5t179.5 233.5h41l-393 -521q96 -129 196.5 -265t196.5 -265h-41l-357 479v-479h-45z" />
<glyph unicode="l" horiz-adv-x="243" d="M100 0v1413h43v-1413h-43z" />
<glyph unicode="m" horiz-adv-x="1042" d="M104 0v1051h46v-68q31 29 75.5 48.5t98.5 19.5q66 0 117 -28t79 -69q27 43 80 70t119 27q45 0 85 -13.5t69.5 -36t47 -53t17.5 -63.5v-885h-45v885q0 27 -14.5 51.5t-38 42.5t-55 28.5t-66.5 10.5q-76 0 -126 -40t-50 -93v-885h-45v885q0 53 -51.5 93t-122.5 40 q-35 0 -67 -10.5t-55.5 -28.5t-37.5 -43t-14 -51v-885h-46z" />
<glyph unicode="n" d="M102 0v1051h45v-68q31 29 76 48.5t99 19.5q45 0 84.5 -13.5t68.5 -36t46.5 -53t17.5 -63.5v-885h-43v885q0 53 -51.5 93t-122.5 40q-74 0 -124.5 -40t-50.5 -93v-885h-45z" />
<glyph unicode="o" d="M102 166v719q0 33 17.5 63.5t46.5 53t68.5 36t87.5 13.5q45 0 84.5 -13.5t68.5 -36t46.5 -53t17.5 -63.5v-719q0 -72 -62.5 -119t-154.5 -47t-156 47t-64 119zM147 166q0 -55 50.5 -94t124.5 -39q72 0 123 39t51 94v719q0 53 -51.5 93t-122.5 40q-74 0 -124.5 -40 t-50.5 -93v-719z" />
<glyph unicode="p" d="M102 -362v1413h45v-68q31 29 76 48.5t99 19.5q45 0 84.5 -13.5t68.5 -36t46.5 -53t17.5 -63.5v-719q0 -72 -62.5 -119t-154.5 -47q-53 0 -98.5 18.5t-76.5 47.5v-428h-45zM147 166q0 -55 50.5 -94t124.5 -39q72 0 123 39t51 94v719q0 53 -51.5 93t-122.5 40 q-74 0 -124.5 -40t-50.5 -93v-719z" />
<glyph unicode="q" d="M102 166v719q0 33 17.5 63.5t46.5 53t68.5 36t87.5 13.5q51 0 96 -19.5t78 -48.5v68h43v-1413h-43v428q-33 -31 -77 -48.5t-97 -17.5q-92 0 -156 47t-64 119zM147 166q0 -55 50.5 -94t124.5 -39q72 0 123 39t51 94v719q0 53 -51.5 93t-122.5 40q-74 0 -124.5 -40 t-50.5 -93v-719z" />
<glyph unicode="r" horiz-adv-x="563" d="M102 0v1051h45v-68q31 29 76 48.5t99 19.5q45 0 84.5 -14.5t68.5 -39t46.5 -56.5t17.5 -67h-43q0 29 -13.5 55.5t-37 46t-55.5 31t-68 11.5q-74 0 -124.5 -40t-50.5 -93v-885h-45z" />
<glyph unicode="s" d="M102 164v108h45v-108q0 -55 50.5 -94t124.5 -39q72 0 123 39t51 94v217q0 31 -19.5 57.5t-50.5 46.5q-16 10 -41 18.5t-53 18.5h2h-4q-2 0 -4 2q-4 2 -11.5 3t-11.5 3v-2q-45 14 -69.5 24.5t-53.5 27.5q-35 23 -56.5 54.5t-21.5 72.5v178q0 33 17.5 63.5t46.5 53t68.5 36 t87.5 13.5q45 0 84.5 -13.5t68.5 -36t46.5 -53t17.5 -63.5v-109h-43v109q0 53 -51.5 93t-122.5 40q-74 0 -124.5 -40t-50.5 -93v-178q0 -66 60 -103q23 -12 50.5 -22.5t55.5 -20.5q4 -2 14.5 -5t14.5 -5q-2 2 14 -2q29 -10 50.5 -18.5t46.5 -22.5q41 -23 63.5 -54.5 t22.5 -72.5v-217q0 -35 -17.5 -64.5t-46.5 -52t-68.5 -36t-84.5 -13.5q-92 0 -156 48t-64 118z" />
<glyph unicode="t" horiz-adv-x="417" d="M37 1018v33h121v256h45v-256h184v-33h-184v-852q0 -55 54 -94t132 -39v-23l-12 -10q-45 0 -85 12.5t-69.5 35t-47 53t-17.5 65.5v852h-121z" />
<glyph unicode="u" d="M102 166v885h45v-885q0 -55 50.5 -94t124.5 -39q72 0 123 39t51 94v885h43v-885q0 -72 -62.5 -119t-154.5 -47t-156 47t-64 119z" />
<glyph unicode="v" horiz-adv-x="522" d="M41 1051h45l176 -926q47 233 89 462.5t89 463.5h41l-198 -1051h-39z" />
<glyph unicode="w" horiz-adv-x="894" d="M47 1051h41l166 -918q45 229 89 458.5t89 459.5h35l178 -918q41 229 83 458.5t83 459.5h37l-184 -1051h-37l-178 924q-45 -231 -89.5 -463t-89.5 -461h-34z" />
<glyph unicode="x" horiz-adv-x="524" d="M41 0l203 524q-47 125 -101.5 263.5t-101.5 263.5h47l174 -467q45 115 91 233.5t89 233.5h45l-202 -527q47 -125 101 -262t101 -262h-45l-180 465q-43 -117 -88 -233.5t-86 -231.5h-47z" />
<glyph unicode="y" d="M102 166v885h45v-885q0 -55 50.5 -94t124.5 -39q72 0 123 39t51 94v885h43v-1250q0 -35 -17.5 -64.5t-46.5 -51t-68.5 -34.5t-84.5 -13q-47 0 -87 14t-69 37.5t-46.5 55.5t-17.5 67h45q0 -59 50.5 -101.5t124.5 -42.5q72 0 123 40t51 93v265q-33 -29 -78 -47.5t-96 -18.5 q-92 0 -156 47t-64 119z" />
<glyph unicode="z" horiz-adv-x="638" d="M96 0l387 1018h-372v33h432l-387 -1018h368v-33h-428z" />
<glyph unicode="{" horiz-adv-x="514" d="M102 694v33q78 0 133.5 40t57.5 93q0 117 -1 234.5t-1 234.5q0 33 18.5 63.5t50 53t73.5 36t91 13.5v-33q-78 0 -132 -40t-54 -93v-469q0 -49 -36 -88t-89 -61q53 -23 89 -62t36 -88v-471q0 -53 54 -93t132 -40v-23l-12 -8q-47 0 -87 13.5t-69.5 35t-46 51t-16.5 64.5 q0 117 -1 235.5t-1 235.5q0 55 -55.5 94t-133.5 39z" />
<glyph unicode="|" horiz-adv-x="243" d="M100 -82v1577h43v-1577h-43z" />
<glyph unicode="}" horiz-adv-x="499" d="M-10 -43q78 0 132 40t54 93v471q0 49 33 89t90 61q-53 20 -88 60t-35 89v469q0 53 -54 93t-132 40v33q47 0 90 -13.5t74.5 -36t49 -53t17.5 -63.5q0 -117 1 -234.5t1 -234.5q0 -53 55.5 -93t133.5 -40v-33q-78 0 -133.5 -39t-57.5 -94v-469l2 -2q0 -35 -18.5 -64.5 t-50 -51t-73.5 -35t-91 -13.5v31z" />
<glyph unicode="~" horiz-adv-x="811" d="M100 1083q35 33 80 49.5t90 16.5q80 0 148 -43q27 -16 57.5 -23.5t61.5 -7.5q35 0 73.5 11.5t71.5 39.5l29 -20q-35 -33 -83 -49.5t-93 -16.5q-80 0 -146 39q-53 35 -119 35q-35 0 -73.5 -13.5t-69.5 -37.5z" />
<glyph unicode="&#xa1;" horiz-adv-x="243" d="M100 -82v1118h43v-1118h-43zM100 1212v119h43v-119h-43z" />
<glyph unicode="&#xa2;" d="M102 166v590q0 66 56.5 112.5t140.5 53.5v114h43v-114q84 -6 140.5 -53.5t56.5 -112.5v-111h-43v111q0 53 -51.5 93t-122.5 40q-74 0 -124.5 -40t-50.5 -93v-590q0 -55 50.5 -94t124.5 -39q72 0 123 39t51 94v108h43v-108q0 -66 -56.5 -113t-140.5 -53v-115h-43v115 q-84 6 -140.5 53t-56.5 113z" />
<glyph unicode="&#xa3;" d="M102 0v1247q0 70 63.5 118t156.5 48q45 0 84.5 -13.5t68.5 -36t46.5 -52t17.5 -64.5v-108h-43v108q0 55 -51.5 94t-122.5 39q-74 0 -124.5 -38.5t-50.5 -94.5v-452h306v-31h-306v-731h369v-33h-414z" />
<glyph unicode="&#xa4;" horiz-adv-x="874" d="M104 479v47l95 74q-39 68 -39 150t39 147q-25 16 -48.5 33.5t-46.5 34.5v49l117 -86q84 102 215 102q66 0 118 -25.5t93 -72.5l121 90v-49l-96 -72q23 -35 34 -72.5t11 -78.5q0 -84 -47 -154l98 -76v-47l-121 90q-80 -90 -211 -90q-66 0 -119 24.5t-90 71.5zM207 750 q0 -51 18.5 -96.5t50 -79t72.5 -53t88 -19.5t90 19.5t75 53t50.5 79t18.5 96.5t-18.5 96t-50.5 78.5t-75 53t-90 19.5t-88 -19.5t-72.5 -53t-50 -78.5t-18.5 -96z" />
<glyph unicode="&#xa5;" horiz-adv-x="530" d="M47 1413h41l178 -665q45 166 87 332.5t89 332.5h41l-196 -751v-70h192v-33h-192v-123h192v-33h-192v-403h-43v403h-181v33h181v123h-181v33h181v70q-47 182 -98.5 376.5t-98.5 374.5z" />
<glyph unicode="&#xa6;" horiz-adv-x="243" d="M100 -150v670h43v-670h-43zM100 725v670h43v-670h-43z" />
<glyph unicode="&#xa7;" horiz-adv-x="649" d="M102 889v164q0 70 63.5 118t156.5 48q45 0 84.5 -13.5t68.5 -36t46.5 -52.5t17.5 -64v-111h-43v111q0 55 -51.5 94t-122.5 39q-72 0 -123.5 -39t-51.5 -94v-164q0 -68 60 -103q16 -10 39.5 -20t52.5 -18h2q4 -2 10 -4.5t21 -6.5v2q41 -12 67.5 -22t53.5 -27 q41 -23 63.5 -54.5t22.5 -72.5v-39q0 -41 -23.5 -76.5t-71.5 -58.5q12 -4 15.5 -7t11.5 -7h-4q37 -23 58.5 -55.5t21.5 -71.5v-164q0 -70 -64.5 -117t-156.5 -47q-45 0 -84 12.5t-69 35t-47 52t-17 64.5v111h43v-111q0 -53 51 -93t123 -40q74 0 126 40t52 93v164 q0 66 -78 110q-10 8 -28.5 14.5t-41.5 12.5q-6 2 -14 5t-27 7q-37 12 -65.5 22.5t-52.5 26.5q-41 23 -64.5 56t-23.5 71v39q0 41 24.5 76t69.5 57q-4 4 -13.5 8.5t-13.5 8.5h4q-35 23 -56.5 54.5t-21.5 72.5zM152 573q0 -61 69 -100q45 -29 109 -43q8 -4 27.5 -10t39.5 -14 q41 16 70 46.5t29 71.5v39q0 31 -19.5 56.5t-50.5 44.5q-18 12 -47 23t-57 20q-16 2 -26.5 4t-49.5 18q-41 -16 -67.5 -48t-26.5 -69v-39zM238 733q0 -2 2 -2zM401 406q4 -4 11 -5q-8 4 -6 5h-3h-2z" />
<glyph unicode="&#xa8;" horiz-adv-x="368" d="M100 1327v90h43v-90h-43zM223 1327v90h45v-90h-45z" />
<glyph unicode="&#xa9;" horiz-adv-x="569" d="M102 881v368q0 31 14.5 56.5t39 46t58.5 32t71 11.5q78 0 130 -43t52 -103v-368q0 -63 -52.5 -105.5t-129.5 -42.5q-76 0 -129.5 42t-53.5 106zM143 881q0 -49 41 -83t101 -34q59 0 101 33.5t42 83.5v368q0 47 -42 81t-101 34t-100.5 -34t-41.5 -81v-368zM166 895v354 q0 37 32.5 62.5t86.5 25.5q49 0 82.5 -25.5t33.5 -62.5v-63h-39v63q0 23 -23.5 40.5t-53.5 17.5q-35 0 -57.5 -17.5t-22.5 -40.5v-354q0 -25 22.5 -42t57.5 -17q31 0 54 17t23 42v59h39v-59q0 -37 -33.5 -63.5t-82.5 -26.5q-53 0 -86 26.5t-33 63.5z" />
<glyph unicode="&#xaa;" d="M102 788v455q0 72 63.5 119t156.5 47q51 0 96 -18.5t78 -47.5v48h43v-766h-43v63q-68 -63 -174 -63q-92 0 -156 47t-64 116zM147 788q0 -55 50.5 -94t124.5 -39q72 0 123 39t51 94v455q0 55 -51.5 94t-122.5 39q-74 0 -124.5 -39t-50.5 -94v-455z" />
<glyph unicode="&#xab;" horiz-adv-x="610" d="M102 434l166 248l58 -2l-174 -246q41 -57 89 -121.5t89 -122.5h-54zM287 434l172 248l55 -2l-174 -246q41 -57 88 -121.5t88 -122.5h-51z" />
<glyph unicode="&#xac;" horiz-adv-x="653" d="M102 477v31h445v-164h-41v133h-404z" />
<glyph unicode="&#xad;" horiz-adv-x="653" d="M102 477v31h445v-31h-445z" />
<glyph unicode="&#xae;" horiz-adv-x="569" d="M102 881v368q0 31 14.5 56.5t39 46t58.5 32t71 11.5q78 0 130 -43t52 -103v-368q0 -63 -52.5 -105.5t-129.5 -42.5q-76 0 -129.5 42t-53.5 106zM143 881q0 -49 37 -80v526q-37 -31 -37 -78v-368zM184 797q38 -33 101 -33t100 33h-16v200q0 23 -23.5 41.5t-54.5 18.5h-70 v-260h-37zM188 1335h103q51 0 85 -26.5t34 -63.5v-100q0 -53 -52 -74q20 -12 36 -31.5t16 -42.5v-176q8 14 13 28.5t5 31.5v368q0 47 -42 81t-101 34q-57 0 -97 -29zM221 1085h70q31 0 54.5 17.5t23.5 42.5v100q0 25 -23.5 41.5t-54.5 16.5h-70v-218z" />
<glyph unicode="&#xaf;" horiz-adv-x="514" d="M102 1321v31h310v-31h-310z" />
<glyph unicode="&#xb0;" d="M102 1233q0 35 17.5 65.5t46.5 53t68.5 36t87.5 13.5q92 0 154.5 -48t62.5 -120q0 -35 -17.5 -64.5t-46.5 -51t-68.5 -35t-84.5 -13.5q-92 0 -156 48t-64 116zM147 1233q0 -53 50.5 -93t124.5 -40q72 0 123 40t51 93q0 57 -51.5 96t-122.5 39q-74 0 -124.5 -39t-50.5 -96 z" />
<glyph unicode="&#xb1;" horiz-adv-x="618" d="M102 27v32h414v-32h-414zM102 477v31h185v346h45v-346h184v-31h-184v-342h-45v342h-185z" />
<glyph unicode="&#xb2;" d="M102 584v258q0 41 22.5 72.5t63.5 54.5q27 16 53.5 26.5t67.5 22.5v-2q29 10 30 11t1 -1q29 10 53.5 18.5t40.5 20.5q61 35 62 102v64q0 55 -51.5 94t-122.5 39q-74 0 -124.5 -39t-50.5 -94v-43h-45v43q0 70 63.5 117t156.5 47q92 0 154.5 -47.5t62.5 -116.5v-64 q0 -41 -21.5 -72.5t-56.5 -54.5q-29 -16 -53.5 -26t-69.5 -25v2l-16 -6q-29 -10 -59 -21.5t-48 -21.5q-31 -18 -49.5 -44t-18.5 -56v-232h369v-32z" />
<glyph unicode="&#xb3;" d="M102 754h45q0 -59 50.5 -101.5t124.5 -42.5q72 0 123 39t51 94v158q0 53 -51.5 93t-122.5 40h-99v33h99q72 0 123 39t51 96v29q0 55 -51.5 94t-122.5 39q-74 0 -124.5 -42t-50.5 -101h-45q0 74 63.5 124t156.5 50q92 0 154.5 -47.5t62.5 -116.5v-29q0 -49 -35 -90 t-90 -61q55 -23 90 -63t35 -87v-158q0 -72 -62.5 -118.5t-154.5 -46.5t-156 50t-64 126z" />
<glyph unicode="&#xb4;" horiz-adv-x="387" d="M88 1262l158 141h55l-164 -141h-49z" />
<glyph unicode="&#xb5;" horiz-adv-x="661" d="M102 -274v1325h45v-885q0 -55 51.5 -94t123.5 -39t123 39t51 94v885h43v-885q0 -27 -8.5 -50.5t-30.5 -45.5l-2 -4l-9 -7v2q-8 -10 -19 -20t-21 -21q-10 -10 -16.5 -21t-6.5 -22q0 -29 37 -36t96 6v-23l-12 -10q-78 -14 -120 1t-42 62q0 20 8 31q-31 -8 -71 -8 q-53 0 -98.5 18.5t-76.5 47.5v-340h-45z" />
<glyph unicode="&#xb6;" horiz-adv-x="704" d="M102 987v260q0 70 63.5 118t156.5 48h350v-33h-80v-1495h-45v1495h-94v-1495h-41v934h-90q-47 0 -87 13.5t-69 36t-46.5 53t-17.5 65.5z" />
<glyph unicode="&#xb7;" horiz-adv-x="243" d="M100 702v119h43v-119h-43z" />
<glyph unicode="&#xb8;" horiz-adv-x="370" d="M100 -156q53 0 91 23.5t38 56.5q0 29 -34.5 52.5t-83.5 27.5v31q70 -4 114.5 -35t44.5 -76q0 -47 -49 -78.5t-121 -31.5v30z" />
<glyph unicode="&#xb9;" horiz-adv-x="417" d="M94 1147l191 252h30v-821h-39v753q-35 -47 -70.5 -94t-70.5 -92z" />
<glyph unicode="&#xba;" d="M102 924v321q0 70 63.5 118t156.5 48q45 0 84.5 -13.5t68.5 -36t46.5 -52t17.5 -64.5v-321q0 -72 -62.5 -119t-154.5 -47t-156 47t-64 119zM147 924q0 -55 50.5 -95.5t124.5 -40.5q72 0 123 40t51 96v321q0 55 -51.5 94t-122.5 39q-74 0 -124.5 -39t-50.5 -94v-321z" />
<glyph unicode="&#xbb;" horiz-adv-x="610" d="M94 190l176 244q-41 59 -87 123t-87 123l54 2l172 -248l-175 -244h-53zM279 190l180 244q-41 59 -88 123t-88 123l55 2l170 -248l-176 -244h-53z" />
<glyph unicode="&#xbc;" horiz-adv-x="1112" d="M96 1147l191 252h35v-821h-43v753q-33 -47 -69 -94t-69 -92zM313 0l412 1413h41l-410 -1413h-43zM578 164l313 657h41v-624h74v-33h-74v-164h-45v164h-309zM639 197h248v522q-66 -135 -124 -261t-124 -261z" />
<glyph unicode="&#xbd;" horiz-adv-x="1224" d="M100 1147l191 252h31v-821h-39v753q-35 -47 -72 -94t-70 -92zM315 0l410 1413h41l-410 -1413h-41zM682 6v258q0 78 84 127q25 16 54.5 27.5t66.5 21.5q10 4 21.5 6.5t21.5 6.5q25 6 44 13t40 21q61 35 61 103v63q0 55 -52 95t-124 40q-74 0 -126 -39.5t-52 -95.5v-43h-39 v43q0 70 62.5 117t154.5 47t154.5 -47t62.5 -117v-63q0 -80 -74 -127q-25 -14 -45 -22.5t-51 -18.5q-8 -2 -21.5 -6t-23.5 -7t-16 -5.5t-2 -0.5q-23 -4 -46.5 -15t-45.5 -21q-31 -18 -50.5 -45t-19.5 -58v-231h375v-33z" />
<glyph unicode="&#xbe;" horiz-adv-x="1249" d="M109 754h41q0 -59 52 -101.5t124 -42.5t123 39t51 94v158q0 27 -14.5 51.5t-38 43t-55.5 28.5t-66 10h-99v33h99q72 0 123 39t51 96v29q0 55 -51.5 94t-122.5 39q-72 0 -124 -42t-52 -101h-41q0 74 62 124t155 50q92 0 154.5 -47.5t62.5 -116.5v-29q0 -49 -35 -90 t-90 -61q55 -23 90 -63t35 -87v-158q0 -72 -62.5 -118.5t-154.5 -46.5t-154.5 50t-62.5 126zM451 0l411 1413h41l-407 -1413h-45zM717 164l311 657h41v-624h74v-33h-74v-164h-43v164h-309zM768 197h258v520q-63 -127 -129 -259t-129 -261z" />
<glyph unicode="&#xbf;" d="M102 82v346q0 72 50 115q18 16 31.5 25.5t35.5 21.5h-4q4 4 8 5t8 5q41 12 72 43q20 16 27.5 40t7.5 56v297h41v-297q0 -39 -8.5 -67.5t-32.5 -48.5q-12 -12 -27.5 -21.5t-31.5 -17.5q-4 -2 -13.5 -6.5t-13.5 -6.5h2q-39 -25 -70 -49q-23 -20 -30 -41.5t-7 -52.5v-346 q0 -53 50.5 -93t124.5 -40q72 0 123 40t51 93v111h43v-111q0 -70 -62.5 -117t-154.5 -47t-156 47t-64 117zM338 1212v119h41v-119h-41z" />
<glyph unicode="&#xc0;" horiz-adv-x="522" d="M41 0l199 1413h43l196 -1413h-43l-80 578h-190q-18 -141 -36.5 -289t-41.5 -289h-47zM156 1593h55l160 -139h-54zM172 610h182q-12 88 -23.5 166t-21.5 153t-21.5 153.5t-25.5 168.5q-23 -164 -44 -319.5t-46 -321.5z" />
<glyph unicode="&#xc1;" horiz-adv-x="522" d="M41 0l199 1413h43l196 -1413h-43l-80 578h-190q-18 -141 -36.5 -289t-41.5 -289h-47zM152 1454l161 139h56l-164 -139h-53zM172 610h182q-12 88 -23.5 166t-21.5 153t-21.5 153.5t-25.5 168.5q-23 -164 -44 -319.5t-46 -321.5z" />
<glyph unicode="&#xc2;" horiz-adv-x="522" d="M41 0l199 1413h43l196 -1413h-43l-80 578h-190q-18 -141 -36.5 -289t-41.5 -289h-47zM86 1462l160 131h33l157 -131h-55l-119 99l-119 -99h-57zM172 610h182q-12 88 -23.5 166t-21.5 153t-21.5 153.5t-25.5 168.5q-23 -164 -44 -319.5t-46 -321.5z" />
<glyph unicode="&#xc3;" horiz-adv-x="522" d="M25 1518q66 49 141 49q31 0 61.5 -7.5t55.5 -23.5q39 -25 88 -25q53 0 110 41l23 -16v-14q-57 -41 -133 -41q-59 0 -117 28q-18 10 -43 16.5t-45 6.5q-23 0 -50.5 -9.5t-54.5 -27.5zM39 0l197 1413h40l197 -1413h-41l-78 578h-190q-23 -141 -41.5 -289t-40.5 -289h-43z M168 610h180q-12 90 -23.5 166t-21.5 149.5t-21.5 149.5t-23.5 168q-23 -160 -45.5 -316.5t-44.5 -316.5z" />
<glyph unicode="&#xc4;" horiz-adv-x="522" d="M41 0l199 1413h43l196 -1413h-43l-80 578h-190q-18 -141 -36.5 -289t-41.5 -289h-47zM172 610h182q-12 88 -23.5 166t-21.5 153t-21.5 153.5t-25.5 168.5q-23 -164 -44 -319.5t-46 -321.5zM176 1483v92h45v-92h-45zM301 1483v92h45v-92h-45z" />
<glyph unicode="&#xc5;" horiz-adv-x="522" d="M41 0l199 1413h43l196 -1413h-43l-80 578h-190q-18 -141 -36.5 -289t-41.5 -289h-47zM113 1526q0 47 42 79.5t105 32.5q61 0 103.5 -32.5t42.5 -79.5q0 -45 -42 -77t-104 -32q-63 0 -105 32t-42 77zM158 1526q0 -31 30.5 -53.5t71.5 -22.5t69.5 22.5t28.5 53.5 q0 33 -28.5 56.5t-69.5 23.5t-71.5 -23.5t-30.5 -56.5zM172 610h182q-12 88 -23.5 166t-21.5 153t-21.5 153.5t-25.5 168.5q-23 -164 -44 -319.5t-46 -321.5z" />
<glyph unicode="&#xc6;" horiz-adv-x="901" d="M47 0l440 1413h365v-33h-324v-643h269v-30h-269v-674h324v-33h-369v707h-170q-57 -174 -112.5 -353.5t-108.5 -353.5h-45zM322 737h161v527z" />
<glyph unicode="&#xc7;" d="M102 166v1081q0 70 63.5 118t156.5 48q45 0 84.5 -13.5t68.5 -36t46.5 -52t17.5 -64.5v-108h-43v108q0 55 -51.5 94t-122.5 39q-74 0 -124.5 -38.5t-50.5 -94.5v-1081q0 -55 50.5 -94t124.5 -39q72 0 123 39t51 94v108h43v-108q0 -59 -43 -103.5t-115 -56.5 q23 -16 37 -37.5t14 -44.5q0 -47 -49 -78.5t-121 -31.5v30q53 0 92 23.5t39 56.5q0 25 -24.5 46.5t-59.5 29.5q-43 2 -79.5 15.5t-65.5 36t-45.5 51t-16.5 63.5z" />
<glyph unicode="&#xc8;" horiz-adv-x="618" d="M102 0v1413h414v-33h-369v-643h314v-30h-314v-674h369v-33h-414zM203 1593h57l158 -139h-53z" />
<glyph unicode="&#xc9;" horiz-adv-x="618" d="M102 0v1413h414v-33h-369v-643h314v-30h-314v-674h369v-33h-414zM203 1454l159 139h56l-160 -139h-55z" />
<glyph unicode="&#xca;" horiz-adv-x="618" d="M102 0v1413h414v-33h-369v-643h314v-30h-314v-674h369v-33h-414zM135 1462l160 131h31l161 -131h-59l-119 99l-119 -99h-55z" />
<glyph unicode="&#xcb;" horiz-adv-x="618" d="M102 0v1413h414v-33h-369v-643h314v-30h-314v-674h369v-33h-414zM227 1483v92h41v-92h-41zM350 1483v92h43v-92h-43z" />
<glyph unicode="&#xcc;" horiz-adv-x="243" d="M14 1593h56l159 -139h-53zM100 0v1415h43v-1415h-43z" />
<glyph unicode="&#xcd;" horiz-adv-x="243" d="M14 1454l160 139h55l-163 -139h-52zM100 0v1415h43v-1415h-43z" />
<glyph unicode="&#xce;" horiz-adv-x="243" d="M-55 1462l159 131h33l158 -131h-55l-119 97l-119 -97h-57zM100 0v1415h43v-1415h-43z" />
<glyph unicode="&#xcf;" horiz-adv-x="243" d="M37 1483v92h45v-92h-45zM100 0v1415h43v-1415h-43zM164 1483v92h43v-92h-43z" />
<glyph unicode="&#xd0;" horiz-adv-x="622" d="M102 0v1413h199q45 0 86 -13.5t69.5 -36t46 -53t17.5 -63.5v-1081q0 -70 -63.5 -118t-155.5 -48h-199zM147 33h154q76 0 125 40t49 93v1081q0 53 -49 93t-125 40h-154v-643h154v-30h-154v-674z" />
<glyph unicode="&#xd1;" horiz-adv-x="677" d="M94 1518q66 49 142 49q66 0 114 -31q43 -25 90 -25q55 0 107 41l24 -16v-14q-53 -41 -131 -41q-63 0 -116 28q-18 10 -43 16.5t-45 6.5q-25 0 -52.5 -9.5t-54.5 -27.5zM121 0v1413h43l350 -1251v1251h41v-1413h-39l-350 1249v-1249h-45z" />
<glyph unicode="&#xd2;" d="M102 166v1081q0 70 63.5 118t156.5 48q45 0 84.5 -13.5t68.5 -36t46.5 -52t17.5 -64.5v-1081q0 -72 -62.5 -119t-154.5 -47t-156 47t-64 119zM147 166q0 -55 50.5 -94t124.5 -39q72 0 123 39t51 94v1081q0 55 -51.5 94t-122.5 39q-74 0 -124.5 -38.5t-50.5 -94.5v-1081z M213 1593h57l158 -139h-51z" />
<glyph unicode="&#xd3;" d="M102 166v1081q0 70 63.5 118t156.5 48q45 0 84.5 -13.5t68.5 -36t46.5 -52t17.5 -64.5v-1081q0 -72 -62.5 -119t-154.5 -47t-156 47t-64 119zM147 166q0 -55 50.5 -94t124.5 -39q72 0 123 39t51 94v1081q0 55 -51.5 94t-122.5 39q-74 0 -124.5 -38.5t-50.5 -94.5v-1081z M213 1454l160 139h55l-160 -139h-55z" />
<glyph unicode="&#xd4;" d="M102 166v1081q0 70 63.5 118t156.5 48q45 0 84.5 -13.5t68.5 -36t46.5 -52t17.5 -64.5v-1081q0 -72 -62.5 -119t-154.5 -47t-156 47t-64 119zM147 166q0 -55 50.5 -94t124.5 -39q72 0 123 39t51 94v1081q0 55 -51.5 94t-122.5 39q-74 0 -124.5 -38.5t-50.5 -94.5v-1081z M147 1462l160 131h31l160 -131h-56l-120 97l-119 -97h-56z" />
<glyph unicode="&#xd5;" horiz-adv-x="677" d="M94 1518q66 49 142 49q66 0 114 -31q43 -25 90 -25q55 0 107 41l24 -16v-14q-53 -41 -131 -41q-63 0 -116 28q-18 10 -43 16.5t-45 6.5q-25 0 -52.5 -9.5t-54.5 -27.5zM119 166v1081q0 35 17.5 64.5t48 52t70.5 36t85 13.5t85 -13.5t69.5 -36t47 -52t17.5 -64.5v-1081 q0 -35 -17.5 -65.5t-47 -53t-69.5 -35t-85 -12.5t-85 12.5t-70.5 35t-48 53t-17.5 65.5zM164 166q0 -55 50 -94t126 -39q72 0 123 39t51 94v1081q0 55 -51 94t-123 39q-76 0 -126 -38.5t-50 -94.5v-1081z" />
<glyph unicode="&#xd6;" d="M102 166v1081q0 70 63.5 118t156.5 48q45 0 84.5 -13.5t68.5 -36t46.5 -52t17.5 -64.5v-1081q0 -72 -62.5 -119t-154.5 -47t-156 47t-64 119zM147 166q0 -55 50.5 -94t124.5 -39q72 0 123 39t51 94v1081q0 55 -51.5 94t-122.5 39q-74 0 -124.5 -38.5t-50.5 -94.5v-1081z M238 1483v92h41v-92h-41zM362 1483v92h41v-92h-41z" />
<glyph unicode="&#xd7;" horiz-adv-x="638" d="M94 143l201 355q-49 86 -100.5 175t-100.5 175h49l174 -309q45 78 91.5 156.5t89.5 152.5h47l-203 -350q51 -86 102.5 -177.5t100.5 -177.5h-47l-181 310q-43 -78 -88 -156t-86 -154h-49z" />
<glyph unicode="&#xd8;" horiz-adv-x="696" d="M100 -33l41 139q-12 25 -12 60v1081q0 35 17.5 64.5t47 52t69.5 36t85 13.5q59 0 101.5 -17.5t72.5 -49.5q10 23 18.5 50t14.5 50h43l-43 -141q6 -14 9 -26.5t3 -31.5v-1081q0 -35 -17.5 -65.5t-47 -53t-69.5 -35t-85 -12.5q-53 0 -98 18.5t-76 49.5q-6 -25 -15 -51.5 t-16 -49.5h-43zM172 205q84 274 169 545.5t171 547.5q-23 35 -69 58.5t-95 23.5q-72 0 -124 -38.5t-52 -94.5v-1042zM188 111q20 -35 62.5 -56.5t97.5 -21.5q72 0 123 39t51 94v1038q-84 -274 -169 -546.5t-165 -546.5z" />
<glyph unicode="&#xd9;" d="M102 166v1241h45v-1241q0 -55 50.5 -94t124.5 -39q72 0 123 39t51 94v1241h43v-1241q0 -72 -62.5 -119t-154.5 -47t-156 47t-64 119zM213 1593h57l158 -139h-51z" />
<glyph unicode="&#xda;" d="M102 166v1241h45v-1241q0 -55 50.5 -94t124.5 -39q72 0 123 39t51 94v1241h43v-1241q0 -72 -62.5 -119t-154.5 -47t-156 47t-64 119zM213 1454l160 139h55l-160 -139h-55z" />
<glyph unicode="&#xdb;" d="M102 166v1241h45v-1241q0 -55 50.5 -94t124.5 -39q72 0 123 39t51 94v1241h43v-1241q0 -72 -62.5 -119t-154.5 -47t-156 47t-64 119zM147 1462l160 131h31l160 -131h-56l-120 97l-119 -97h-56z" />
<glyph unicode="&#xdc;" d="M102 166v1241h45v-1241q0 -55 50.5 -94t124.5 -39q72 0 123 39t51 94v1241h43v-1241q0 -72 -62.5 -119t-154.5 -47t-156 47t-64 119zM238 1483v92h41v-92h-41zM362 1483v92h41v-92h-41z" />
<glyph unicode="&#xdd;" horiz-adv-x="524" d="M45 1413h43l174 -661q45 166 91 331.5t89 329.5h41l-196 -751v-662h-43v662q-47 182 -99.5 376.5t-99.5 374.5zM158 1454l157 139h58l-162 -139h-53z" />
<glyph unicode="&#xde;" horiz-adv-x="645" d="M102 0v1415h45v-344h175q45 0 84.5 -13.5t70.5 -36t48.5 -53t17.5 -63.5v-295q0 -35 -17.5 -65.5t-48.5 -53t-70.5 -35t-84.5 -12.5h-175v-444h-45zM147 475h175q72 0 123 39t51 96v295q0 53 -51.5 93t-122.5 40h-175v-563z" />
<glyph unicode="&#xdf;" d="M102 0v1247q0 70 63.5 118t156.5 48q45 0 84.5 -13.5t68.5 -36t46.5 -52t17.5 -64.5v-114q0 -41 -22.5 -73t-63.5 -54q-20 -10 -36 -17.5t-24 -11.5q-51 -18 -55 -23q-78 -43 -78 -110q0 -59 64 -101q10 -6 26.5 -13t42.5 -17l13 -6q10 -4 23 -10.5t24 -10.5 q41 -23 63.5 -55.5t22.5 -73.5v-391q0 -72 -62.5 -119t-154.5 -47h-84v33h84q72 0 123 39t51 94v391q0 31 -19.5 57.5t-50.5 44.5q-4 4 -11 7.5t-18 7.5h4q-8 0 -16 4q-6 2 -8 4h2q-29 10 -45.5 16.5t-24.5 10.5l-12 6t-6 4h2q-74 47 -74 127q0 78 74 125h-2q2 2 6 4l12 6 t24.5 10t45.5 17l16 6q8 2 23 12q35 23 56.5 47.5t21.5 59.5v114q0 55 -51.5 94t-122.5 39q-74 0 -124.5 -38.5t-50.5 -94.5v-1247h-45z" />
<glyph unicode="&#xe0;" d="M102 166v297q0 33 17.5 63.5t46.5 53t68.5 36t87.5 13.5q53 0 97 -18.5t77 -49.5v324q0 53 -51.5 93t-122.5 40q-74 0 -124.5 -40t-50.5 -93v-109h-45v109q0 33 17.5 63.5t46.5 53t68.5 36t87.5 13.5q45 0 84.5 -13.5t68.5 -36t46.5 -53t17.5 -63.5v-885h-43v66 q-33 -31 -77 -48.5t-97 -17.5q-92 0 -156 47t-64 119zM147 166q0 -55 50.5 -94t124.5 -39q72 0 123 39t51 94v297q0 53 -51.5 93t-122.5 40q-74 0 -124.5 -40t-50.5 -93v-297zM213 1253h55l158 -141h-49z" />
<glyph unicode="&#xe1;" d="M102 166v297q0 33 17.5 63.5t46.5 53t68.5 36t87.5 13.5q53 0 97 -18.5t77 -49.5v324q0 53 -51.5 93t-122.5 40q-74 0 -124.5 -40t-50.5 -93v-109h-45v109q0 33 17.5 63.5t46.5 53t68.5 36t87.5 13.5q45 0 84.5 -13.5t68.5 -36t46.5 -53t17.5 -63.5v-885h-43v66 q-33 -31 -77 -48.5t-97 -17.5q-92 0 -156 47t-64 119zM147 166q0 -55 50.5 -94t124.5 -39q72 0 123 39t51 94v297q0 53 -51.5 93t-122.5 40q-74 0 -124.5 -40t-50.5 -93v-297zM215 1112l158 141h55l-162 -141h-51z" />
<glyph unicode="&#xe2;" d="M102 166v297q0 33 17.5 63.5t46.5 53t68.5 36t87.5 13.5q53 0 97 -18.5t77 -49.5v324q0 53 -51.5 93t-122.5 40q-74 0 -124.5 -40t-50.5 -93v-109h-45v109q0 33 17.5 63.5t46.5 53t68.5 36t87.5 13.5q45 0 84.5 -13.5t68.5 -36t46.5 -53t17.5 -63.5v-885h-43v66 q-33 -31 -77 -48.5t-97 -17.5q-92 0 -156 47t-64 119zM147 166q0 -55 50.5 -94t124.5 -39q72 0 123 39t51 94v297q0 53 -51.5 93t-122.5 40q-74 0 -124.5 -40t-50.5 -93v-297zM147 1120l160 131h31l160 -131h-56l-120 99l-119 -99h-56z" />
<glyph unicode="&#xe3;" d="M72 1180q31 23 68.5 35t74.5 12q61 0 117 -31q18 -10 42.5 -16t43.5 -6q25 0 53.5 9t56.5 29l25 -14v-14q-57 -45 -135 -45q-63 0 -115 30q-41 25 -88 25q-53 0 -106 -41zM100 166v297q0 33 17.5 63.5t47.5 53t68.5 36t83.5 13.5q57 0 101.5 -18.5t77.5 -49.5v324 q0 27 -14.5 51.5t-39 42.5t-56.5 28.5t-69 10.5q-72 0 -123 -40t-51 -93v-109h-43v109q0 35 17.5 64.5t47.5 52t68.5 36t83.5 13.5t86 -13.5t70 -36t46.5 -53t17.5 -63.5v-885h-41v66q-33 -31 -77 -48.5t-102 -17.5q-90 0 -153.5 47t-63.5 119zM143 166q0 -55 51.5 -94 t122.5 -39q72 0 125.5 39t53.5 94v297q0 27 -14.5 51.5t-39 42.5t-56.5 28.5t-69 10.5q-72 0 -123 -40t-51 -93v-297z" />
<glyph unicode="&#xe4;" d="M102 166v297q0 33 17.5 63.5t46.5 53t68.5 36t87.5 13.5q53 0 97 -18.5t77 -49.5v324q0 53 -51.5 93t-122.5 40q-74 0 -124.5 -40t-50.5 -93v-109h-45v109q0 33 17.5 63.5t46.5 53t68.5 36t87.5 13.5q45 0 84.5 -13.5t68.5 -36t46.5 -53t17.5 -63.5v-885h-43v66 q-33 -31 -77 -48.5t-97 -17.5q-92 0 -156 47t-64 119zM147 166q0 -55 50.5 -94t124.5 -39q72 0 123 39t51 94v297q0 53 -51.5 93t-122.5 40q-74 0 -124.5 -40t-50.5 -93v-297zM238 1145v90h41v-90h-41zM362 1145v90h41v-90h-41z" />
<glyph unicode="&#xe5;" d="M102 166v297q0 33 17.5 63.5t46.5 53t68.5 36t87.5 13.5q53 0 97 -18.5t77 -49.5v324q0 53 -51.5 93t-122.5 40q-74 0 -124.5 -40t-50.5 -93v-109h-45v109q0 33 17.5 63.5t46.5 53t68.5 36t87.5 13.5q45 0 84.5 -13.5t68.5 -36t46.5 -53t17.5 -63.5v-885h-43v66 q-33 -31 -77 -48.5t-97 -17.5q-92 0 -156 47t-64 119zM147 166q0 -55 50.5 -94t124.5 -39q72 0 123 39t51 94v297q0 53 -51.5 93t-122.5 40q-74 0 -124.5 -40t-50.5 -93v-297zM176 1182q0 47 41 78.5t105 31.5q61 0 103 -31.5t42 -78.5t-42 -79t-103 -32q-63 0 -104.5 32 t-41.5 79zM221 1182q0 -33 30 -55.5t71 -22.5q43 0 70.5 22.5t27.5 55.5t-27.5 54t-70.5 21q-41 0 -71 -21.5t-30 -53.5z" />
<glyph unicode="&#xe6;" horiz-adv-x="1042" d="M104 166v297q0 33 17.5 63.5t47.5 53t70 36t85 13.5q53 0 98 -18.5t76 -47.5v332q-4 51 -53.5 87t-120.5 36q-35 0 -67 -10.5t-55.5 -28.5t-37.5 -43t-14 -51v-109h-46v109q0 33 17.5 63.5t47.5 53t70 36t85 13.5q66 0 117 -27t79 -68q27 41 80 68t119 27q45 0 85 -13.5 t69.5 -36t47 -53t17.5 -63.5v-324h-395v-405q6 -53 55 -88t121 -35t123 39t51 94v108h45v-108q0 -35 -17.5 -65.5t-47 -53t-69.5 -35t-85 -12.5q-66 0 -119 25.5t-80 66.5q-29 -41 -80 -66.5t-116 -25.5q-92 0 -156 47t-64 119zM150 166q0 -55 51 -94t123 -39t121 34.5 t53 88.5l2 8l-2 2v309q0 49 -53.5 85t-120.5 36q-35 0 -67 -10.5t-55.5 -28.5t-37.5 -43t-14 -51v-297zM543 592h350v293q0 27 -14.5 51.5t-38 42.5t-55 28.5t-66.5 10.5q-72 0 -121 -36t-55 -87v-303z" />
<glyph unicode="&#xe7;" d="M102 166v719q0 33 17.5 63.5t46.5 53t68.5 36t87.5 13.5q45 0 84.5 -13.5t68.5 -36t46.5 -53t17.5 -63.5v-109h-43v109q0 53 -51.5 93t-122.5 40q-74 0 -124.5 -40t-50.5 -93v-719q0 -55 50.5 -94t124.5 -39q72 0 123 39t51 94v108h43v-108q0 -59 -43 -103.5t-115 -56.5 q23 -16 37 -37.5t14 -44.5q0 -47 -49 -78.5t-121 -31.5v30q53 0 92 23.5t39 56.5q0 25 -24.5 46.5t-59.5 29.5q-43 2 -79.5 15.5t-65.5 36t-45.5 51t-16.5 63.5z" />
<glyph unicode="&#xe8;" d="M102 166v719q0 33 17.5 63.5t46.5 53t68.5 36t87.5 13.5q45 0 84.5 -13.5t68.5 -36t46.5 -53t17.5 -63.5v-324h-392v-395q0 -55 50.5 -94t124.5 -39q72 0 123 39t51 94v108h43v-108q0 -72 -62.5 -119t-154.5 -47t-156 47t-64 119zM147 592h349v293q0 53 -51.5 93 t-122.5 40q-74 0 -124.5 -40t-50.5 -93v-293zM213 1253h55l158 -141h-49z" />
<glyph unicode="&#xe9;" d="M102 166v719q0 33 17.5 63.5t46.5 53t68.5 36t87.5 13.5q45 0 84.5 -13.5t68.5 -36t46.5 -53t17.5 -63.5v-324h-392v-395q0 -55 50.5 -94t124.5 -39q72 0 123 39t51 94v108h43v-108q0 -72 -62.5 -119t-154.5 -47t-156 47t-64 119zM147 592h349v293q0 53 -51.5 93 t-122.5 40q-74 0 -124.5 -40t-50.5 -93v-293zM215 1112l158 141h55l-162 -141h-51z" />
<glyph unicode="&#xea;" d="M102 166v719q0 33 17.5 63.5t46.5 53t68.5 36t87.5 13.5q45 0 84.5 -13.5t68.5 -36t46.5 -53t17.5 -63.5v-324h-392v-395q0 -55 50.5 -94t124.5 -39q72 0 123 39t51 94v108h43v-108q0 -72 -62.5 -119t-154.5 -47t-156 47t-64 119zM147 592h349v293q0 53 -51.5 93 t-122.5 40q-74 0 -124.5 -40t-50.5 -93v-293zM147 1120l160 131h31l160 -131h-56l-120 99l-119 -99h-56z" />
<glyph unicode="&#xeb;" d="M102 166v719q0 33 17.5 63.5t46.5 53t68.5 36t87.5 13.5q45 0 84.5 -13.5t68.5 -36t46.5 -53t17.5 -63.5v-324h-392v-395q0 -55 50.5 -94t124.5 -39q72 0 123 39t51 94v108h43v-108q0 -72 -62.5 -119t-154.5 -47t-156 47t-64 119zM147 592h349v293q0 53 -51.5 93 t-122.5 40q-74 0 -124.5 -40t-50.5 -93v-293zM238 1145v90h41v-90h-41zM362 1145v90h41v-90h-41z" />
<glyph unicode="&#xec;" horiz-adv-x="243" d="M14 1253h56l157 -141h-51zM100 0v1051h43v-1051h-43z" />
<glyph unicode="&#xed;" horiz-adv-x="243" d="M16 1112l158 141h55l-163 -141h-50zM100 0v1051h43v-1051h-43z" />
<glyph unicode="&#xee;" horiz-adv-x="243" d="M-55 1120l159 131h33l158 -131h-55l-119 99l-119 -99h-57zM100 0v1051h43v-1051h-43z" />
<glyph unicode="&#xef;" horiz-adv-x="243" d="M39 1145v90h41v-90h-41zM100 0v1051h41v-1051h-41zM160 1145v90h45v-90h-45z" />
<glyph unicode="&#xf0;" d="M102 166v643q0 72 63.5 119t156.5 47q72 0 120 -27q-23 53 -48 105.5t-52 105.5h-223v33h211q-27 53 -55.5 111.5t-51.5 109.5h45l109 -221h145v-33h-133q35 -72 70 -146.5t69 -146.5q6 -12 8.5 -26.5t2.5 -30.5v-643q0 -72 -62.5 -119t-154.5 -47t-156 47t-64 119z M147 166q0 -55 50.5 -94t124.5 -39q72 0 123 39t51 94v643q0 55 -51.5 94t-122.5 39q-74 0 -124.5 -39t-50.5 -94v-643z" />
<glyph unicode="&#xf1;" horiz-adv-x="677" d="M94 1180q63 47 142 47q61 0 114 -31q20 -10 45 -16t45 -6q59 0 107 38l24 -14v-14q-55 -45 -135 -45q-63 0 -112 30q-43 25 -88 25q-53 0 -107 -41zM119 0v1051h45v-66q31 29 77 47.5t99 18.5q45 0 85 -13.5t69.5 -36t47 -53t17.5 -63.5v-885h-45v885q0 27 -14.5 51.5 t-38 42.5t-55 28.5t-66.5 10.5q-76 0 -126 -40t-50 -93v-885h-45z" />
<glyph unicode="&#xf2;" d="M102 166v719q0 33 17.5 63.5t46.5 53t68.5 36t87.5 13.5q45 0 84.5 -13.5t68.5 -36t46.5 -53t17.5 -63.5v-719q0 -72 -62.5 -119t-154.5 -47t-156 47t-64 119zM147 166q0 -55 50.5 -94t124.5 -39q72 0 123 39t51 94v719q0 53 -51.5 93t-122.5 40q-74 0 -124.5 -40 t-50.5 -93v-719zM213 1253h55l158 -141h-49z" />
<glyph unicode="&#xf3;" d="M102 166v719q0 33 17.5 63.5t46.5 53t68.5 36t87.5 13.5q45 0 84.5 -13.5t68.5 -36t46.5 -53t17.5 -63.5v-719q0 -72 -62.5 -119t-154.5 -47t-156 47t-64 119zM147 166q0 -55 50.5 -94t124.5 -39q72 0 123 39t51 94v719q0 53 -51.5 93t-122.5 40q-74 0 -124.5 -40 t-50.5 -93v-719zM215 1112l158 141h55l-162 -141h-51z" />
<glyph unicode="&#xf4;" d="M102 166v719q0 33 17.5 63.5t46.5 53t68.5 36t87.5 13.5q45 0 84.5 -13.5t68.5 -36t46.5 -53t17.5 -63.5v-719q0 -72 -62.5 -119t-154.5 -47t-156 47t-64 119zM147 166q0 -55 50.5 -94t124.5 -39q72 0 123 39t51 94v719q0 53 -51.5 93t-122.5 40q-74 0 -124.5 -40 t-50.5 -93v-719zM147 1120l160 131h31l160 -131h-56l-120 99l-119 -99h-56z" />
<glyph unicode="&#xf5;" horiz-adv-x="677" d="M94 1180q63 47 142 47q61 0 114 -31q20 -10 45 -16t45 -6q59 0 107 38l24 -14v-14q-55 -45 -135 -45q-63 0 -112 30q-43 25 -88 25q-53 0 -107 -41zM119 166v719q0 33 17.5 63.5t48 53t70.5 36t85 13.5t85 -13.5t69.5 -36t47 -53t17.5 -63.5v-719q0 -35 -17.5 -65.5 t-47 -53t-69.5 -35t-85 -12.5t-85 12.5t-70.5 35t-48 53t-17.5 65.5zM164 166q0 -55 50 -94t126 -39q72 0 123 39t51 94v719q0 27 -14.5 51.5t-38 42.5t-55 28.5t-66.5 10.5q-76 0 -126 -40t-50 -93v-719z" />
<glyph unicode="&#xf6;" d="M102 166v719q0 33 17.5 63.5t46.5 53t68.5 36t87.5 13.5q45 0 84.5 -13.5t68.5 -36t46.5 -53t17.5 -63.5v-719q0 -72 -62.5 -119t-154.5 -47t-156 47t-64 119zM147 166q0 -55 50.5 -94t124.5 -39q72 0 123 39t51 94v719q0 53 -51.5 93t-122.5 40q-74 0 -124.5 -40 t-50.5 -93v-719zM238 1145v90h41v-90h-41zM362 1145v90h41v-90h-41z" />
<glyph unicode="&#xf7;" horiz-adv-x="618" d="M102 477v31h414v-31h-414zM283 186v119h43v-119h-43zM283 686v119h43v-119h-43z" />
<glyph unicode="&#xf8;" d="M100 -33l37 105q-35 37 -35 94v719q0 33 17.5 63.5t46.5 53t68.5 36t87.5 13.5q43 0 81.5 -12.5t67.5 -30.5q6 20 13.5 42.5t13.5 39.5h41l-41 -111q23 -23 32 -44.5t9 -49.5v-719q0 -72 -62.5 -119t-154.5 -47q-45 0 -82 12.5t-66 30.5q-6 -18 -14 -38.5t-13 -37.5h-47z M147 166q0 -29 9 -47q74 215 149.5 426t151.5 426q-25 20 -61 33.5t-74 13.5q-74 0 -124.5 -40t-50.5 -93v-719zM184 78q27 -20 62 -32.5t76 -12.5q70 0 122 39t52 94v719q0 16 -1.5 26.5t-11.5 22.5q-72 -215 -148.5 -429t-150.5 -427z" />
<glyph unicode="&#xf9;" d="M102 166v885h45v-885q0 -55 50.5 -94t124.5 -39q72 0 123 39t51 94v885h43v-885q0 -72 -62.5 -119t-154.5 -47t-156 47t-64 119zM213 1253h55l158 -141h-49z" />
<glyph unicode="&#xfa;" d="M102 166v885h45v-885q0 -55 50.5 -94t124.5 -39q72 0 123 39t51 94v885h43v-885q0 -72 -62.5 -119t-154.5 -47t-156 47t-64 119zM215 1112l158 141h55l-162 -141h-51z" />
<glyph unicode="&#xfb;" d="M102 166v885h45v-885q0 -55 50.5 -94t124.5 -39q72 0 123 39t51 94v885h43v-885q0 -72 -62.5 -119t-154.5 -47t-156 47t-64 119zM147 1120l160 131h31l160 -131h-56l-120 99l-119 -99h-56z" />
<glyph unicode="&#xfc;" d="M102 166v885h45v-885q0 -55 50.5 -94t124.5 -39q72 0 123 39t51 94v885h43v-885q0 -72 -62.5 -119t-154.5 -47t-156 47t-64 119zM238 1145v90h41v-90h-41zM362 1145v90h41v-90h-41z" />
<glyph unicode="&#xfd;" d="M102 166v885h45v-885q0 -55 50.5 -94t124.5 -39q72 0 123 39t51 94v885h43v-1250q0 -35 -17.5 -64.5t-46.5 -51t-68.5 -34.5t-84.5 -13q-47 0 -87 14t-69 37.5t-46.5 55.5t-17.5 67h45q0 -59 50.5 -101.5t124.5 -42.5q72 0 123 40t51 93v265q-33 -29 -78 -47.5t-96 -18.5 q-92 0 -156 47t-64 119zM229 1112l166 141h56l-166 -141h-56z" />
<glyph unicode="&#xfe;" d="M102 -362v1759h45v-414q31 29 76 48.5t99 19.5q45 0 84.5 -13.5t68.5 -36t46.5 -53t17.5 -63.5v-719q0 -72 -62.5 -119t-154.5 -47q-53 0 -98.5 18.5t-76.5 47.5v-428h-45zM147 166q0 -55 50.5 -94t124.5 -39q72 0 123 39t51 94v719q0 53 -51.5 93t-122.5 40 q-74 0 -124.5 -40t-50.5 -93v-719z" />
<glyph unicode="&#xff;" d="M102 166v885h45v-885q0 -55 50.5 -94t124.5 -39q72 0 123 39t51 94v885h43v-1250q0 -35 -17.5 -64.5t-46.5 -51t-68.5 -34.5t-84.5 -13q-47 0 -87 14t-69 37.5t-46.5 55.5t-17.5 67h45q0 -59 50.5 -101.5t124.5 -42.5q72 0 123 40t51 93v265q-33 -29 -78 -47.5t-96 -18.5 q-92 0 -156 47t-64 119zM258 1145v90h43v-90h-43zM381 1145v90h43v-90h-43z" />
<glyph unicode="&#x152;" horiz-adv-x="1003" d="M104 166v1081q0 35 17.5 64.5t47.5 52t70 36t85 13.5h575v-33h-375v-643h320v-30h-320v-674h375v-33h-575q-92 0 -156 47t-64 119zM150 166q0 -55 51 -94t123 -39h159v1347h-159q-72 0 -123 -38.5t-51 -94.5v-1081z" />
<glyph unicode="&#x153;" horiz-adv-x="1042" d="M104 166v719q0 33 17.5 63.5t47.5 53t70 36t85 13.5q66 0 117 -28t79 -69q27 43 80 70t119 27q45 0 85 -13.5t69.5 -36t47 -53t17.5 -63.5v-324h-395v-395q0 -55 50 -94t126 -39q72 0 123 39t51 94v108h45v-108q0 -35 -17.5 -65.5t-47 -53t-69.5 -35t-85 -12.5 q-66 0 -119 25.5t-80 66.5q-29 -41 -80 -66.5t-116 -25.5q-92 0 -156 47t-64 119zM150 166q0 -55 51 -94t123 -39t123 39t51 94v719q0 53 -51.5 93t-122.5 40q-35 0 -67 -10.5t-55.5 -28.5t-37.5 -43t-14 -51v-719zM543 592h350v293q0 27 -14.5 51.5t-38 42.5t-55 28.5 t-66.5 10.5q-76 0 -126 -40t-50 -93v-293z" />
<glyph unicode="&#x178;" horiz-adv-x="514" d="M39 1413h41l178 -665q45 166 87 332.5t89 332.5h41l-196 -751v-662h-43v662q-47 182 -98.5 376.5t-98.5 374.5zM174 1483v92h41v-92h-41zM295 1483v92h45v-92h-45z" />
<glyph unicode="&#x2c6;" horiz-adv-x="522" d="M86 1270l160 133h30l160 -133h-55l-121 98l-119 -98h-55z" />
<glyph unicode="&#x2dc;" horiz-adv-x="677" d="M94 1362q63 47 142 47q63 0 118 -31q39 -20 86 -20q27 0 54.5 8t52.5 29l24 -15v-14q-55 -43 -131 -43q-29 0 -59.5 7t-56.5 24q-39 23 -88 22q-51 0 -107 -39z" />
<glyph unicode="&#x2000;" horiz-adv-x="819" />
<glyph unicode="&#x2001;" horiz-adv-x="1638" />
<glyph unicode="&#x2002;" horiz-adv-x="819" />
<glyph unicode="&#x2003;" horiz-adv-x="1638" />
<glyph unicode="&#x2004;" horiz-adv-x="546" />
<glyph unicode="&#x2005;" horiz-adv-x="409" />
<glyph unicode="&#x2006;" horiz-adv-x="273" />
<glyph unicode="&#x2007;" horiz-adv-x="273" />
<glyph unicode="&#x2008;" horiz-adv-x="204" />
<glyph unicode="&#x2009;" horiz-adv-x="327" />
<glyph unicode="&#x200a;" horiz-adv-x="91" />
<glyph unicode="&#x2010;" horiz-adv-x="618" d="M102 477v31h414v-31h-414z" />
<glyph unicode="&#x2011;" horiz-adv-x="618" d="M102 477v31h414v-31h-414z" />
<glyph unicode="&#x2012;" horiz-adv-x="618" d="M102 477v31h414v-31h-414z" />
<glyph unicode="&#x2013;" horiz-adv-x="727" d="M102 477v31h523v-31h-523z" />
<glyph unicode="&#x2014;" horiz-adv-x="886" d="M104 477v31h676v-31h-676z" />
<glyph unicode="&#x2018;" horiz-adv-x="303" d="M100 1227v114l64 117h49l-70 -123v-106z" />
<glyph unicode="&#x2019;" horiz-adv-x="303" d="M94 1229l66 125v104h45v-112l-64 -117h-47z" />
<glyph unicode="&#x201a;" horiz-adv-x="303" d="M92 -111l68 125v105h45v-113l-64 -117h-49z" />
<glyph unicode="&#x201c;" horiz-adv-x="456" d="M102 1227v114l62 117h49l-70 -123v-108h-41zM252 1227v114l63 117h47l-67 -123v-106z" />
<glyph unicode="&#x201d;" horiz-adv-x="456" d="M96 1229l68 125v104h41v-112l-64 -117h-45zM246 1229l67 125v104h41v-112l-61 -117h-47z" />
<glyph unicode="&#x201e;" horiz-adv-x="450" d="M94 -111l66 125v105h45v-113l-64 -117h-47zM238 -111l69 125v105h41v-113l-61 -117h-49z" />
<glyph unicode="&#x2022;" horiz-adv-x="286" d="M100 702v119h88v-119h-88z" />
<glyph unicode="&#x2026;" horiz-adv-x="559" d="M102 0v119h45v-119h-45zM260 0v119h43v-119h-43zM412 0v119h45v-119h-45z" />
<glyph unicode="&#x202f;" horiz-adv-x="327" />
<glyph unicode="&#x2039;" horiz-adv-x="419" d="M102 434l166 248l56 -2l-174 -246q41 -57 89 -121.5t87 -122.5h-50z" />
<glyph unicode="&#x203a;" horiz-adv-x="419" d="M94 190l176 244q-41 59 -87 123t-87 123l51 2l170 -248l-174 -244h-49z" />
<glyph unicode="&#x205f;" horiz-adv-x="409" />
<glyph unicode="&#x20ac;" d="M102 166v1081q0 70 63.5 118t156.5 48q45 0 84.5 -13.5t68.5 -36t46.5 -52t17.5 -64.5v-108h-43v108q0 55 -51.5 94t-122.5 39q-74 0 -124.5 -38.5t-50.5 -94.5v-375h334v-32h-334v-213h285v-31h-285v-430q0 -55 50.5 -94t124.5 -39q72 0 123 39t51 94v108h43v-108 q0 -72 -62.5 -119t-154.5 -47t-156 47t-64 119z" />
<glyph unicode="&#x2122;" horiz-adv-x="1067" d="M104 1380v33h379v-33h-166v-622h-43v622h-170zM481 760v569h41l199 -504q53 127 101 253t102 251h39v-569h-41v454q-47 -113 -91.5 -227.5t-89.5 -224.5h-39l-178 446v-448h-43z" />
<glyph unicode="&#xe000;" horiz-adv-x="1054" d="M0 0v1055h1055v-1055h-1055z" />
</font>
</defs>
</svg>
