<?xml version="1.0" standalone="no"?>
<!DOCTYPE svg PUBLIC "-//W3C//DTD SVG 1.1//EN" "http://www.w3.org/Graphics/SVG/1.1/DTD/svg11.dtd" >
<svg xmlns="http://www.w3.org/2000/svg">
<metadata></metadata>
<defs>
<font id="bankgothic_dbregular" horiz-adv-x="1632" >
<font-face units-per-em="2048" ascent="1638" descent="-410" />
<missing-glyph horiz-adv-x="323" />
<glyph horiz-adv-x="2048" />
<glyph horiz-adv-x="2048" />
<glyph unicode="&#xd;" horiz-adv-x="323" />
<glyph unicode=" "  horiz-adv-x="323" />
<glyph unicode="&#x09;" horiz-adv-x="323" />
<glyph unicode="&#xa0;" horiz-adv-x="323" />
<glyph unicode="!" horiz-adv-x="438" d="M86 0v274h276v-274h-276zM92 1434h242l-37 -1010h-143z" />
<glyph unicode="&#x22;" horiz-adv-x="571" d="M88 1327q0 51 16.5 82t63.5 31q43 0 61 -33q8 -16 12.5 -34.5t4.5 -47.5q0 -96 -21 -231l-35 -254h-40l-41 340zM309 1327q0 51 15.5 82t60.5 31q43 0 61.5 -33t18.5 -84t-4 -99t-17 -130l-34 -254h-41l-41 340z" />
<glyph unicode="#" horiz-adv-x="1525" d="M82 373l45 125h295l100 272h-299l45 123h297l154 428h158l-154 -428h264l150 428h159l-153 -428h301l-43 -123h-299l-101 -272h299l-43 -125h-299l-155 -434h-160l158 434h-264l-154 -434h-160l158 434h-299zM582 498h260l98 272h-260z" />
<glyph unicode="$" horiz-adv-x="1488" d="M70 225l2 121l190 33v-207h430v490l-274 -3q-231 0 -273 39q-39 43 -39 273q0 289 7 332q18 137 241 137l183 -2q27 0 81 -2t80 -2v92h162v-92l223 2q180 0 217 -19q68 -35 68 -194l-2 -95l-190 -30v164h-314v-428l230 2q221 0 264 -56q29 -39 28 -276v-121l2 -107 q0 -211 -77 -249q-59 -27 -449 -27v-229h-168v229l-299 -4h-98q-129 0 -170 33q-55 43 -55 196zM299 834h393v428h-393v-428zM862 172h328v490h-328v-490z" />
<glyph unicode="%" horiz-adv-x="1521" d="M109 1026v129q0 154 31.5 185.5t183.5 31.5h131q170 0 200.5 -29.5t30.5 -203.5v-129q0 -154 -31.5 -185.5t-183.5 -31.5h-131q-172 0 -201.5 31.5t-29.5 201.5zM244 928h307v307h-307v-307zM293 0l833 1370l119 -2l-829 -1368h-123zM848 229v131q0 147 31.5 181 t179.5 34h135q174 0 202.5 -28.5t28.5 -202.5v-131q0 -152 -31.5 -183.5t-181.5 -31.5h-135q-172 0 -200.5 30.5t-28.5 200.5zM981 133h311v307h-311v-307z" />
<glyph unicode="&#x26;" horiz-adv-x="1785" d="M100 322l2 155q0 98 105 172l112 70l203 131q-100 100 -119 147q-8 23 -12 71t-4 134q0 131 49 181.5t180 50.5l261 2q176 0 208 -9q117 -25 117 -251v-144l-190 -39v269h-414v-197l569 -559l303 272l142 -141l-307 -268l378 -369h-294l-234 225l-88 -78l-135 -120 q-47 -27 -182 -27l-289 -4q-233 0 -293 43q-68 53 -68 283zM295 172l426 -2q90 0 192 98l95 101l-355 348l-358 -228v-317z" />
<glyph unicode="'" horiz-adv-x="483" d="M106 834l101 309h-94v291h278v-207l-174 -393h-111z" />
<glyph unicode="(" horiz-adv-x="397" d="M109 -8v1433q0 70 22.5 98.5t89.5 28.5l88 -2v-157h-90v-1368h90v-160h-67q-88 0 -111 22q-23 18 -22 105z" />
<glyph unicode=")" horiz-adv-x="397" d="M94 25h92v1368h-92v157l68 2q84 0 109.5 -21.5t25.5 -105.5v-1433q0 -68 -18 -96q-27 -33 -93 -33l-92 2v160z" />
<glyph unicode="*" horiz-adv-x="688" d="M92 1126v60h187l-144 135l47 41l129 -129v174h68v-174l137 108l35 -49l-137 -106h172v-62h-172l127 -137l-43 -43l-121 131v-186h-66v186l-147 -112l-37 49l152 114h-187z" />
<glyph unicode="+" horiz-adv-x="1286" d="M111 485v150h446v479h172v-479h465v-150h-465v-485h-172v485h-446z" />
<glyph unicode="," horiz-adv-x="483" d="M100 -4v274h279v-190l-166 -324h-111l93 240h-95z" />
<glyph unicode="-" horiz-adv-x="802" d="M92 655v158h610v-158h-610z" />
<glyph unicode="." horiz-adv-x="487" d="M102 0v281h279v-281h-279z" />
<glyph unicode="/" horiz-adv-x="1116" d="M92 0l801 1376h121l-803 -1376h-119z" />
<glyph unicode="0" horiz-adv-x="1558" d="M127 170v1092q0 102 43 137t145 35h938q109 0 151 -32t42 -140v-1092q0 -88 -50 -130t-143 -42h-940q-82 0 -134 44t-52 128zM315 172h938v1090h-938v-1090z" />
<glyph unicode="1" horiz-adv-x="1601" d="M453 1186v117l450 141v-1444h-192v1214z" />
<glyph unicode="2" horiz-adv-x="1601" d="M168 0v168l899 635l98 74q47 47 47 167l-2 218h-778v-322l-186 51v271q0 100 44 136t146 36h770q135 0 170 -54q25 -37 25 -186l2 -113l2 -86q0 -104 -36 -158.5t-175 -154.5l-719 -510h787v199l178 -49v-101q0 -123 -35 -166q-41 -55 -160 -55h-1077z" />
<glyph unicode="3" horiz-adv-x="1601" d="M172 233l2 140l191 45v-246h743q80 0 100.5 20.5t20.5 102.5l2 162l-2 82q0 55 -26.5 74.5t-82.5 19.5h-51h-45h-41h-35h-30h-27h-25h-73l-70 2h-21v190h367q80 0 111 39q23 29 22 99l-2 49l-2 57l-2 80q0 61 -23.5 86t-89.5 25l-120 2h-43h-37q-27 4 -39 4l-447 -4v-263 l-190 48v215q0 102 43 137t147 35h731q137 0 201 -84q51 -74 51 -215v-58l2 -57q0 -109 -22 -160q-31 -74 -121 -98q117 -12 160 -107q31 -66 31 -196l-3 -53v-54q0 -190 -59 -264q-70 -88 -254 -88h-749q-129 0 -166 55q-27 43 -27 178z" />
<glyph unicode="4" horiz-adv-x="1601" d="M98 307v160l942 967h134v-955h329v-172h-329v-307h-173v307h-903zM305 479h696v717z" />
<glyph unicode="5" horiz-adv-x="1601" d="M154 258q109 -37 326.5 -57.5t400.5 -20.5q156 0 252 56q117 68 116 217q0 152 -162 215q-119 45 -294 45l-222 -6l-370 -19l67 746h981l-37 -172h-802l-37 -398q23 0 74 2t79 2l260 11q369 0 519 -125q123 -104 122 -303q0 -244 -206 -349q-158 -76 -428 -75 q-293 0 -586 49z" />
<glyph unicode="6" horiz-adv-x="1601" d="M158 555l2 119q0 362 280 569q254 186 637 187l68 -3l106 -174l-143 11q-274 0 -483 -111q-254 -137 -254 -383q94 29 246.5 45t271.5 16q287 0 399 -71q156 -94 156 -359q0 -260 -150 -348q-104 -61 -389 -61h-160q-164 0 -272 20q-172 31 -242 113q-47 55 -65 205z M348 479l6 -131q6 -57 27 -92q49 -74 211 -98q80 -12 246 -13q129 0 209 13q141 20 180 82q16 20 22 57l6 80q0 188 -116 254q-78 41 -295 41q-121 0 -244 -14.5t-244 -45.5z" />
<glyph unicode="7" horiz-adv-x="1601" d="M135 971v463h1319v-209l-694 -1227h-211l702 1264h-932v-328z" />
<glyph unicode="8" horiz-adv-x="1601" d="M135 358v64q0 106 28 175t124 120q-68 31 -99.5 87t-31.5 214l-2 61v62q0 150 39 209q55 84 221 84h776q164 0 219 -80q37 -59 37 -240v-65l2 -62q0 -102 -21 -156q-27 -72 -114 -114q104 -59 135 -144q18 -53 18 -202l-2 -129q0 -96 -74.5 -169t-170.5 -73h-826 q-158 0 -213 70q-43 55 -43 225zM328 299q0 -70 16 -92q25 -37 96 -37h721q70 0 99 43q20 35 20 104l-2 62v22q0 14 -4 39v37l2 37q0 53 -21.5 80t-91.5 27h-725q-66 0 -87 -21.5t-21 -87.5l-2 -160v-53zM346 905q0 -55 21.5 -80.5t93.5 -25.5h682q68 0 89 21.5t21 88.5 l2 185v36l2 37q0 47 -18 70q-24 25 -96 25h-682q-72 0 -92.5 -17.5t-20.5 -91.5v-172l-2 -39v-37z" />
<glyph unicode="9" horiz-adv-x="1601" d="M147 1026q0 260 146 344q111 63 385 64h139q176 0 287 -19q180 -31 252 -115q49 -61 67 -206l9 -226l-2 -118q0 -362 -281 -570q-252 -184 -637 -184l-70 2l-106 172l139 -10q274 0 486 112q256 135 256 383q-86 -29 -248 -47q-49 0 -148.5 -7t-128.5 -7q-279 0 -395 74 q-150 96 -150 358zM332 1055q0 -197 114 -260q80 -43 299 -43q121 0 244 14t244 45l4 53v47q0 225 -55 291q-61 74 -289 74h-76l-84 2q-190 0 -265 -21.5t-108 -70.5q-18 -25 -24 -56z" />
<glyph unicode=":" horiz-adv-x="487" d="M102 0v281h279v-281h-279zM102 879v280h279v-280h-279z" />
<glyph unicode=";" horiz-adv-x="483" d="M102 -4v274h279v-190l-166 -324h-111l91 240h-93zM102 879v280h279v-280h-279z" />
<glyph unicode="&#x3c;" horiz-adv-x="1077" d="M92 514v217l897 334v-201l-684 -241l684 -240v-201z" />
<glyph unicode="=" horiz-adv-x="1679" d="M98 266v156h1485v-156h-1485zM98 729v158h1485v-158h-1485z" />
<glyph unicode="&#x3e;" horiz-adv-x="1077" d="M92 182v201l684 240l-684 241v201l895 -334v-217z" />
<glyph unicode="?" horiz-adv-x="1204" d="M96 1206q0 121 44 163t171 42l396 4h57l59 2q143 0 203 -37q82 -53 82 -206v-154q0 -55 -12.5 -80t-65.5 -61l-360 -240v-223h-185v309l441 301v217h-650v-207l-178 39zM438 0v281h281v-281h-281z" />
<glyph unicode="@" horiz-adv-x="1824" d="M74 508q0 381 282 620q268 227 658 228q313 0 514 -154q217 -170 217 -479q0 -219 -113 -393q-131 -199 -340 -199q-92 0 -151 41q-55 43 -68 135q-51 -82 -125 -131t-168 -49q-139 0 -220 90.5t-81 231.5q0 195 129 358q139 176 332 176q160 0 225 -147l35 114h232 l-97 -317q-68 -231 -67 -305q0 -74 69 -74q143 0 234 166q72 137 71 299q0 258 -196 405q-178 135 -445 136q-326 0 -538.5 -225.5t-212.5 -553.5q0 -307 201 -493q98 -90 222 -135.5t283 -45.5q160 0 304.5 46.5t285.5 136.5l49 -80q-160 -98 -337 -153.5t-359 -55.5 q-358 0 -591.5 225.5t-233.5 581.5zM723 362q0 -41 33.5 -78.5t74.5 -37.5q115 0 203 188q74 158 74 293q0 133 -125 133q-98 0 -188 -203q-72 -172 -72 -295z" />
<glyph unicode="A" d="M8 0l733 1434h136l731 -1434h-211l-191 365h-798l-191 -365h-209zM496 539h624l-313 622z" />
<glyph unicode="B" horiz-adv-x="1492" d="M102 0v1434h1006q170 0 238 -88q51 -74 51 -254l2 -62l2 -63q0 -92 -25 -146q-31 -68 -123 -92q96 -25 127 -117q14 -53 15 -184q0 -229 -31 -301q-55 -127 -258 -127h-1004zM295 172h747q104 0 140 41q28 32 28 110v5l-2 75l-2 52v51q0 88 -20 115q-29 32 -133 32h-758 v-481zM295 823h770q86 0 121 37q24 28 24 97v6l-2 47l-2 67q0 125 -14 148q-24 37 -139 37h-758v-439z" />
<glyph unicode="C" horiz-adv-x="1505" d="M102 170v1092q0 100 44 136t149 36h915q139 0 176 -64q21 -41 21 -199l-2 -198l-193 -39v328h-917v-1090h919v332l193 -53v-279q0 -90 -49 -133q-51 -39 -144 -39h-919q-102 0 -147.5 34t-45.5 136z" />
<glyph unicode="D" horiz-adv-x="1593" d="M102 0v1434l473 4q324 0 490 -37q229 -49 346 -197q129 -164 129 -477q0 -395 -194 -565q-184 -162 -578 -162h-666zM295 172h457q315 0 444 109q145 123 145 430q0 348 -196 469q-143 84 -524 84l-326 -2v-1090z" />
<glyph unicode="E" horiz-adv-x="1386" d="M102 0v1434h1207v-172h-1014v-439h598v-170h-598v-481h1022v-172h-1215z" />
<glyph unicode="F" horiz-adv-x="1361" d="M102 0v1434h1207v-172h-1014v-439h598v-170h-598v-657z" />
<glyph unicode="G" horiz-adv-x="1599" d="M102 172v1090q0 100 44 136t149 36h1014q129 0 166 -50q26 -40 26 -170v-10l-2 -133l-190 -31v222h-1014v-1090h1014v426h-467v190h657v-616q0 -90 -49 -133q-49 -39 -141 -39h-1014q-102 0 -147.5 34t-45.5 138z" />
<glyph unicode="H" horiz-adv-x="1609" d="M102 0v1434h193v-617h1024v617h192v-1434h-192v635h-1024v-635h-193z" />
<glyph unicode="I" horiz-adv-x="395" d="M102 0v1434h193v-1434h-193z" />
<glyph unicode="J" horiz-adv-x="1234" d="M63 307l3 285l192 33v-453h684v1262h193v-1262q0 -88 -50.5 -130t-142.5 -42l-471 -4l-123 2l-123 2q-160 0 -159 158z" />
<glyph unicode="K" horiz-adv-x="1513" d="M102 0v1434h193v-656l815 656h272l-860 -705l967 -729h-332l-862 651v-651h-193z" />
<glyph unicode="L" horiz-adv-x="1282" d="M102 0v1434h193v-1262h954v-172h-1147z" />
<glyph unicode="M" horiz-adv-x="1781" d="M102 0v1434h177l612 -957l616 957h176v-1436h-192v1071l-602 -926l-594 926v-1069h-193z" />
<glyph unicode="N" horiz-adv-x="1628" d="M102 0v1434h156l1079 -1145v1145h193v-1434h-184l-1051 1112v-1112h-193z" />
<glyph unicode="O" horiz-adv-x="1626" d="M102 172v1090q0 100 44 136t149 36h1034q106 0 148 -35q43 -31 43 -137v-1090q0 -90 -52 -133q-51 -39 -141 -39h-1032q-106 0 -149.5 35t-43.5 137zM295 172h1034v1090h-1034v-1090z" />
<glyph unicode="P" horiz-adv-x="1499" d="M102 0v1434h1006q184 0 246 -99q47 -76 47 -270v-61l2 -58q0 -229 -78 -301q-70 -63 -217 -63h-813v-582h-193zM295 754h749q100 0 140 41q28 32 28 107v5l-2 62l-2 69q0 141 -20 176q-31 48 -164 48h-729v-508z" />
<glyph unicode="Q" horiz-adv-x="1626" d="M102 170v1092q0 100 44 136t149 36h1032q109 0 151 -31.5t42 -140.5v-1090q0 -104 -74 -147q-55 -31 -168 -31l-82 2h-29h-22q-18 4 -27 4l133 -307h-196l-133 307l-430 -4l-117 2l-115 2q-86 0 -122 40t-36 130zM295 172h547l-133 295l168 61l163 -356h289v1090h-1034 v-1090z" />
<glyph unicode="R" horiz-adv-x="1499" d="M102 0v1434h1006q184 0 246 -99q47 -76 47 -270l-2 -229q0 -119 -70 -183q-83 -73 -299 -73h-6h-78l-74 2l576 -582h-264l-576 582h-313v-582h-193zM295 754h749q98 0 140 43q28 32 28 109v5l-2 60l-2 67q0 141 -20 176q-31 48 -164 48h-729v-508z" />
<glyph unicode="S" horiz-adv-x="1480" d="M70 225l2 121l190 33v-207h928v490h-891q-123 0 -164 53q-31 41 -31 145v53l2 58l3 291q0 100 44 136t146 36h877q123 0 157.5 -41t34.5 -170l-2 -95l-190 -30v164h-877v-428h891q119 0 164 -54q32 -42 32 -137v-6l-2 -66v-67l-4 -332q0 -90 -49 -133q-49 -39 -141 -39 h-930q-127 0 -158.5 46t-31.5 179z" />
<glyph unicode="T" horiz-adv-x="1417" d="M35 1262v172h1354v-172h-582v-1264h-191v1264h-581z" />
<glyph unicode="U" horiz-adv-x="1509" d="M102 172v1262h193v-1262h924v1262h194v-1262q0 -90 -49 -133q-51 -39 -143 -39h-928q-102 0 -146.5 35t-44.5 137z" />
<glyph unicode="V" horiz-adv-x="1609" d="M20 1434h203l582 -1174l579 1174h203l-717 -1434h-149z" />
<glyph unicode="W" horiz-adv-x="1998" d="M12 1434h203l358 -1074l361 1074h123l356 -1074l359 1074h200l-475 -1434h-164l-346 1047l-332 -1047h-163z" />
<glyph unicode="X" horiz-adv-x="1472" d="M20 0l580 721l-543 713h236l444 -572l445 572h231l-541 -713l558 -721h-236l-469 590l-467 -590h-238z" />
<glyph unicode="Y" horiz-adv-x="1576" d="M20 1434h240l524 -641l527 641h239l-669 -809v-625h-193v625z" />
<glyph unicode="Z" horiz-adv-x="1474" d="M94 0v90l950 1172h-866v172h1200v-82l-956 -1180h954v-172h-1282z" />
<glyph unicode="[" horiz-adv-x="606" d="M102 -266v1700h443v-56h-242v-1581h242v-63h-443z" />
<glyph unicode="\" horiz-adv-x="1116" d="M94 1434h121l803 -1434h-117z" />
<glyph unicode="]" horiz-adv-x="606" d="M63 -203h240v1581h-240v56h443v-1700h-443v63z" />
<glyph unicode="^" horiz-adv-x="761" d="M94 1540l180 270h213l177 -270h-150l-135 154l-133 -154h-152z" />
<glyph unicode="_" horiz-adv-x="1032" d="M92 -160h1100v-73h-1100v73z" />
<glyph unicode="`" horiz-adv-x="600" d="M90 1829h234l186 -287h-129z" />
<glyph unicode="a" d="M8 0l733 1434h136l731 -1434h-211l-191 365h-798l-191 -365h-209zM496 539h624l-313 622z" />
<glyph unicode="b" horiz-adv-x="1492" d="M102 0v1434h1006q170 0 238 -88q51 -74 51 -254l2 -62l2 -63q0 -92 -25 -146q-31 -68 -123 -92q96 -25 127 -117q14 -53 15 -184q0 -229 -31 -301q-55 -127 -258 -127h-1004zM295 172h747q104 0 140 41q28 32 28 110v5l-2 75l-2 52v51q0 88 -20 115q-29 32 -133 32h-758 v-481zM295 823h770q86 0 121 37q24 28 24 97v6l-2 47l-2 67q0 125 -14 148q-24 37 -139 37h-758v-439z" />
<glyph unicode="c" horiz-adv-x="1505" d="M102 170v1092q0 100 44 136t149 36h915q139 0 176 -64q21 -41 21 -199l-2 -198l-193 -39v328h-917v-1090h919v332l193 -53v-279q0 -90 -49 -133q-51 -39 -144 -39h-919q-102 0 -147.5 34t-45.5 136z" />
<glyph unicode="d" horiz-adv-x="1593" d="M102 0v1434l473 4q324 0 490 -37q229 -49 346 -197q129 -164 129 -477q0 -395 -194 -565q-184 -162 -578 -162h-666zM295 172h457q315 0 444 109q145 123 145 430q0 348 -196 469q-143 84 -524 84l-326 -2v-1090z" />
<glyph unicode="e" horiz-adv-x="1386" d="M102 0v1434h1207v-172h-1014v-439h598v-170h-598v-481h1022v-172h-1215z" />
<glyph unicode="f" horiz-adv-x="1361" d="M102 0v1434h1207v-172h-1014v-439h598v-170h-598v-657z" />
<glyph unicode="g" horiz-adv-x="1599" d="M102 172v1090q0 100 44 136t149 36h1014q129 0 166 -50q26 -40 26 -170v-10l-2 -133l-190 -31v222h-1014v-1090h1014v426h-467v190h657v-616q0 -90 -49 -133q-49 -39 -141 -39h-1014q-102 0 -147.5 34t-45.5 138z" />
<glyph unicode="h" horiz-adv-x="1609" d="M102 0v1434h193v-617h1024v617h192v-1434h-192v635h-1024v-635h-193z" />
<glyph unicode="i" horiz-adv-x="395" d="M102 0v1434h193v-1434h-193z" />
<glyph unicode="j" horiz-adv-x="1234" d="M63 307l3 285l192 33v-453h684v1262h193v-1262q0 -88 -50.5 -130t-142.5 -42l-471 -4l-123 2l-123 2q-160 0 -159 158z" />
<glyph unicode="k" horiz-adv-x="1513" d="M102 0v1434h193v-656l815 656h272l-860 -705l967 -729h-332l-862 651v-651h-193z" />
<glyph unicode="l" horiz-adv-x="1282" d="M102 0v1434h193v-1262h954v-172h-1147z" />
<glyph unicode="m" horiz-adv-x="1781" d="M102 0v1434h177l612 -957l616 957h176v-1436h-192v1071l-602 -926l-594 926v-1069h-193z" />
<glyph unicode="n" horiz-adv-x="1628" d="M102 0v1434h156l1079 -1145v1145h193v-1434h-184l-1051 1112v-1112h-193z" />
<glyph unicode="o" horiz-adv-x="1626" d="M102 172v1090q0 100 44 136t149 36h1034q106 0 148 -35q43 -31 43 -137v-1090q0 -90 -52 -133q-51 -39 -141 -39h-1032q-106 0 -149.5 35t-43.5 137zM295 172h1034v1090h-1034v-1090z" />
<glyph unicode="p" horiz-adv-x="1499" d="M102 0v1434h1006q184 0 246 -99q47 -76 47 -270v-61l2 -58q0 -229 -78 -301q-70 -63 -217 -63h-813v-582h-193zM295 754h749q100 0 140 41q28 32 28 107v5l-2 62l-2 69q0 141 -20 176q-31 48 -164 48h-729v-508z" />
<glyph unicode="q" horiz-adv-x="1626" d="M102 170v1092q0 100 44 136t149 36h1032q109 0 151 -31.5t42 -140.5v-1090q0 -104 -74 -147q-55 -31 -168 -31l-82 2h-29h-22q-18 4 -27 4l133 -307h-196l-133 307l-430 -4l-117 2l-115 2q-86 0 -122 40t-36 130zM295 172h547l-133 295l168 61l163 -356h289v1090h-1034 v-1090z" />
<glyph unicode="r" horiz-adv-x="1499" d="M102 0v1434h1006q184 0 246 -99q47 -76 47 -270l-2 -229q0 -119 -70 -183q-83 -73 -299 -73h-6h-78l-74 2l576 -582h-264l-576 582h-313v-582h-193zM295 754h749q98 0 140 43q28 32 28 109v5l-2 60l-2 67q0 141 -20 176q-31 48 -164 48h-729v-508z" />
<glyph unicode="s" horiz-adv-x="1480" d="M70 225l2 121l190 33v-207h928v490h-891q-123 0 -164 53q-31 41 -31 145v53l2 58l3 291q0 100 44 136t146 36h877q123 0 157.5 -41t34.5 -170l-2 -95l-190 -30v164h-877v-428h891q119 0 164 -54q32 -42 32 -137v-6l-2 -66v-67l-4 -332q0 -90 -49 -133q-49 -39 -141 -39 h-930q-127 0 -158.5 46t-31.5 179z" />
<glyph unicode="t" horiz-adv-x="1417" d="M35 1262v172h1354v-172h-582v-1264h-191v1264h-581z" />
<glyph unicode="u" horiz-adv-x="1509" d="M102 172v1262h193v-1262h924v1262h194v-1262q0 -90 -49 -133q-51 -39 -143 -39h-928q-102 0 -146.5 35t-44.5 137z" />
<glyph unicode="v" horiz-adv-x="1609" d="M20 1434h203l582 -1174l579 1174h203l-717 -1434h-149z" />
<glyph unicode="w" horiz-adv-x="1998" d="M12 1434h203l358 -1074l361 1074h123l356 -1074l359 1074h200l-475 -1434h-164l-346 1047l-332 -1047h-163z" />
<glyph unicode="x" horiz-adv-x="1472" d="M20 0l580 721l-543 713h236l444 -572l445 572h231l-541 -713l558 -721h-236l-469 590l-467 -590h-238z" />
<glyph unicode="y" horiz-adv-x="1576" d="M20 1434h240l524 -641l527 641h239l-669 -809v-625h-193v625z" />
<glyph unicode="z" horiz-adv-x="1474" d="M94 0v90l950 1172h-866v172h1200v-82l-956 -1180h954v-172h-1282z" />
<glyph unicode="{" horiz-adv-x="987" d="M86 444v95q172 18 244 79q82 72 82 242v135q0 240 111.5 335t363.5 95v-71q-215 -37 -271 -142q-16 -35 -24 -109.5t-8 -207.5q0 -215 -95 -297q-68 -59 -299 -102v-11q266 0 342 -145q20 -43 33 -145.5t13 -255.5q0 -315 299 -316v-76q-215 0 -330 70q-141 86 -141 289 v192q0 178 -69 253t-251 93z" />
<glyph unicode="|" horiz-adv-x="282" d="M94 -135v1700h94v-1700h-94z" />
<glyph unicode="}" horiz-adv-x="987" d="M104 1354v71q227 0 334 -65q139 -84 140 -295v-86l2 -84q0 -188 66 -259.5t259 -96.5v-95q-207 -18 -272 -114q-47 -70 -47 -246v-68l2 -69q0 -211 -133 -312q-119 -88 -342 -88v76q201 0 266 123q37 74 37 279q0 231 43 315q78 145 342 145v11q-268 49 -330.5 133 t-62.5 368q0 182 -59.5 252t-244.5 105z" />
<glyph unicode="~" horiz-adv-x="913" d="M92 1540q31 92 76 143q57 63 145 64q47 0 181 -51q10 -4 48 -15.5t58 -11.5q43 0 54.5 11.5t33.5 62.5h137q-27 -94 -63 -139q-51 -63 -133 -64q-45 0 -113 21q-154 45 -192 45q-70 0 -95 -66h-137z" />
<glyph horiz-adv-x="483" d="M106 1227v207h277v-291h-94l102 -309h-112z" />
<glyph horiz-adv-x="1576" d="M20 1434h240l524 -641l527 641h239l-669 -809v-625h-193v625zM567 1542l187 287h235l-291 -287h-131z" />
<glyph unicode="&#xa2;" horiz-adv-x="954" d="M104 571l5 469q0 98 47 136t145 38l123 -2v154h98v-154h105q188 0 217 -86q10 -41 10 -180v-207h-164v330h-168v-754h162v207h162v-49q0 -219 -45 -262q-45 -39 -279 -39v-172h-98v172l-94 -2q-121 0 -160 20q-61 31 -61 138l-3 104zM270 315h154v754h-154v-754z" />
<glyph unicode="&#xa3;" horiz-adv-x="1368" d="M102 0v168l217 174q43 37 60 51q25 23 65 64q55 55 56 129l-2 28h-381v134h278q-27 23 -186 131q-107 72 -107 301q0 135 39 188q47 66 178 66l404 4l225 -6q113 0 146 -66q18 -37 18 -176v-92l-176 -41v209h-653v-217l174 -146q100 -82 168 -153h309v-136h-258v-28 q0 -125 -103 -236q-35 -35 -206 -178h723v199l178 -49l2 -101q0 -123 -35 -166q-41 -55 -160 -55h-973z" />
<glyph unicode="&#xa8;" horiz-adv-x="915" d="M174 1540v191h236v-191h-236zM504 1540v191h235v-191h-235z" />
<glyph unicode="&#xa9;" horiz-adv-x="1001" d="M106 653l3 72l114 20v-124h258v294l-164 -2q-133 0 -159.5 25t-26.5 164q0 203 15.5 241.5t132.5 38.5l108 -2l98 -2v56h99v-56l133 2q106 0 131 -12q41 -23 41 -117v-57l-117 -18v98h-188v-254h137q131 0 158 -33q16 -23 16 -168v-76l2 -67q0 -117 -42 -137.5 t-271 -20.5v-139h-103v139l-178 -2h-53q-78 0 -107 19q-37 25 -37 118zM246 1020h235v254h-235v-254zM584 621h194v294h-194v-294z" />
<glyph unicode="&#xad;" horiz-adv-x="802" d="M92 655v158h610v-158h-610z" />
<glyph unicode="&#xb1;" horiz-adv-x="835" d="M106 1227v207h277v-291h-94l102 -309h-112zM438 1227v207h279v-291h-96l102 -309h-111z" />
<glyph unicode="&#xb4;" horiz-adv-x="600" d="M92 1542l187 287h235l-291 -287h-131z" />
<glyph unicode="&#xb7;" horiz-adv-x="602" d="M104 -449l7 60l16 65h102l-18 -106h203l51 274h-197l-8 -41h-113q14 88 30 111t63 23h36l48 -3l16 66h76l-19 -66h52q66 0 86 -10q43 -18 43 -67q0 -53 -19 -131l-31 -144q-12 -66 -48 -86t-93 -20l-53 2l-60 2h-51q-59 0 -80 10q-39 16 -39 61z" />
<glyph unicode="&#xc0;" d="M10 0l735 1434h136l731 -1434h-211l-191 365h-798l-191 -365h-211zM459 1829h231l189 -287h-131zM500 539h626l-315 622z" />
<glyph unicode="&#xc1;" d="M16 0l734 1434h135l731 -1434h-211l-193 365h-796l-191 -365h-209zM502 539h626l-313 622zM719 1542l186 287h234l-289 -287h-131z" />
<glyph unicode="&#xc2;" d="M8 0l735 1434h136l731 -1434h-211l-191 365h-798l-191 -365h-211zM498 539h626l-315 622zM524 1540l178 270h213l177 -270h-152l-135 154l-131 -154h-150z" />
<glyph unicode="&#xc3;" d="M8 0l735 1434h136l731 -1434h-211l-191 365h-798l-191 -365h-211zM434 1530q31 92 76 143q57 63 145 64q49 0 189 -51q80 -27 117 -27q23 0 37 12t32 62h137q-29 -92 -63 -138q-49 -66 -133 -65q-25 0 -49.5 4t-63.5 16q-152 47 -190 47q-72 0 -97 -67h-137zM498 539h626 l-315 622z" />
<glyph unicode="&#xc4;" d="M8 0l735 1434h136l731 -1434h-211l-191 365h-798l-191 -365h-211zM498 539h626l-315 622zM528 1540v191h236v-191h-236zM858 1540v191h236v-191h-236z" />
<glyph unicode="&#xc5;" d="M8 0l735 1434h136l731 -1434h-211l-191 365h-798l-191 -365h-211zM498 539h626l-315 622zM559 1782q0 102 69.5 171.5t174.5 69.5q98 0 170 -71q71 -68 71 -170q0 -98 -68.5 -170t-172.5 -72q-100 0 -172 71.5t-72 170.5zM672 1782q0 -51 38 -89t93 -38q49 0 88 37t39 90 q0 49 -36 89t-91 40q-51 0 -91 -38t-40 -91z" />
<glyph unicode="&#xc6;" horiz-adv-x="2283" d="M0 0l733 1434h1465v-172h-1014v-439h600v-170h-600v-481h1024v-172h-1217v367l-594 -2l-186 -365h-211zM487 537h506v723h-139z" />
<glyph unicode="&#xc7;" horiz-adv-x="1507" d="M102 170v1092q0 100 44 136t149 36h915q139 0 176 -64q21 -41 21 -199l-2 -198l-193 -39v328h-917v-1090h919v332l193 -53v-279q0 -90 -49 -133q-51 -39 -144 -39h-409l-19 -66h54q66 0 86 -10q43 -18 43 -69t-19 -129l-28 -136q-10 -57 -21 -73q-18 -35 -90 -35l-145 -2 h-50q-49 0 -84.5 12t-35.5 51q0 35 8 74l12 59h105l-19 -106h203l49 274h-195l-8 -41h-110q12 90 26.5 112t59.5 22h39l49 -3l16 66l-303 -4h-53l-51 -2q-109 0 -154 29q-68 41 -68 147z" />
<glyph unicode="&#xc8;" horiz-adv-x="1386" d="M102 0v1434h1207v-172h-1014v-439h598v-170h-598v-481h1022v-172h-1215zM500 1827h233l189 -287h-131z" />
<glyph unicode="&#xc9;" horiz-adv-x="1386" d="M102 0v1434h1207v-172h-1014v-439h598v-170h-598v-481h1022v-172h-1215zM502 1542l188 287h232l-287 -287h-133z" />
<glyph unicode="&#xca;" horiz-adv-x="1523" d="M102 0v1434h1207v-172h-1014v-439h598v-170h-598v-481h1022v-172h-1215zM449 1540l178 270h211l178 -270h-152l-135 154l-129 -154h-151z" />
<glyph unicode="&#xcb;" horiz-adv-x="1386" d="M102 0v1434h1207v-172h-1014v-439h598v-170h-598v-481h1022v-172h-1215zM426 1540v191h236v-191h-236zM756 1540v191h235v-191h-235z" />
<glyph unicode="&#xcc;" horiz-adv-x="395" d="M-127 1829h236l188 -287h-133zM102 0v1434h193v-1434h-193z" />
<glyph unicode="&#xcd;" horiz-adv-x="395" d="M94 1542l189 287h233l-289 -287h-133zM102 0v1434h193v-1434h-193z" />
<glyph unicode="&#xce;" horiz-adv-x="395" d="M-86 1540l178 270h213l176 -270h-151l-135 154l-132 -154h-149zM102 0v1434h193v-1434h-193z" />
<glyph unicode="&#xcf;" horiz-adv-x="395" d="M-88 1540v191h233v-191h-233zM102 0v1434h193v-1434h-193zM244 1540v191h233v-191h-233z" />
<glyph unicode="&#xd1;" d="M102 0v1434h156l1079 -1145v1145h193v-1434h-184l-1051 1112v-1112h-193zM483 1530q31 94 78 143q59 63 146 64q47 0 186 -51q80 -27 117 -27q20 0 33.5 11t35.5 63h138q-29 -92 -64 -138q-49 -66 -133 -65q-25 0 -49.5 4t-63.5 16q-152 47 -190 47q-70 0 -99 -67h-135z " />
<glyph unicode="&#xd2;" horiz-adv-x="1626" d="M102 172v1090q0 100 44 136t149 36h1034q106 0 148 -35q43 -31 43 -137v-1090q0 -90 -52 -133q-51 -39 -141 -39h-1032q-106 0 -149.5 35t-43.5 137zM295 172h1034v1090h-1034v-1090zM541 1829h231l189 -287h-132z" />
<glyph unicode="&#xd3;" horiz-adv-x="1626" d="M109 172v1090q0 100 44 136t146 36h1034q109 0 151 -31.5t42 -140.5v-1090q0 -90 -51 -133q-51 -39 -144 -39h-1032q-102 0 -146 35t-44 137zM299 172h1034v1090h-1034v-1090zM666 1542l188 287h231l-288 -287h-131z" />
<glyph unicode="&#xd4;" horiz-adv-x="1626" d="M102 172v1090q0 100 44 136t149 36h1034q106 0 148 -35q43 -31 43 -137v-1090q0 -90 -52 -133q-51 -39 -141 -39h-1032q-106 0 -149.5 35t-43.5 137zM295 172h1034v1090h-1034v-1090zM526 1540l176 270h216l176 -270h-152l-135 154l-131 -154h-150z" />
<glyph unicode="&#xd5;" horiz-adv-x="1626" d="M102 172v1090q0 100 44 136t149 36h1034q106 0 148 -35q43 -31 43 -137v-1090q0 -90 -52 -133q-51 -39 -141 -39h-1032q-106 0 -149.5 35t-43.5 137zM295 172h1034v1090h-1034v-1090zM465 1540q29 92 76 143q59 63 145 64q47 0 180 -51q10 -4 48 -15.5t59 -11.5 q47 0 65 25l21 49h137q-37 -123 -83 -163t-112 -40q-47 0 -188 43q-78 23 -117 23t-61 -17q-18 -10 -35 -49h-135z" />
<glyph unicode="&#xd6;" horiz-adv-x="1626" d="M109 172v1090q0 100 44 136t146 36h1034q109 0 151 -31.5t42 -140.5v-1090q0 -90 -51 -133q-51 -39 -144 -39h-1032q-102 0 -146 35t-44 137zM299 172h1034v1090h-1034v-1090zM537 1540v191h235v-191h-235zM868 1540v191h236v-191h-236z" />
<glyph unicode="&#xd8;" horiz-adv-x="1626" d="M25 8l90 94q-6 10 -6 33v1127q0 100 44 136t146 36h1034h39l39 -7l94 99l103 -90l-92 -93l6 -22l4 -33v-1116q0 -90 -51 -133q-51 -39 -144 -39h-1073q-31 0 -45 8l-86 -90zM299 289l948 973h-948v-973zM373 172h960v983z" />
<glyph unicode="&#xd9;" horiz-adv-x="1509" d="M119 172v1262h192v-1262h926v1262h193v-1262q0 -90 -50 -133q-49 -39 -141 -39h-930q-102 0 -146 35t-44 137zM518 1829h234l188 -287h-133z" />
<glyph unicode="&#xda;" horiz-adv-x="1509" d="M109 172v1262h190v-1262h926v1262h192v-1262q0 -90 -49 -133q-49 -39 -141 -39h-930q-100 0 -144 35t-44 137zM606 1542l189 287h231l-289 -287h-131z" />
<glyph unicode="&#xdb;" horiz-adv-x="1509" d="M109 172v1262h190v-1262h926v1262h192v-1262q0 -90 -49 -133q-49 -39 -141 -39h-930q-100 0 -144 35t-44 137zM492 1540l176 270h215l176 -270h-152l-135 154l-131 -154h-149z" />
<glyph unicode="&#xdc;" horiz-adv-x="1509" d="M119 172v1262h192v-1262h926v1262h193v-1262q0 -90 -50 -133q-49 -39 -141 -39h-930q-102 0 -146 35t-44 137zM487 1540v191h234v-191h-234zM819 1540v191h234v-191h-234z" />
<glyph unicode="&#xdf;" horiz-adv-x="2840" d="M70 225v121l190 33v-207h928v490h-889q-123 0 -164 53q-33 43 -33 145v53l2 58l2 291q0 100 44.5 136t148.5 36h875q123 0 157.5 -41t34.5 -170v-95l-192 -30v164h-875v-428h889q119 0 164 -54q33 -43 32 -141l-2 -57v-60v-18l-2 -332q0 -90 -49 -133q-51 -39 -143 -39 h-930q-121 0 -158 45q-30 47 -30 180zM1462 225v121l191 33v-207h927v490h-888q-123 0 -164 53q-33 43 -33 145v53l2 58l2 291q0 100 44 136t149 36h874q123 0 158 -41t35 -170v-95l-193 -30v164h-874v-428h888q119 0 164 -54q33 -43 33 -141l-2 -57v-60v-18l-2 -332 q0 -90 -49 -133q-51 -39 -144 -39h-929q-121 0 -158 45q-31 47 -31 180z" />
<glyph unicode="&#xe0;" d="M10 0l735 1434h136l731 -1434h-211l-191 365h-798l-191 -365h-211zM459 1829h231l189 -287h-131zM500 539h626l-315 622z" />
<glyph unicode="&#xe1;" d="M16 0l734 1434h135l731 -1434h-211l-193 365h-796l-191 -365h-209zM502 539h626l-313 622zM719 1542l186 287h234l-289 -287h-131z" />
<glyph unicode="&#xe2;" d="M8 0l735 1434h136l731 -1434h-211l-191 365h-798l-191 -365h-211zM498 539h626l-315 622zM524 1540l178 270h213l177 -270h-152l-135 154l-131 -154h-150z" />
<glyph unicode="&#xe3;" d="M8 0l735 1434h136l731 -1434h-211l-191 365h-798l-191 -365h-211zM434 1530q31 92 76 143q57 63 145 64q49 0 189 -51q80 -27 117 -27q23 0 37 12t32 62h137q-29 -92 -63 -138q-49 -66 -133 -65q-25 0 -49.5 4t-63.5 16q-152 47 -190 47q-72 0 -97 -67h-137zM498 539h626 l-315 622z" />
<glyph unicode="&#xe4;" d="M8 0l735 1434h136l731 -1434h-211l-191 365h-798l-191 -365h-211zM498 539h626l-315 622zM528 1540v191h236v-191h-236zM858 1540v191h236v-191h-236z" />
<glyph unicode="&#xe5;" d="M8 0l735 1434h136l731 -1434h-211l-191 365h-798l-191 -365h-211zM498 539h626l-315 622zM559 1782q0 102 69.5 171.5t174.5 69.5q98 0 170 -71q71 -68 71 -170q0 -98 -68.5 -170t-172.5 -72q-100 0 -172 71.5t-72 170.5zM672 1782q0 -51 38 -89t93 -38q49 0 88 37t39 90 q0 49 -36 89t-91 40q-51 0 -91 -38t-40 -91z" />
<glyph unicode="&#xe6;" horiz-adv-x="2283" d="M0 0l733 1434h1465v-172h-1014v-439h600v-170h-600v-481h1024v-172h-1217v367l-594 -2l-186 -365h-211zM487 537h506v723h-139z" />
<glyph unicode="&#xe7;" horiz-adv-x="1507" d="M102 170v1092q0 100 44 136t149 36h915q139 0 176 -64q21 -41 21 -199l-2 -198l-193 -39v328h-917v-1090h919v332l193 -53v-279q0 -90 -49 -133q-51 -39 -144 -39h-409l-19 -66h54q66 0 86 -10q43 -18 43 -69t-19 -129l-28 -136q-10 -57 -21 -73q-18 -35 -90 -35l-145 -2 h-50q-49 0 -84.5 12t-35.5 51q0 35 8 74l12 59h105l-19 -106h203l49 274h-195l-8 -41h-110q12 90 26.5 112t59.5 22h39l49 -3l16 66l-303 -4h-53l-51 -2q-109 0 -154 29q-68 41 -68 147z" />
<glyph unicode="&#xe8;" horiz-adv-x="1386" d="M102 0v1434h1207v-172h-1014v-439h598v-170h-598v-481h1022v-172h-1215zM500 1827h233l189 -287h-131z" />
<glyph unicode="&#xe9;" horiz-adv-x="1386" d="M102 0v1434h1207v-172h-1014v-439h598v-170h-598v-481h1022v-172h-1215zM502 1542l188 287h232l-287 -287h-133z" />
<glyph unicode="&#xea;" horiz-adv-x="1523" d="M102 0v1434h1207v-172h-1014v-439h598v-170h-598v-481h1022v-172h-1215zM449 1540l178 270h211l178 -270h-152l-135 154l-129 -154h-151z" />
<glyph unicode="&#xeb;" horiz-adv-x="1386" d="M102 0v1434h1207v-172h-1014v-439h598v-170h-598v-481h1022v-172h-1215zM426 1540v191h236v-191h-236zM756 1540v191h235v-191h-235z" />
<glyph unicode="&#xec;" horiz-adv-x="395" d="M-127 1829h236l188 -287h-133zM102 0v1434h193v-1434h-193z" />
<glyph unicode="&#xed;" horiz-adv-x="395" d="M94 1542l189 287h233l-289 -287h-133zM102 0v1434h193v-1434h-193z" />
<glyph unicode="&#xee;" horiz-adv-x="395" d="M-86 1540l178 270h213l176 -270h-151l-135 154l-132 -154h-149zM102 0v1434h193v-1434h-193z" />
<glyph unicode="&#xef;" horiz-adv-x="395" d="M-88 1540v191h233v-191h-233zM102 0v1434h193v-1434h-193zM244 1540v191h233v-191h-233z" />
<glyph unicode="&#xf1;" d="M102 0v1434h156l1079 -1145v1145h193v-1434h-184l-1051 1112v-1112h-193zM483 1530q31 94 78 143q59 63 146 64q47 0 186 -51q80 -27 117 -27q20 0 33.5 11t35.5 63h138q-29 -92 -64 -138q-49 -66 -133 -65q-25 0 -49.5 4t-63.5 16q-152 47 -190 47q-70 0 -99 -67h-135z " />
<glyph unicode="&#xf2;" horiz-adv-x="1626" d="M102 172v1090q0 100 44 136t149 36h1034q106 0 148 -35q43 -31 43 -137v-1090q0 -90 -52 -133q-51 -39 -141 -39h-1032q-106 0 -149.5 35t-43.5 137zM295 172h1034v1090h-1034v-1090zM541 1829h231l189 -287h-132z" />
<glyph unicode="&#xf3;" horiz-adv-x="1626" d="M109 172v1090q0 100 44 136t146 36h1034q109 0 151 -31.5t42 -140.5v-1090q0 -90 -51 -133q-51 -39 -144 -39h-1032q-102 0 -146 35t-44 137zM299 172h1034v1090h-1034v-1090zM666 1542l188 287h231l-288 -287h-131z" />
<glyph unicode="&#xf4;" horiz-adv-x="1626" d="M102 172v1090q0 100 44 136t149 36h1034q106 0 148 -35q43 -31 43 -137v-1090q0 -90 -52 -133q-51 -39 -141 -39h-1032q-106 0 -149.5 35t-43.5 137zM295 172h1034v1090h-1034v-1090zM526 1540l176 270h216l176 -270h-152l-135 154l-131 -154h-150z" />
<glyph unicode="&#xf5;" horiz-adv-x="1626" d="M102 172v1090q0 100 44 136t149 36h1034q106 0 148 -35q43 -31 43 -137v-1090q0 -90 -52 -133q-51 -39 -141 -39h-1032q-106 0 -149.5 35t-43.5 137zM295 172h1034v1090h-1034v-1090zM465 1540q29 92 76 143q59 63 145 64q47 0 180 -51q10 -4 48 -15.5t59 -11.5 q47 0 65 25l21 49h137q-37 -123 -83 -163t-112 -40q-47 0 -188 43q-78 23 -117 23t-61 -17q-18 -10 -35 -49h-135z" />
<glyph unicode="&#xf6;" horiz-adv-x="1626" d="M109 172v1090q0 100 44 136t146 36h1034q109 0 151 -31.5t42 -140.5v-1090q0 -90 -51 -133q-51 -39 -144 -39h-1032q-102 0 -146 35t-44 137zM299 172h1034v1090h-1034v-1090zM537 1540v191h235v-191h-235zM868 1540v191h236v-191h-236z" />
<glyph unicode="&#xf8;" horiz-adv-x="1626" d="M25 8l90 94q-6 10 -6 33v1127q0 100 44 136t146 36h1034h39l39 -7l94 99l103 -90l-92 -93l6 -22l4 -33v-1116q0 -90 -51 -133q-51 -39 -144 -39h-1073q-31 0 -45 8l-86 -90zM299 289l948 973h-948v-973zM373 172h960v983z" />
<glyph unicode="&#xf9;" horiz-adv-x="1509" d="M119 172v1262h192v-1262h926v1262h193v-1262q0 -90 -50 -133q-49 -39 -141 -39h-930q-102 0 -146 35t-44 137zM518 1829h234l188 -287h-133z" />
<glyph unicode="&#xfa;" horiz-adv-x="1509" d="M109 172v1262h190v-1262h926v1262h192v-1262q0 -90 -49 -133q-49 -39 -141 -39h-930q-100 0 -144 35t-44 137zM606 1542l189 287h231l-289 -287h-131z" />
<glyph unicode="&#xfb;" horiz-adv-x="1509" d="M109 172v1262h190v-1262h926v1262h192v-1262q0 -90 -49 -133q-49 -39 -141 -39h-930q-100 0 -144 35t-44 137zM492 1540l176 270h215l176 -270h-152l-135 154l-131 -154h-149z" />
<glyph unicode="&#xfc;" horiz-adv-x="1509" d="M119 172v1262h192v-1262h926v1262h193v-1262q0 -90 -50 -133q-49 -39 -141 -39h-930q-102 0 -146 35t-44 137zM487 1540v191h234v-191h-234zM819 1540v191h234v-191h-234z" />
<glyph unicode="&#xff;" horiz-adv-x="1576" d="M20 1434h240l524 -641l527 641h239l-669 -809v-625h-193v625zM483 1540v191h236v-191h-236zM813 1540v191h236v-191h-236z" />
<glyph unicode="&#x152;" horiz-adv-x="2557" d="M102 172v1090q0 98 44 135t149 37h2240v-172h-1015v-439h602v-170h-602v-481h1024v-172h-2249q-102 0 -147.5 35t-45.5 137zM295 172h1034v1090h-1034v-1090z" />
<glyph unicode="&#x153;" horiz-adv-x="2557" d="M102 172v1090q0 98 44 135t149 37h2240v-172h-1015v-439h602v-170h-602v-481h1024v-172h-2249q-102 0 -147.5 35t-45.5 137zM295 172h1034v1090h-1034v-1090z" />
<glyph unicode="&#x178;" horiz-adv-x="1576" d="M20 1434h240l524 -641l527 641h239l-669 -809v-625h-193v625zM567 1542l187 287h235l-291 -287h-131z" />
<glyph unicode="&#x2c6;" horiz-adv-x="761" d="M94 1540l180 270h213l177 -270h-150l-135 154l-133 -154h-152z" />
<glyph unicode="&#x2dc;" horiz-adv-x="913" d="M92 1540q31 92 76 143q57 63 145 64q47 0 181 -51q10 -4 48 -15.5t58 -11.5q43 0 54.5 11.5t33.5 62.5h137q-27 -94 -63 -139q-51 -63 -133 -64q-45 0 -113 21q-154 45 -192 45q-70 0 -95 -66h-137z" />
<glyph unicode="&#x2000;" horiz-adv-x="1011" />
<glyph unicode="&#x2001;" horiz-adv-x="2023" />
<glyph unicode="&#x2002;" horiz-adv-x="1011" />
<glyph unicode="&#x2003;" horiz-adv-x="2023" />
<glyph unicode="&#x2004;" horiz-adv-x="674" />
<glyph unicode="&#x2005;" horiz-adv-x="505" />
<glyph unicode="&#x2006;" horiz-adv-x="337" />
<glyph unicode="&#x2007;" horiz-adv-x="337" />
<glyph unicode="&#x2008;" horiz-adv-x="252" />
<glyph unicode="&#x2009;" horiz-adv-x="404" />
<glyph unicode="&#x200a;" horiz-adv-x="112" />
<glyph unicode="&#x2010;" horiz-adv-x="802" d="M92 655v158h610v-158h-610z" />
<glyph unicode="&#x2011;" horiz-adv-x="802" d="M92 655v158h610v-158h-610z" />
<glyph unicode="&#x2012;" horiz-adv-x="802" d="M92 655v158h610v-158h-610z" />
<glyph unicode="&#x2013;" horiz-adv-x="1628" d="M106 616v197h1410v-197h-1410z" />
<glyph unicode="&#x2014;" horiz-adv-x="1781" d="M100 524v197h1567v-197h-1567z" />
<glyph unicode="&#x2018;" horiz-adv-x="483" d="M106 834v204l173 396h112l-102 -312h94v-288h-277z" />
<glyph unicode="&#x2019;" horiz-adv-x="483" d="M106 834l101 309h-94v291h278v-207l-174 -393h-111z" />
<glyph unicode="&#x201a;" horiz-adv-x="483" d="M106 -313l101 309h-94v291h278v-207l-174 -393h-111z" />
<glyph unicode="&#x201c;" horiz-adv-x="835" d="M106 834v204l173 396h112l-102 -312h94v-288h-277zM438 834v204l174 396h111l-102 -312h96v-288h-279z" />
<glyph unicode="&#x201d;" horiz-adv-x="835" d="M106 834l101 309h-94v291h278v-207l-174 -393h-111zM459 834l100 309h-94v291h278v-207l-174 -393h-110z" />
<glyph unicode="&#x201e;" horiz-adv-x="835" d="M106 -313l101 309h-94v291h278v-207l-174 -393h-111zM459 -313l100 309h-94v291h278v-207l-174 -393h-110z" />
<glyph unicode="&#x2022;" horiz-adv-x="487" d="M106 879v278h275v-278h-275z" />
<glyph unicode="&#x2026;" horiz-adv-x="1171" />
<glyph unicode="&#x202f;" horiz-adv-x="404" />
<glyph unicode="&#x205f;" horiz-adv-x="505" />
<glyph unicode="&#x2122;" horiz-adv-x="630" d="M96 868l2 47l2 54l2 264q0 55 27 75.5t82 20.5l68 -2v88h55v-88h59q88 0 107.5 -25.5t19.5 -123.5l-2 -113h-90v182h-94v-422h88v115h94v-22q0 -123 -27 -150q-27 -23 -155 -23v-94h-55v94h-52q-80 0 -105.5 30t-25.5 93zM195 825h84v422h-84v-422z" />
<glyph unicode="&#xe000;" horiz-adv-x="1433" d="M0 0v1434h1434v-1434h-1434z" />
</font>
</defs>
</svg>
