<?xml version="1.0" standalone="no"?>
<!DOCTYPE svg PUBLIC "-//W3C//DTD SVG 1.1//EN" "http://www.w3.org/Graphics/SVG/1.1/DTD/svg11.dtd" >
<svg xmlns="http://www.w3.org/2000/svg">
<metadata></metadata>
<defs>
<font id="exonerationregular" horiz-adv-x="1161" >
<font-face units-per-em="2048" ascent="1638" descent="-410" />
<missing-glyph horiz-adv-x="1024" />
<glyph horiz-adv-x="2048" />
<glyph horiz-adv-x="2048" />
<glyph unicode="&#xd;" horiz-adv-x="1024" />
<glyph unicode=" "  horiz-adv-x="1024" />
<glyph unicode="&#x09;" horiz-adv-x="1024" />
<glyph unicode="&#xa0;" horiz-adv-x="1024" />
<glyph unicode="!" horiz-adv-x="528" d="M307 565q0 -8 -22 -47q-2 -2 -2 -33.5t-17 -35.5q35 -35 35 -43t-14.5 -29t-14.5 -29q0 -6 11.5 -24.5t11.5 -28.5q0 -29 -14 -53q-12 -8 -37 -29q10 -43 -33 -79t-84 -36q-29 0 -48.5 18.5t-19.5 43.5q0 33 8.5 37t12.5 22q-2 14 0 47q4 12 12 25q-12 70 4 119l8 9 q9 9 9 19q0 6 -15.5 46t-15.5 48q0 18 24 41v17l-10 10q-27 2 -41 22.5t-14 36.5t11 29.5t22 26.5q0 6 -8 39q-8 27 -9 43q0 43 43 59q-39 37 -43 92q-45 29 -45 60q0 27 60 77q-2 2 -41 7q-8 10 -19.5 24t-11.5 23q0 35 29 69q49 16 45 17q-12 0 59 -15q6 -8 25 -18 q18 0 51 -4q18 -6 63 -66q-14 -18 -55 -49q4 -45 39 -94q2 -16 10 -51q8 -12 23 -37q-14 -18 -53 -47q18 -37 18 -35q0 -20 -22.5 -53t-30.5 -35q25 -14 73 -49q4 -29 0 -51q12 -16 25 -25q8 -37 8 -31zM336 -209q0 -23 -39 -58.5t-51 -35.5q-20 0 -90 18q-76 20 -85.5 39 t-0.5 51q-29 20 -29 48q0 37 24.5 67.5t59.5 30.5q6 0 39 -4q41 -4 61 -4q8 0 74 -35q4 -31 -8 -66q12 -12 35 -18q10 -4 10 -33z" />
<glyph unicode="&#x22;" horiz-adv-x="884" d="M678 1065q0 -25 -27 -49q-37 -37 -73 -60q47 -14 47 -59q0 -47 -70 -88q23 -37 23 -49q0 -51 -34 -91t-89 -40q-47 0 -60 14q-53 63 -53 98q0 8 20.5 39t20.5 37q0 8 -14.5 26.5t-14.5 24.5q0 31 52 72q2 6 -6.5 21.5t-8.5 23.5q0 18 11.5 59t13.5 60q10 12 35 24 q57 8 77 9q45 0 123 -33q27 -10 27 -39zM342 1071q0 -72 -113 -104q0 -4 11 -13q10 0 30 -2q0 -2 4.5 -12t12.5 -10t10 2t4 2q-6 -23 -16 -62q0 -18 -11 -53q-55 -78 -127 -78q-8 0 -24.5 10.5t-20.5 10.5q-29 2 -82 16q-20 12 -20 51q0 6 6 21.5t9 21t44 21.5 q-25 33 -24 51q0 -2 10 14q18 55 18 86q0 4 -8 21.5t-8 26.5q0 10 27.5 36.5t39 29.5t52.5 3q43 0 51 -4q18 -12 57 -31q20 -2 56 -16q12 -10 12 -39z" />
<glyph unicode="#" horiz-adv-x="1251" d="M1098 514q0 -31 -30 -52.5t-58 -21.5q-6 0 -30 6.5t-30 6.5q-8 0 -22.5 -10.5t-20.5 -12.5q-18 -8 -51 -8q-6 0 -29.5 11t-35.5 13q0 -20 -8.5 -62t-8.5 -46q0 -8 6 -19.5t8 -15.5q-2 -16 -2 -41q16 -47 17 -51q0 -31 -35 -54.5t-57 -23.5h-43q-10 0 -37 14.5t-40 30 t-13 60.5q0 16 15 30.5t19 22.5q25 70 25 94q0 20 -31 23q-18 0 -37 -2q-106 23 -106 22q-2 0 -66 -33q-8 -37 -8 -41q0 -10 36 -40.5t36 -67.5q0 -20 -27 -39q-18 -14 -39 -29q25 -37 25 -63q0 -12 -24.5 -32t-39.5 -20q-6 0 -8 -6t-8 -6q-51 0 -81 23.5t-30 70.5 q0 33 21.5 49.5t21.5 24.5q0 14 -16 35.5t-29 21.5q-20 49 -20 111q-12 -2 -27 -2q-45 0 -79.5 24.5t-34.5 63.5q0 29 30.5 54.5t53.5 25.5q-18 0 98 -21q0 8 -8 27q-14 12 -31 43q-4 49 2 123q-59 39 -70 39q-6 0 -17 -5t-18 -5q-39 0 -72.5 29.5t-33.5 60.5 q0 45 31.5 74.5t77.5 29.5q16 0 112 -37h39q-4 53 29 76q-12 8 -31 51q-10 2 -29 17q0 66 17 133q2 20 10 65q8 25 35 29q16 2 51 2q27 0 64 -39q31 -31 30 -53q0 -4 -11 -22.5t-11 -30.5q0 -4 5 -20.5t3 -26.5l-19 -19q0 -10 -4 -29q-8 -10 -22 -38q31 -8 43 -38t20 -57h17 q8 0 12 13.5t6 13.5q23 33 62 33q8 0 11 -3t9 -3q8 0 24.5 28.5t26.5 40.5q-53 49 -53 80q0 6 11.5 31.5t11.5 32.5q0 4 -14.5 23.5t-14.5 37.5q0 43 22.5 64.5t69.5 21.5q35 0 68.5 -25.5t33.5 -64.5q0 -8 -14 -30.5t-14 -28.5q0 -8 8 -13q10 -20 25 -59q-2 -20 -3 -57 q-14 -14 -12 -25q10 -14 23.5 -32.5t34.5 -18.5q8 0 53 9t53 9t42 -17.5t42 -19.5q18 -8 40.5 -40.5t22.5 -55.5t-29.5 -45.5t-56.5 -22.5q-6 0 -34.5 -6t-35.5 -6t-5 -3t-6 -3q-6 0 -48.5 23.5t-50.5 23.5q-14 0 -28 -14q12 -25 10 -41q-2 -8 -12.5 -25.5t-10.5 -23.5 q0 -16 16.5 -64.5t24.5 -48.5q6 0 34 8t36 8q16 0 82 -34q6 0 34.5 12t34.5 12q8 0 33 -16q12 -4 35 -17q31 -30 31 -59zM584 670q-18 4 -19 20q0 8 2 19q16 20 15 24q0 4 -8.5 22.5t-8.5 28.5q0 18 19 27q-29 0 -64 -2q-14 -20 -41 -49q-37 -18 -66.5 -18.5t-35.5 -2.5 q37 -35 29 -65q-14 -49 -15 -53q33 -41 49 -50q0 14 17 9q6 2 78 2q27 0 47 24q6 20 0 33q-10 20 -4 27q6 8 6 4z" />
<glyph unicode="%" horiz-adv-x="1355" d="M520 1024q0 -29 -10 -45q-10 -23 -37 -41q-2 -8 0 -16q14 -25 14 -48q0 -41 -38.5 -66.5t-86.5 -25.5q-10 0 -53 22.5t-47 31.5q-41 -29 -59 -29h-47q-70 39 -77 61.5t-7 18.5q0 29 6 59q2 8 22 29q-6 10 -59 35q-41 20 -41 55q0 43 51 82v47q-2 29 10 41q27 23 72 27 q-2 25 4 67q6 16 53 41q4 2 31 2q16 0 53 -8q8 -10 31 -25q29 0 88 -10q68 -23 68 -98q0 -18 -4 -33q25 -23 55 -76q0 -8 -4 -31.5t-4 -33.5q0 -6 8 -15.5t8 -17.5zM1180 389q0 -6 -12.5 -26.5t-15.5 -27.5t-3 -16q0 -12 7 -40.5t7 -42.5q0 -41 -39 -66q-29 -6 -73 -20 q-12 -45 -61.5 -78t-84.5 -33q-61 0 -84 43q-2 14 -14 39q-18 2 -49 8q-8 2 -47 29q-8 6 -9 43q0 31 5 37q8 14 55 41q-16 20 -31.5 41.5t-15.5 44.5q0 25 18 57q18 27 37 55q18 12 55 39q0 16 2 49q35 39 107 53q2 0 12 5.5t19 5.5q8 0 40.5 -12.5t43.5 -20.5q2 -12 12 -31 q23 -6 59 -16q8 -14 17 -70q8 -4 22 -18q21 -54 21 -72zM938 1255q0 -70 -88 -69q0 -10 6 -28.5t6 -27.5q0 -4 -22.5 -57t-28.5 -82q-25 -12 -68 -43q-4 -4 -11 -21.5t-17 -29.5q43 -37 26 -100q-10 -16 -10 -17q25 -35 25 -51q0 -6 -7.5 -24.5t-7.5 -26.5q-29 -25 -59 -27 q-2 -23 -4 -47t-21 -39q-27 -6 -82 -24h-4q-4 -10 3.5 -24.5t7.5 -18.5q2 -10 -7 -27q-12 -23 -14 -29q-2 -14 4 -43q8 -37 8 -45q6 -49 -4 -71q-37 -100 -41 -105q-31 -63 -75 -69q-2 -6 -17.5 -28t-15.5 -30q0 -6 14.5 -27.5t14.5 -29.5q0 -23 -18.5 -50.5t-68.5 -27.5 h-47q-33 0 -77 49q-12 14 -13 86q33 12 36 47t13 43q18 10 58 37q0 18 5 52t5 38q0 8 -12.5 18.5t-14.5 14.5q-8 10 -8 74q27 20 80 57q-2 16 -2 31q0 47 39 72q12 6 78 26q-2 6 -13.5 30.5t-11.5 31.5q0 45 96 110q-37 76 -36 74q0 27 24 53q25 20 47 43q-25 8 -24 58 q0 27 9 38t19 25q0 23 15 61q20 27 65 97q2 4 58 41q-12 20 -13 47q0 35 28 63.5t64 28.5q41 0 75 -35t34 -72zM352 948q2 4 -9 18.5t-11 20.5q0 29 -4 88q0 6 -7.5 21.5t-7.5 21.5q0 16 4 23q-18 -2 -44.5 20.5t-20.5 38.5q-23 -8 -31 2q0 -88 -22 -88q-10 0 -14.5 2 t-6.5 2q0 -10 8.5 -37.5t8.5 -44.5q0 -20 -13 -39q2 0 54 -26q33 -16 43 -41q8 2 24 13t25 11zM1026 348q0 -2 -8 12.5t-6 36.5q-41 23 -66 31q0 -39 -20 -66q-14 -6 -33 -24q-2 -16 -10 -41q-2 -6 -52 -37q2 -2 35 -22q20 -12 27 -33h57q0 39 2 43q8 18 41 57t33 43z" />
<glyph unicode="&#x26;" horiz-adv-x="1363" d="M1223 -49q0 -31 -29 -57.5t-55 -26.5q-66 0 -99 20q-16 14 -75 41q-25 6 -29 60q-37 27 -55 28h-27q0 -18 -18 -63q-14 -6 -43 -31q-6 -12 -21 -28q-31 -2 -90 -17q-23 -10 -47 -22q-12 -4 -60 -5q-8 0 -11 6.5t-9 6.5q-8 0 -49 -21.5t-49 -21.5q-6 0 -11.5 6t-11.5 6 t-25.5 3t-27.5 3t-18.5 -3t-16.5 -3q-16 0 -53 18l-37 17q-6 0 -13 -2t-16 -2q-37 0 -84 41q0 6 -4 18q-25 20 -69 66q0 16 -11.5 54t-11.5 54q0 27 19 41q-20 12 -48 45q-18 59 -18 107q0 12 33 49q0 29 2 57q0 39 14 56q31 20 86 59q0 10 15 29q20 8 61 34q8 100 8 95 q20 25 41 32q4 2 10 11q-4 -14 -4 63q0 6 11.5 15.5t11.5 17.5q0 14 -23 29q-14 6 -28 14q-8 31 -9 20q0 10 13.5 39t23.5 37q-2 2 -51 36t-49 52q0 27 18 64q8 6 29 24q0 4 -10 9.5t-13 13.5q0 25 -8 69q27 41 86 41q6 0 14.5 -3t16.5 -3t16 29q6 23 13 45q66 33 96 33 q8 0 53 -9.5t51 -9.5t22.5 3t24.5 3q74 0 103 -20q6 -4 18.5 -27.5t20.5 -23.5q6 0 21.5 12t23.5 12q20 0 51 -14q18 -20 51 -53q4 -4 4 -31q0 -25 -3 -32t-18.5 -23.5t-15.5 -24.5q0 -6 15.5 -48t15.5 -48q0 -8 -41 -61q-2 -23 -14 -64q-43 -72 -84 -119q-33 -10 -98 -39 q-14 -6 -35 -31.5t-35 -33.5q27 -16 68 -58q6 -12 10 -71q6 -6 35 -47q20 -29 28 -29t6 3t7 3q14 0 52 -29.5t40 -36t2 -53.5q51 0 67.5 -17t30.5 -77q18 6 12 27q-6 29 5.5 46t48.5 44q2 10 2 43q0 51 -23.5 63.5t-23.5 55.5q0 63 41 80q-12 8 -33 10q-4 4 -9.5 10t-5.5 14 q0 23 24 42.5t40 19.5q8 0 16.5 -8.5t14.5 -8.5q8 0 11 2.5t5 2.5q14 -45 31 -46q6 0 5 2.5t7 2.5q45 0 90 -37q14 -12 15 -41q0 -27 -19 -43q-31 -25 -45 -47q41 -53 41 -70q0 -53 -31 -74q-12 -6 -33 -16q8 -25 0 -78q-18 -10 -53 -41q-2 -16 15 -29q-2 -6 -12.5 -27.5 t-10.5 -29.5t17.5 -26.5t23.5 -28.5q53 -2 104.5 -38t51.5 -87zM715 1116q-53 27 -53 49q0 8 2 18.5t2 12.5q-14 -4 -58 -4q-43 -31 -45 -31q-6 0 -48 14.5t-48 14.5q-8 0 -17.5 -6t-15.5 -6q-4 0 -74 22q0 -10 2 -29q2 -12 0 -18q-2 -8 -14 -21.5t-29 -33.5q25 -23 31 -70 q8 -39 0 -72q70 -51 70 -108q0 -8 -12.5 -23.5t-12.5 -21.5q0 -8 10.5 -16.5t10.5 -10.5q27 45 52.5 49t59.5 13q27 27 82 71q-2 84 54 113q4 8 12 22q-6 23 -2 35q8 23 41 37zM778 184q-33 20 -65 41q-49 35 -49 72q0 14 6 29q-14 12 -30.5 24t-16.5 29q-86 8 -125 65 q-2 14 -11 37q-25 20 -61 64q2 10 -2 24h-27q-8 -23 -20 -47q-12 -10 -31 -26q8 -20 -12.5 -52t-48.5 -38q-20 -2 -60 -9q-8 -4 -12 -16q-8 -18 -8 -21q4 -14 4 -26q0 -16 -10.5 -28.5t-10.5 -18.5t9.5 -16.5t9.5 -16.5q2 -14 -4 -40t-6 -30q39 -35 28 -112q23 -18 49 -56 q20 -31 27 -30q6 0 20.5 3t20.5 3q8 0 34.5 -9.5t33.5 -9.5q6 0 33.5 12.5t33.5 12.5q8 0 28.5 -9t29.5 -9q8 0 27.5 16t23.5 20q10 -18 24 -18q12 0 19 18q-6 31 -6 50q0 20 10 47q4 12 31.5 28.5t40.5 16.5q2 0 55 -19q6 16 18 45z" />
<glyph unicode="'" horiz-adv-x="681" />
<glyph unicode="0" horiz-adv-x="1105" d="M909 1075q0 -6 -8 -22.5t-8 -24.5q0 -47 2 -43q-18 -29 -43 -45q-14 -10 -14 -33q0 -8 18 -49t18 -49q0 -18 -4 -25q-68 -109 -67 -114q0 -6 20.5 -49t20.5 -52q0 -6 -13.5 -22.5t-15.5 -22.5q4 -18 2 -53q-6 -23 -33.5 -68t-27.5 -51q0 -18 20 -43q4 -10 -10 -30 q0 -2 6 -4.5t6 -10.5q0 -53 -22 -84q-18 -20 -68 -49q-10 -6 -20.5 -40t-41 -46t-69.5 -12q-6 0 -22.5 3t-24.5 3q-6 0 -24.5 -9.5t-28.5 -9.5q-14 0 -29 7q-2 -8 -6 -23q-63 -53 -111 -53h-26q-37 0 -120 89t-83 118q0 14 24 49q-10 8 -14 8q-25 0 -43 27q-2 14 -10 47 q-2 8 -17.5 29.5t-15.5 29.5q0 12 14.5 36t14.5 30q0 8 -17.5 46t-17.5 46q0 6 8 51t11.5 65.5t31.5 41.5q-2 16 2 57t4 59q0 2 -6 12.5t-8 16.5q-14 74 39 113q-16 35 -16 45q0 12 10 20q2 4 0 10q-35 37 -35 58q0 16 13.5 42.5t32.5 38t50 11.5q-4 25 0 70q2 8 18.5 17 t16.5 17q0 16 -14.5 32.5t-26.5 33t-12 45.5q0 57 53 68q31 -2 84 4q14 6 43 53q8 14 23 37q6 2 18 2q14 0 92 -53q20 37 51 43q-2 -2 37 -3q33 0 41 -2q20 -8 55 -45q4 -4 21 -63q66 -18 115 -66q43 -41 84 -84q12 -10 17 -40.5t19 -38.5q-4 0 -22 -17q12 -10 41 -35 q18 -18 18 -47zM725 1112q-49 16 -78 105q-39 20 -78 44.5t-39 57.5q0 14 7 31q-35 -37 -62 -37q-8 0 -34.5 6t-32.5 6q-10 0 -14.5 -5t-8.5 -9q0 -12 -5 -37t-61 -74q0 -14 -2 -35q-12 -18 -26 -51q29 -39 14 -67q-12 -18 -33 -48q2 -16 0 -41q-14 -41 -34 -57 q-12 -8 -25 -22q25 -20 25 -54q0 -10 -5 -41q-4 -23 -2 -34q12 -16 29 -52q-6 -4 -27 -41l-24 -24q-2 -45 -29 -82q-2 -25 0 -74l6 -39q-14 -61 -14 -45q0 -8 23.5 -62.5t23.5 -62.5q0 -10 -18 -39q39 -12 57 -41q4 -18 16 -43q25 -14 66 -47q8 29 31 45q20 4 53 17 q18 20 53 49q27 4 66 16q12 12 26 35q27 43 27 88q0 8 -11.5 18.5t-11.5 12.5q-6 31 -6 49v21q4 10 40 35.5t36 43.5q0 8 -11 53.5t-11 53.5q0 10 32 55q-2 18 -2 47q8 29 17 82q6 10 16 25q-41 33 -41 59q0 18 12.5 45t34.5 25q-6 14 -6 28q0 20 16 54q21 41 25 57z" />
<glyph unicode="1" horiz-adv-x="757" d="M561 57q0 -37 -55 -59q-41 -18 -72 -18q-6 0 -34.5 3t-38 3t-39 18.5t-46 38.5t-16.5 51q0 8 17.5 32t17.5 32q0 6 -10 18q2 27 2 84q0 6 -7.5 22.5t-7.5 24.5q0 6 41 47q-47 31 -47 58q0 29 6 45q12 10 27 28q14 31 -2 70q23 27 22 31q0 4 -8 19.5t-8 21.5q0 4 4 18 t4 21q-4 2 -14 8q-35 12 -48 47t-13 86q0 8 14 35.5t24.5 31t30.5 13.5q2 4 0 10q-6 25 -4 35q6 12 6 6q0 10 -5 14t-5 6q10 8 8 27q-4 18 -6 35q-63 33 -63 76q0 14 2 20t18 24.5t16 24.5q0 8 -3 17.5t-3 13.5h-49q-27 -29 -51.5 -55.5t-56.5 -26.5q-6 0 -24.5 2t-25.5 2 q-16 0 -37.5 25.5t-21.5 38.5q0 16 23.5 53t33.5 41q25 10 62 20l6 7q-8 0 -21 -7q-51 31 -51 68q0 23 23.5 39t48.5 16q6 0 27.5 -11t27.5 -11q4 0 32 41t50 51q51 20 141 20q14 0 36 -30.5t22 -42.5q0 -25 -53 -72q14 -14 32 -41q20 -57 21 -51q0 -41 -33 -133l-10 -7 q-10 -8 -10 -16q0 -14 24 -47q33 -43 37 -51q8 -16 8 -31q0 -25 -22 -37q8 -31 8 -37q0 -29 -39 -41q18 -14 35 -26q31 -27 30 -55q0 -10 -16 -34t-16 -39.5t-2 -43.5q0 -2 26 -21q8 -8 8 -32q0 -18 -22 -54q14 -20 14 -45q0 -35 -32 -51q10 -37 10 -59q0 -25 -14.5 -42.5 t-14.5 -27.5q0 -6 7 -14.5t9 -12.5v-65q8 4 15 4q31 0 56.5 -30.5t25.5 -55.5q0 -39 -35 -49q53 -42 53 -62z" />
<glyph unicode="2" horiz-adv-x="1081" d="M874 127q0 -6 -8 -19.5t-8 -19.5q2 12 8 -41q0 -8 -16 -37.5t-33 -29.5q-6 0 -34.5 -6.5t-34.5 -6.5q-8 0 -29 17q-29 18 -36 22t-36 4q-31 0 -35 -2q-12 -12 -41 -33q-61 -25 -82 -24q-6 0 -96 31.5t-98 31.5q-6 0 -32.5 -11t-35.5 -11q-6 0 -17 11t-17 11q-8 0 -35 -14 t-33 -14q-43 0 -82 20q-29 14 -36 29.5t-7 38.5q0 -2 39 63q-2 16 4 47q14 27 82 56q10 29 37 67q18 4 51 23q6 6 53 78q35 55 58 55q-2 18 8 53q25 29 59 43q2 10 12 29q47 49 70 49q6 0 12 -2q-6 16 -6 31q0 31 47 96q18 12 37 24q27 20 27 50q0 4 -17 26q0 6 -3 24.5 t-3 26.5q0 27 29 48.5t51 21.5q6 0 8 -3t9 -3q8 0 17 16.5t15 22.5q-12 8 -34 22q-31 23 -31 64q0 18 14 37.5t17 23.5q2 -2 -19 -2q-39 0 -74 43q-10 12 -10 78q0 6 -20 27q-55 -12 -152 -39q-16 -8 -51 -25q6 -8 6 -22q0 -25 -16.5 -49.5t-36.5 -24.5q-6 0 -38 6t-38 6 t-25 -33l21 -12q10 -39 10 -33q0 -25 -30.5 -59.5t-47.5 -34.5h-53q-27 0 -53 41q-23 35 -23 57q0 6 4 17.5t4 17.5q0 4 -4 45q-2 27 3.5 45.5t34 37t48.5 18.5q14 29 54 67q20 4 49 29q-2 20 0 59q2 18 39 35q29 14 45 15q6 0 33.5 -14.5t35 -14.5t47 -3t46.5 -3 q14 0 45.5 23.5t60.5 23.5q57 0 86 -39q4 -16 19 -45q4 -4 43 -35q2 -6 2 -29q18 0 33.5 3t21.5 3q25 0 62.5 -31.5t37.5 -49.5q0 -16 -8 -45q-4 -16 -20 -25v1t-3 -1v-8t25 -25q0 -6 6 -22.5t6 -22.5q0 -14 -41 -65q-6 -12 -24 -33q41 -37 41 -78q0 -16 -2 -23 q-4 -18 -37 -43q6 -27 -12.5 -49t-36.5 -45q-6 -18 -15 -35q-12 -25 -34 -26q-25 -39 -84 -117q-10 -2 -31 -16q2 -76 -23 -95q-12 -4 -32 -16q-27 -25 -72 -61q-6 0 -10 -4q0 -8 2 -17q-2 -12 -23 -61q-10 -4 -24.5 -20.5t-16.5 -43.5q-23 -14 -82 -28q-10 -18 -28 -37 q-14 -6 -45 -31q-8 -31 -9 -27q2 0 6.5 -2t12.5 -2q6 0 21.5 13.5t21.5 13.5q16 0 53 2h43t44 -26.5t42 -26.5q6 0 12.5 12t12.5 23q29 37 69 36q6 0 55.5 -20.5t55.5 -20.5q4 0 19.5 26t33 38t47.5 12q33 0 86 -45q2 -6 6 -22.5t4 -26.5z" />
<glyph unicode="3" horiz-adv-x="1146" d="M938 1014q0 -27 -25 -66q-31 -45 -65 -49q-10 -20 -33 -53q41 -41 41 -66q0 -39 -90 -65q-6 -6 -18 -19q-18 -8 -37 -16q-25 -12 -33 -29q27 -6 76 -24q37 -16 37 -62q0 -33 -35 -57q18 -14 45 -45q6 -14 0 -41q-4 -31 -15 -33q8 -41 45 -55.5t37 -52.5q0 -27 -22 -43 q-29 -23 -31 -27q0 -23 -14 -64q-4 -6 -76 -41q4 -4 18 -4q0 -4 3.5 -19t3.5 -24q0 -6 -13.5 -22.5t-15.5 -24.5q2 8 6 -47q-6 -29 -47 -51.5t-76 -22.5q-6 0 -11 3.5t-11 3.5q-10 0 -15 -4q-4 -35 -39.5 -59.5t-58.5 -24.5q-6 0 -38 11t-38 11q-8 0 -19.5 -6t-19.5 -6 q-6 0 -45 20q-45 20 -65 25q-31 8 -61.5 17t-35.5 52q-82 14 -81 66q0 12 22 49v17l-8 8q2 -6 -12 -6q-18 0 -43 21.5t-25 41.5q0 14 31 59q23 8 24 9q10 0 11 8q0 8 -15.5 31.5t-15.5 29.5q0 72 121 72q8 0 39 -29q37 -35 43 -39q39 -27 38 -51q0 -16 -12 -42.5t-22 -31.5 q0 -8 20 -24q10 -59 10 -49q0 -6 -15 -25.5t-15 -28.5q0 -29 106 -28q8 0 9 3t10 3q6 0 33.5 -16.5t37.5 -18.5q4 2 4 26.5t43 43.5q31 12 50 12q14 0 28 -6q18 68 62 92q-18 18 -19 45q0 51 56 80v20q-66 12 -66 66q0 23 27 55q-20 39 14 82q4 -4 -35 -4q-37 0 -67 21 q-10 20 -37 55q-12 0 -29 4q-10 14 -29 14q-8 0 -21 -2t-20 -2q-16 0 -49 19q-25 14 -24 55q0 29 59 76q6 2 18 4q10 14 29 31q27 14 72 14q8 0 27.5 -2t25.5 -2q25 0 57 31q27 27 50 16l26 27q-8 10 -24 20q-10 4 -11 23q0 61 66 110v80q-8 -4 -14 -4q-41 0 -41 57 q0 18 8 31q-10 6 -45 33q-25 18 -33 18q-6 0 -18.5 -3t-20.5 -3q-6 0 -40 9t-42 9q-20 0 -20 -12q0 -8 11 -27.5t11 -25.5q0 -16 -2 -23q-8 -12 -36.5 -30.5t-45.5 -18.5q-8 0 -21.5 3t-21.5 3q-6 0 -26.5 -9t-30.5 -9q-16 -25 -14 -55l-13 -13q0 -4 2 -10t2 -8 q-18 -6 -69 -27q-43 -16 -51 -16q-68 0 -68 100q0 43 10 62q16 29 68 39q10 20 26 55q8 2 33 27q-2 119 115 118q29 0 53 -34q39 63 88 63q6 0 19.5 -2t21.5 -2t19.5 5t15.5 7q18 4 45 4q14 0 52 -30.5t40 -32.5q20 -6 66 -21q18 -8 36.5 -32.5t18.5 -44.5q27 8 78 -28 t51 -75q0 -8 -11.5 -21.5t-11.5 -21.5q0 -6 11.5 -28.5t11.5 -28.5z" />
<glyph unicode="4" horiz-adv-x="1126" d="M944 319q0 -18 -12 -43q-14 -31 -37 -30q-8 0 -40 -3t-40 -3t-70 30h-14q37 -72 37 -104q0 -27 -18 -37q-25 -14 -48 -29q23 -39 58 -129q-4 -20 -2 -65q6 -6 16 -21.5t10 -34.5q0 -25 -53 -47q-43 -18 -59 -18h-23q-27 0 -39 47q-6 25 -10 49q-33 12 -33 66q0 16 6 30 q-25 31 -24 50q0 18 15.5 43.5t31.5 31.5q-16 6 -45 21q-14 10 -23 37q-12 37 -18 45q-29 -31 -41 -31q-131 0 -164 -2q-16 -10 -53 -25q-51 -14 -78 -14q-8 0 -27.5 15.5t-25.5 17.5q-33 0 -96 10q-25 10 -25 37v154l18 18q14 16 9 27q-14 37 -15 49q0 37 34 63l34 27 q4 23 16 57q23 25 56 68q2 4 14 43q10 27 33 45q2 4 2 39q0 25 -2 41q-14 8 -23 53q0 12 37 59q4 2 12 7q23 2 60 4q25 16 32 45q4 16 -8 57q33 55 60 55q8 0 3 -5t3 -5q29 0 45 14q-14 8 -41 21q0 10 -6 27.5t-6 25.5q0 29 32 45q18 6 39 15q12 16 43 38q10 2 101 3 q41 0 84 -27q53 -33 53 -82q0 -16 -6 -33q-6 -6 -64 -35q0 -16 10 -51q6 -12 29 -39q14 -16 14 -41q0 -29 -25.5 -43t-51.5 -26q14 -18 30 -62q8 -6 27 -24q8 -10 8 -37t-16 -43l-3 -2t-3 -10t17 -33t17 -33q0 -12 -14 -23q-29 -25 -33 -26q23 -25 23 -39q0 -31 -11.5 -41 t-23.5 -21q23 -12 55 -34q33 -35 -2 -113q-4 2 52 2q10 0 16 14q61 10 47 11q37 0 85 -33t48 -60zM561 522q-31 8 -41 23q-12 23 -12 55q0 10 8 23l14 20v90q-43 18 -43 105q-6 8 -36 69q0 -39 -5 -73q-41 -31 -112 -107q12 -12 6 -27q-6 -12 -12 -23t-19 -26q4 -20 2 -47 q-27 -37 -75 -96q41 -35 40 -74q0 -72 -104 -84q4 -14 -3 -31.5t-15 -29.5q4 0 11 -6.5t11 -6.5q18 39 70 39q6 0 5 -2t6 -2t28.5 -6t27.5 -6q-2 0 17 10q35 -4 86 -4q-2 0 29.5 35t78.5 31q0 6 5.5 21.5t5.5 21.5q0 -16 -13 41q-2 14 17.5 37.5t21.5 29.5z" />
<glyph unicode="5" horiz-adv-x="1056" d="M862 1243q0 -16 -28 -41q-16 -12 -31 -24q-2 -14 -10 -45q-2 -8 -36 -35t-43 -27t-22.5 -3t-21.5 -3q-10 0 -47 14q-8 2 -19.5 18.5t-19.5 16.5q-6 0 -65.5 -12t-67.5 -12q-6 0 -24.5 9t-27.5 9q-6 0 -27.5 -9t-29.5 -9q-6 0 -6 2v0q-2 4 -8 4t-15 -17q-8 -23 -14 -28 q10 -16 10 -29q0 -18 -61 -72q12 -6 39 -32q20 -29 20 -97q0 -27 -41 -65q6 -10 25 -27q47 47 119 47q8 0 35.5 -11t31.5 -11q8 0 48 11t48 11q18 0 42 -15.5t73 -49.5q8 -33 -4 -54l35 -18q0 -16 -6 -57q2 0 5 3t11 3q20 0 35 -31q10 -20 -8 -61l22 -11q14 -8 30.5 -38.5 t16.5 -51.5q0 -14 -26 -39q-18 -14 -37 -30q10 -14 37 -33q16 -10 16 -35q0 -51 -14 -76q-18 -31 -76 -88l12 -8q16 -10 33 -20q4 -4 4 -21q0 -37 -16 -57q-29 -33 -88 -88q-14 -6 -39 -17q-14 -16 -49 -49q-94 -68 -125 -67q-6 0 -42 6t-42 6q-8 0 -36 -8.5t-36 -8.5 q-16 0 -31 11q-23 14 -26 16q-20 2 -66 10q-2 4 -10 13q-18 -4 -49 13t-31 40q0 8 6 16q-57 10 -63 60q0 2 8 59q-39 29 -39 59q0 27 14 43q20 25 111 93q27 20 108 20q14 0 66 -33q8 -37 8 -35q0 -12 -35 -36q-20 -14 -43 -27q18 -14 58 -47q-2 -20 -8 -60q18 -18 18 -47 q6 -4 18 -14q10 23 47 61q35 20 66 21q6 0 19.5 -9t21.5 -9q2 0 24.5 26.5t49 41.5t45.5 15q6 0 5 -3t7 -3q4 0 21 15q-37 55 -37 67q0 6 15 27.5t15 28.5q0 8 -11 29.5t-11 45.5q-31 -6 -57 6q-33 16 -33 52q0 23 29.5 55.5t52.5 32.5q8 0 8 -2t8 -2q10 0 27 30 q-16 14 -47 43q0 14 -5 39q0 2 -18 6q-12 20 -37 58q-6 -2 -27.5 -24.5t-29.5 -22.5h-62q-37 0 -45 77q-23 -18 -80 -40q0 -2 6.5 -11.5t6.5 -17.5q0 -6 -35 -45q-23 -23 -49 -39q-66 -37 -123 -37t-57 68q0 23 12 34q23 20 35 43q-12 6 -36 21.5t-24 44.5q0 43 31 76 q10 8 33.5 26.5t36.5 32.5q-25 10 -45.5 22.5t-20.5 45.5q0 8 14.5 32.5t14.5 32.5q0 6 -11.5 15.5t-14.5 13.5t-3 29q0 37 25 57q8 6 53 29q-37 29 -37 53q0 18 37 53q-2 2 -13.5 11.5t-11.5 19.5q0 20 8.5 50t53.5 44q61 20 98 21q31 0 68 -25q14 23 41 51q35 20 55 21 q31 0 69.5 -22.5t41.5 -37.5q-12 -12 -9 -24q4 -10 21 -11q6 0 43 17.5t45 17.5q6 0 20.5 -12t20.5 -12q4 0 41 37h16h47q8 0 31 -10.5t31 -10.5q20 -31 20 -39z" />
<glyph unicode="6" horiz-adv-x="1148" d="M969 915q0 -20 -25.5 -43.5t-46.5 -23.5q-43 0 -86 39q-31 31 -63 61q-25 14 -62 49q0 20 -14 52q-16 6 -49 18q-16 16 -43 39q-16 4 -35 8q-29 8 -45 35q-6 -33 -11 -66q-10 -41 -67 -41q-16 0 -64 13q-2 -14 -6 -45q-10 -39 -59 -39q-25 0 -23 2q0 -2 -2 -3t-2 -9 q0 -14 47 -62v-143q-4 -4 -18 -11q0 -8 -17.5 -36.5t-17.5 -34.5q0 -33 8 -33q41 0 129 49q6 12 23 31q41 33 80 33q6 0 31.5 -12.5t32.5 -12.5t11.5 -6t12.5 -6q6 0 40 21.5t42 21.5q35 0 71 -43q12 -16 15 -66q27 -12 73 -43q18 -16 19 -59q0 -4 -14 -105q14 -6 38 -18 q25 -18 25 -51q0 -23 -27 -56q-16 -20 -53 -20q-8 0 -8 -10q0 -6 26.5 -34t26.5 -36t-18.5 -35.5t-18.5 -36.5q0 -6 12.5 -26.5t12.5 -28.5q0 -29 -43 -63q-14 -4 -35 -15q-29 -29 -70 -90q-47 -72 -65.5 -93t-52.5 -21h-41q-43 0 -64 28q-4 -2 -26 -22q-14 -12 -37 -13 q-6 0 -6 2v0q-2 4 -9 5q-14 0 -14 -13l-4 8q-72 14 -90 15q-8 0 -11 -2t-10 -2q-20 0 -42.5 24.5t-22.5 42.5q0 20 29 47q-8 20 -27 21q-23 0 -47 -25l-12 13q2 -6 -11 -7q-31 0 -55 31q-8 12 -6 68q-6 4 -25 20q-18 25 -18 55q0 29 59 60q-4 4 -65 41q-29 18 -29 59 q0 25 8 37t25 23q-16 68 37 96q-4 14 -4 39q6 18 34 47l-45 45q-2 8 -2 22q0 6 10.5 23.5t10.5 28.5q0 20 4 65q8 4 20 13q2 4 -14 32q-8 16 0 49t27 35q-10 14 -11 31q0 16 17.5 67.5t44.5 59.5q2 0 10 8q-14 10 -35 39q-2 4 -2 29q0 82 92 82q47 0 97 -29q8 -2 12 2 q-27 16 -64 57q-6 18 -6 52q0 18 72 47q63 25 76 24q6 0 17 -6t18 -6q8 0 16 12.5t14 14.5q53 27 68 26q27 0 55 -18q23 -14 27 -27q2 -20 4 -43.5t27.5 -31t72.5 -23.5q10 -14 37 -33q76 -16 94 -49q4 -16 10 -47q16 -18 44 -47q51 -56 51 -97zM774 297q-29 2 -47 27.5 t-18 50.5q0 14 6 22q-25 8 -60 31q-18 20 -18 47l7 27q7 26 3 51q-18 -18 -45 -18q-55 0 -98 40q-35 -41 -58 -40q-8 0 -9 3t-9 3q-10 0 -45 -33t-80 -33q-6 0 -25.5 3t-29.5 3q0 -43 -23.5 -65.5t-23.5 -26.5q0 10 16 -41q-23 -39 -22 -49q6 -2 29.5 -29.5t23.5 -38.5 q0 -10 -21.5 -39.5t-38.5 -35.5q27 -39 25 -64h20q18 18 29 19q8 0 19.5 -7.5t15.5 -7.5q14 -4 29.5 -28.5t15.5 -47.5q0 14 -8 -49q-10 -6 -27 -18q29 -14 47 -14q14 0 8 4q4 39 17 49q45 47 76 47q20 0 98 -41q4 39 39 63q31 16 59 33q6 20 33 53q-20 27 -20 52 q-1 59 110 98z" />
<glyph unicode="7" horiz-adv-x="935" d="M743 963q0 -12 -8 -43l-26 -29q6 -41 -15 -78q-8 -8 -26 -29q0 -8 -4 -22q-8 -25 -43 -47q41 -63 41 -66q0 2 -23 -71q-4 -10 2 -35q-16 -14 -57 -41q10 -20 22 -25q-2 -4 3 -14t5 -17q0 -31 -36 -63q-16 -6 -41 -21q-8 -6 -18.5 -25.5t-16.5 -25.5q0 4 20 -16 q27 -27 27 -64q0 -20 -12 -34q-27 -25 -33 -39.5t-29 -44.5q-12 -12 -41 -27q-6 6 -28 6q-10 -16 -11 -35q0 -10 6.5 -29.5t6.5 -27.5q0 -31 -50 -172q-2 -6 -28 -18q12 -45 12 -82l-57 -43q-41 -29 -58 -29q-8 0 -41.5 -3t-40.5 -3h-36q-12 0 -31 28.5t-19 36.5q0 35 58 80 q41 27 82 53q0 14 4 48q6 6 20 24q-4 18 -4 57q2 8 12.5 30t10.5 30q0 6 -11.5 21.5t-11.5 21.5q0 27 19 86q16 18 53 59q8 0 24 4q0 10 7 33q16 10 51 39q-12 8 -39 59q8 43 6 52l-10 8q0 8 9 15l9 7q0 -12 -16 31q2 14 6 41q4 14 26.5 34.5t34.5 20.5q6 0 7.5 -3t7.5 -3 q0 23 4 15q-18 10 -8 79q31 23 90 76q2 8 -2 19.5t-4 15.5q-2 33 10 53q8 14 16 29q-2 53 12 76q16 14 46 45q-2 8 6 26q-8 6 -26.5 11.5t-29.5 9.5q-20 -41 -41.5 -58.5t-40.5 -17.5q-8 0 -8 4q2 4 0 6q-14 0 -41 4q-18 6 -57 45q-10 -20 -41 -47q-59 -18 -111 -18 q-6 0 -34.5 12.5t-34.5 12.5t-37 -12.5t-37 -12.5q-10 0 -37 37q-8 10 -8 35q0 27 55 149q6 14 37 14q41 0 70 -34q6 6 24 6q4 0 20.5 2t31.5 2q-8 61 63 61q37 0 56.5 -25.5t13.5 -52.5q6 0 15 3.5t15 3.5q8 0 42 -9.5t40 -9.5q8 0 14.5 12.5t12.5 16.5q29 14 78 14 q6 0 9 -9t11 -9q6 0 21.5 3t21.5 3q39 0 66 -31q20 -25 20 -49q-2 -23 -22 -53q28 -45 28 -53z" />
<glyph unicode="8" horiz-adv-x="1079" d="M909 125q0 -27 -14 -49q-4 -4 -53 -47q4 -55 6 -52q-10 -18 -27 -55q-2 -4 3 -19.5t5 -19.5q0 -29 -24 -55q-18 -18 -57 -27q-47 -10 -58 -18q-16 -8 -61 -51q-39 -35 -47 -35q-18 0 -29 -10q-8 2 -23 2q-14 -16 -47 -43q-29 -14 -67 -15q-35 0 -54 19q-6 14 -18 41 q-6 -2 -30.5 -15.5t-32.5 -13.5q-31 0 -78 25q0 18 -17 53q-8 6 -24 22q-4 14 -19 45q-78 -8 -77 78q0 16 28 45q-16 12 -33 25q-31 23 -30.5 39t-1.5 31q0 23 16 30q4 2 0 6q-12 2 -25 21q-20 43 -20 55q0 29 43 53q33 20 45 21q8 0 16.5 -4t14.5 -4q8 23 26 69q2 6 -4 30 t-6 34q0 25 35 49q27 16 55 35q-20 16 -35 45q2 23 -4 59q-10 23 -30 41q-27 23 -35 35q-16 23 -35.5 66t-19.5 55q0 27 6 100q2 12 32 47q-6 12 -14 35q2 -6 6 49q35 23 43 52q4 20 11 43q12 12 34 36q35 45 60 62q27 10 65 43q31 14 58 14q20 0 49 -31q47 31 67 31 q31 0 60 -18q0 -2 -2 -2v-2q2 -2 8 -2q8 0 5 6t3 6q-8 0 55 -14q37 -8 52 -54q4 -12 -2 -32q-12 -37 -13 -37q20 -14 40 -29.5t20 -36.5q0 -27 -31 -72q41 -23 82 -45q49 -33 49 -69q0 -33 -33 -58q-23 -14 -45 -28q18 -37 19 -33q0 -16 -21 -51q-12 -8 -35 -21 q-31 -23 -39 -22q-14 0 -20 6l-10 -8q33 -29 32 -64q0 -12 -6 -33q-4 -16 0 -20q12 -31 33 -57q8 0 21.5 -6.5t42.5 -26.5q0 -10 12 -27q20 -2 65 -14q43 -20 43 -57q0 -6 -12 -32t-12 -34q0 -20 61 -72q4 -6 4 -18zM608 748q0 10 -4 14q-43 39 -43 72t29 71q-59 -2 -60 72 q0 33 25 45q-6 6 -27 6q-14 2 -41.5 -1t-31.5 -3q-6 0 -52 31q-8 -20 -32 -56q-8 -6 -109 -59q-4 -33 -6 -40t-11 -20.5t-9 -19.5q12 -4 28 -16q0 -10 9.5 -30.5t9.5 -27.5q0 -14 -7 -10q-10 -14 -18 -26q-16 -20 -16 -37q0 -8 37 -41q41 -39 49 -60q0 -23 -2 -63 q18 -25 18 -27q23 31 57 31q8 0 10.5 -3t10.5 -3t19.5 15.5t17.5 17.5q43 6 125 16q-23 57 -23 74q0 8 23.5 39t23.5 39zM702 94q-31 27 -30 62q0 14 6 36.5t6 30.5q0 14 -8 23h-6q-47 -2 -80 18q-39 25 -31 70l-4 -3t-12 -3q-29 0 -49.5 28.5t-16.5 59.5h-31q-12 0 -30 -17 l-15 13q-10 -18 -24 -19q-8 0 -14.5 2t-8.5 2q14 -4 4 -75q-39 -33 -61 -74q-6 -27 -14 -55q-10 -41 -33 -41q-6 0 -25.5 -3.5t-25.5 -3.5q-14 0 -37 13q-4 -20 -15 -54q23 10 33 11q68 -27 68 -52q0 2 -41 -81q2 0 5 2t13 2q33 0 60.5 -20.5t27.5 -53.5q0 -8 -2 -23.5 t-2 -21.5q10 18 60 18q49 0 65.5 -22.5t14.5 -77.5h22q14 14 39 43q16 20 35.5 45t36.5 29q55 14 47 14q8 0 16 -6l8 -6q0 6 9 14q-41 51 -41 82q0 10 31.5 45t49.5 49z" />
<glyph unicode="9" horiz-adv-x="1046" d="M831 774q0 -59 -47 -90q4 -18 14.5 -25.5t10.5 -44.5q0 -33 -21 -65q-8 -6 -20 -19q27 -57 -6 -118q-2 -16 -14 -54q-8 -2 -23 -10q0 -6 5 -18.5t5 -16.5q4 -33 -2 -69q14 -10 29.5 -41t15.5 -51q0 -4 -26 -41q-6 0 -23.5 -3.5t-26.5 -3.5h-55q-10 0 -27.5 24t-17.5 36 q0 23 29 65q-14 6 -41 25.5t-35 19.5q-6 0 -32.5 -17t-76.5 -17q-33 0 -81 12q2 -16 -3 -35q-31 -37 -55 -37q-39 0 -104 27q-4 8 -10 57q-27 12 -74 37q-25 14 -33 111q-12 6 -31 20q-27 33 -26 53q0 39 43 70q-10 12 -45 33q-27 14 -27 39q0 51 66 94q-2 4 -21.5 25.5 t-19.5 29.5q0 31 32.5 59.5t32.5 43.5q0 4 -4 14q10 23 33 63q-6 8 -31 25q-16 10 -16 33q0 43 28 71q23 23 54 23q6 0 17 -9t17 -9q4 0 24.5 27.5t55.5 39.5q20 8 19 8q6 0 9 -5t10 -5t16.5 -3t17.5 -3q12 0 13 15.5t3 19.5q29 31 66 30q51 0 88 -48t90 -48q4 0 24.5 12.5 t32.5 12.5q43 0 64.5 -20.5t25 -49.5t5.5 -55q14 -6 39 -21q12 -14 38 -47q2 -4 2 -20q0 -29 -18 -39q-29 -16 -39 -35q6 -6 31 -12zM778 4q0 -25 -19.5 -38l-37.5 -25q2 -2 8 -7q0 -6 4 -22t4 -27q0 -23 -22.5 -35t-25.5 -29.5t-13 -51.5q-18 -25 -105 -39 q-27 -68 -116 -68q-6 0 -19.5 5t-19.5 5t-38 -5t-38 -5t-26.5 23.5t-26.5 23.5q-8 0 -41 -6t-39 -6q-8 0 -13.5 5t-9.5 11q-23 4 -69 8q-33 33 -33 60q0 20 18 39v14q-31 -4 -65.5 15.5t-34.5 54.5q0 -6 23 51q2 4 -4.5 21.5t-6.5 23.5q0 47 13 78q6 14 31.5 34.5t35.5 20.5 q6 0 88 -27q2 -8 41 -44.5t39 -61.5q0 -8 -24 -47q51 -47 38 -100q-6 -37 -8 -27q6 -4 33 -23q16 -12 27 -12q4 0 19 22.5t22 28.5q23 14 73 15q12 0 47 -41q23 25 78 73q-4 6 -4 13q0 41 66 69q-12 23 -13 41q0 33 31 54q25 14 49 14q33 0 58.5 -23.5t25.5 -52.5zM684 680 q-59 0 -59 68q0 25 8 43q-10 33 -50 50t-40 62q0 35 47 78q-16 0 -54 7t-42 7q-43 0 -84 41q-23 -35 -56 -35q-8 0 -24.5 3.5t-22.5 3.5q-20 0 -28 -21q-8 -18 2 -31q-14 -12 -18.5 -52t-37.5 -58q0 -12 -2 -35q-6 -8 -14 -20q0 -20 2 -41q-2 -35 -33 -60q14 -43 6 -121 q-25 0 -24 -10q29 -27 33 -74q2 -18 32 -45q25 -20 49 -41q35 35 56 35q35 0 90 -18q27 -16 29 -17q6 0 21 11.5t24 11.5q8 0 12 -2t6 -2q6 98 88 98q6 0 8 -2t8 -2q20 0 21 23q-88 14 -88 67q0 27 21.5 53.5t43.5 26.5q4 0 33 -2h37z" />
<glyph unicode=":" horiz-adv-x="567" d="M319 608q0 -12 -14 -40.5t-29 -37.5q-27 -14 -51 -14q-45 0 -63 21q-10 23 -33 57q-20 8 -55 24q-33 27 -33 64q0 35 58.5 88t99.5 53q6 0 21.5 -6t21.5 -8q10 -12 26 -37q10 -16 8 -49t2.5 -41t22.5 -37t18 -37zM342 211q0 -10 -2 -16q-12 -16 -41 -48q-6 -2 -16 -4 q-14 -25 -54 -67q-31 -18 -49 -19h-28q-53 0 -84 60q2 6 2 18q-14 4 -39 12q-31 14 -31 46q0 68 66 88q6 23 24 57q27 20 76 20q76 0 88 -67q23 -6 57 -25q31 -30 31 -55z" />
<glyph unicode=";" horiz-adv-x="530" d="M336 801q0 -8 -12 -25q-18 -20 -21 -26q-2 -16 -10 -43q-12 -14 -22.5 -28.5t-30.5 -14.5q-4 0 -16.5 -5.5t-20.5 -5.5q-27 0 -91.5 40t-64.5 61q0 25 23 73q2 23 8 60q6 18 29.5 39.5t39.5 21.5q31 0 76 -26q4 -10 23.5 -21.5t56.5 -26.5q33 -50 33 -73zM272 172 q0 -39 -51 -94q-18 -12 -45 -39q-6 8 -10 2q12 -29 8 -47q-2 -14 -28.5 -49t-45.5 -35h-37q-16 0 -39.5 24.5t-23.5 36.5q0 63 59 95q-16 27 -41 81q2 20 -2 66q-16 47 -16 45q0 82 109 82q61 0 84 -10q47 -23 38 -92q41 -41 41 -66z" />
<glyph unicode="=" horiz-adv-x="1126" d="M903 750q0 -6 -43 -58q-14 -2 -51 -12t-45 -10q-6 0 -22.5 6t-24.5 6q-2 0 -47 -8t-80 -12q-4 0 -13.5 -7.5t-15.5 -7.5q-8 0 -34.5 11.5t-32.5 11.5q-8 0 -36 -23.5t-36 -23.5q-6 0 -61.5 18t-61.5 18q-8 0 -11 -3t-12 -3q-20 0 -67 35h-16l-15 -43q-10 -33 -28 -33 q-6 0 -30 -3t-32 -3q-51 0 -76 45q-18 39 -12 90q14 10 47 47q16 18 53 19q8 0 9.5 -3t9.5 -3t49 33q14 2 53 2q6 0 39 -27t41 -27t34.5 15.5t33.5 15.5q6 0 24.5 -9t26.5 -9q6 0 31.5 9t31.5 9q8 0 34 -12.5t34 -12.5q27 0 55.5 14.5t34.5 14.5t29.5 -5t31.5 -5t12.5 5 t10.5 5q23 0 51.5 15.5t32.5 15.5q37 0 65.5 -31.5t28.5 -66.5zM926 512q0 -37 -27 -57q-31 -27 -55 -27q-8 0 -12.5 3t-6.5 3q-6 -18 -24 -39q-61 -20 -53 -20q-8 0 -12.5 6t-12.5 6q-14 0 -41 23q-31 -6 -80 12t-53 18q-6 0 -34 -6t-40 -8q-6 -8 -16 -20q-6 4 -21 0 q-18 -6 -22 -7q-6 0 -18.5 4.5t-16.5 6.5q-10 0 -27.5 -2t-23.5 -2t-11.5 -6.5t-11.5 -6.5q-39 0 -57.5 11.5t-24.5 11.5t-22.5 -9.5t-24.5 -9.5t-28.5 -2t-28.5 -2q-10 0 -36 26.5t-26 39.5q0 49 30 77.5t71 28.5q6 0 39.5 -18.5t40.5 -18.5q6 0 16 3.5t18.5 3.5t12.5 6 t12 6q6 0 19.5 -12.5t21.5 -12.5l82 31q14 12 41 27q49 8 59 8q8 0 23.5 -14.5t23.5 -14.5t28.5 11.5t27.5 11.5q6 0 26.5 -5.5t28.5 -3.5l27 -36q18 -25 28 -25q20 0 31 20q4 14 20 35q31 20 76 21q20 0 42 -30t22 -46z" />
<glyph unicode="A" horiz-adv-x="1216" d="M1004 178q0 -23 -50.5 -57.5t-62.5 -34.5h-70q-20 0 -41 31q-2 4 -8 41q-70 18 -70 84q0 29 41 65q-39 14 -43 17q-29 16 -32 43q0 12 8 47q6 18 2 45q-4 29 -14 28q-6 0 -46 -6t-49 -6q-6 0 -41 17q-41 18 -51 21t-26 3q2 0 -21.5 -23.5t-48.5 -23.5q-6 0 -38 7t-44 7 q-18 29 -33 29q-16 0 -22 -10q6 -20 2 -53q-10 -4 -10 -11v-12q18 -12 35.5 -24.5t17.5 -26.5q0 -6 -6.5 -24.5t-8.5 -24.5q-14 -6 -18 -13q2 -10 2 -18q0 -31 -59 -70q-14 -8 -33 -37q-23 -35 -27 -38t-19.5 -10t-21.5 -7q-18 0 -61 27q-10 10 -29 28q-8 8 -8 27q0 2 40 45 t40 90q0 16 -6 33q-14 53 -13 74q25 31 78 88q-4 12 -4 24q0 61 72 76q-8 2 -23 10q0 4 -6 20.5t-6 24.5q0 14 18 45q-8 59 -8 46q0 45 66 67v21q-53 -8 -53 57q0 29 10 37q25 18 33 31q-14 20 -15 47q0 66 68 67q0 4 -4 14.5t-4 18.5q0 6 10 40t12 50q10 12 29 41v35 q0 41 55 72q-6 4 -17.5 29.5t-11.5 33.5q0 14 14.5 32.5t28.5 33.5q-4 23 0 47q0 8 27 26.5t39 18.5q37 0 66 -15q6 -4 21 -21.5t19 -17.5q6 0 15.5 3.5t17.5 3.5q41 0 74 -29q4 -6 12 -10q4 -33 -2 -58q23 -12 66 -43q8 -14 6 -98l10 -6q0 -84 -31 -102q18 -37 19 -48 q0 -23 -18.5 -40t-24.5 -29q37 0 63.5 -24.5t26.5 -57.5q0 -6 -14.5 -26.5t-16.5 -26.5q47 -29 47 -64q0 -31 -26.5 -51.5t-57.5 -20.5q-29 0 -67 17q-49 23 -49 55q0 27 30 68q-20 25 -47 32v76q12 8 41 27q-23 14 -74 51q-2 6 -2 29v26q4 12 35 37v99q-25 12 -48 25 t-21 32q-10 -10 -36 -24.5t-26 -22.5q0 -6 15.5 -35t15.5 -39q0 -31 -35 -55q2 8 2 -29q0 -4 -6 -16.5t-6 -18.5q0 -55 2 -41q-4 -23 -27 -37q-12 -2 -41 -18q2 -14 2 -41q-10 -14 -32 -45q6 -6 17 -13t13 -12.5t6.5 -23t4.5 -25.5q0 -55 -72 -82q25 -18 24 -45 q0 -41 -14 -106q-2 -10 -27 -35q14 -16 29 -16q8 0 90 63q10 8 58 8q31 0 63.5 -35.5t58.5 -35.5h19l65 51q-16 8 -45 28q-14 14 -14 41q0 18 18.5 37t36.5 35q45 8 43 8q8 0 56.5 -24.5t50.5 -38.5q6 -35 -8 -68q23 -14 43 -28.5t20 -47.5q0 -27 -30.5 -48t-63.5 -42 q18 -16 94 -45q41 -14 41 -61l-35 -53q12 -10 25.5 -21.5t19.5 -32.5q4 -16 -8 -51q0 -2 35 -39q23 -22 23 -45z" />
<glyph unicode="B" horiz-adv-x="1138" d="M938 412q0 -27 -53 -93q41 -41 41 -53q0 -33 -23.5 -56.5t-23.5 -35.5q0 -4 18 -20.5t18 -26.5q0 -6 -7 -27.5t-7 -29.5q-27 2 -29 -31q-4 0 -14 12q-4 -2 -11 -10t-16 -8q-6 0 -5 3t-5 3q-8 0 -27.5 -24.5t-34 -33t-57.5 -8.5q-51 0 -75 9q-4 2 -16.5 15t-20.5 13 q-6 0 -18.5 -13t-20.5 -15q-41 -14 -68 -15q-6 0 -38.5 12.5t-41.5 12.5q-8 0 -11 -8l-3 -9q-72 -18 -70 -18q-8 0 -16 5t-14 5t-9.5 -2t-11.5 -2l-24 23q-23 -8 -29 -21.5t-35 -13.5q-74 0 -74 82q0 27 41 67q-41 23 -41 58q0 6 11.5 86t11.5 88q0 4 -13.5 19.5t-13.5 27.5 q-2 8 6.5 32.5t10.5 39.5q0 6 -12.5 25.5t-12.5 25.5q0 53 53 86v8q-43 0 -69 41q2 14 2 47q0 4 -7 20.5t-7 24.5q0 12 18 51q8 6 25 23q-2 4 0 12q4 10 4 19q0 10 -2 26q-6 10 -39 12q-35 37 -23 68q2 8 8 23q-10 -2 -10 12l6 6q-6 10 -6 27q0 55 47 86q-14 10 -31 20 q-29 23 -28 43q0 25 47 72l-49 24q-33 16 -33 45q0 49 51 78q16 2 51 10q12 12 41 31q20 8 56 8q6 0 31.5 -11t31.5 -11q8 0 14.5 12t10.5 15q18 14 53 14q31 0 115 -55q6 -6 22.5 -29t24.5 -23q4 0 15 10.5t15 10.5q14 2 37 4q8 4 23 18q8 10 39 11q35 0 70.5 -30t43.5 -73 q2 -16 28 -50t44 -34q12 -18 31 -51q-2 -16 4 -41q2 -6 14.5 -20.5t12.5 -22.5q0 -23 -70 -78q53 -53 53 -63q0 -16 -41 -62l8 -32q2 -10 -12 -48q-6 -20 -63 -34q-4 -6 -29 -62q35 -23 86 -74q29 -27 72 -84q-2 -16 -2 -53l32 -24q25 -20 25 -43zM725 1010q-4 0 -14.5 3 t-29.5 20.5t-19 31.5q0 10 6 22.5t6 16.5q0 6 -17 33q-14 18 -8 32q-4 2 -25.5 2t-43.5 41q-6 10 -2 41q-16 0 -42 6.5t-32 6.5t-23.5 -8.5t-23.5 -8.5t-48 17.5t-49 17.5q-2 0 -25.5 -32.5t-39.5 -32.5q-55 0 -82 -7q12 -14 25 -26q16 -18 16 -31q0 -18 -28.5 -40.5 t-43.5 -16.5q25 -8 51.5 -29.5t26.5 -34.5q0 -31 -31 -59l31 -45q0 -8 -12 -33q12 -2 37 -10q6 -10 23.5 -28.5t17.5 -24.5q0 -37 -54 -52l-12 -16q12 0 12 -12h49h35q-2 0 90 12q2 0 34 25.5t63 25.5q8 0 21.5 -2t19.5 -2q8 0 21 6t18 6q25 51 24 56q0 53 -2 45 q21 61 80 84zM762 326q-37 35 -37 59q0 6 10 35t13 37q-4 -2 -9 -2q-25 0 -49 30.5t-18 49.5q-2 0 -5 -3.5t-12 -3.5q-25 0 -41 35q-4 12 -10 29q-43 0 -117 6q-6 0 -20 12.5t-21 12.5q-6 0 -19 -5.5t-19 -5.5q-8 0 -61.5 8.5t-59.5 8.5t-36 -11.5t-38 -11.5t-25 -16 q39 0 62 -17q39 -27 39 -57q0 -6 -11.5 -24.5t-11.5 -24.5t14.5 -30.5t14.5 -30.5q0 -8 -11.5 -26t-11.5 -26q0 -6 7.5 -20.5t7.5 -20.5q0 -8 -4 -26.5t-4 -26.5q0 -6 7 -21.5t7 -19.5q-2 18 -2 -82q0 -14 18.5 -29.5t26.5 -15.5q10 0 15 3t11 3q8 0 13.5 -6t11.5 -6 q4 0 50 39t100 39q-4 0 139 -27q12 -8 37 -20q2 10 22.5 36.5t20.5 32.5t-17.5 31t-17.5 31q0 23 41 78z" />
<glyph unicode="C" horiz-adv-x="1064" d="M932 995q0 -66 -68 -65q-6 0 -15 6t-20 6q-4 -4 -4 -29q-14 2 -26.5 -11t-24.5 -13q-8 0 -27.5 6t-25.5 6q-70 0 -70 51q0 18 11 45q-2 2 -29 11q-10 4 -20.5 27.5t-10.5 33.5q0 37 35 59q-12 10 -49 23q-12 16 -27 70q-8 -2 -29 0q-6 2 -26.5 15t-28.5 13 q-4 0 -26.5 -12t-44.5 -14q-2 -10 -17 -33q-31 -25 -53 -25q-6 0 -11.5 6.5t-11.5 6.5q-4 0 -37 -15q6 -14 23 -39q4 -12 -8 -26q0 -2 5 -8.5t5 -14.5q0 -51 -8 -67q-4 -8 -41 -15q-4 -33 -25 -90q-6 -8 -26 -12q-27 -6 -35 -10q43 -29 53 -60q0 -8 -6 -32.5t-6 -36.5 q12 -14 20 -21q0 -8 4.5 -40t4.5 -38q0 -2 -5.5 -34.5t-3.5 -47.5q-10 -10 -61 -51q53 -14 53 -78q0 -6 -10 -23.5t-12 -29.5q-4 -10 4 -31q10 -27 10 -39q0 -18 -19.5 -54t-19.5 -40q0 -37 6 -45q10 -14 47 -34.5t50.5 -32t13.5 -47.5q0 -8 -10 -25q-14 -23 -19 -33 q12 -4 40 1t30 5q6 0 33.5 -11t35.5 -11q6 0 30 3t32 3q23 0 43 51q-12 80 0 111q16 18 49 28q55 18 59 20.5t25 2.5q12 0 12 10q0 18 -23.5 32.5t-23.5 39.5q0 35 21 67q78 33 114 33q47 0 56 -78q8 -12 26 -12v-49q2 -33 -26 -53q6 -68 6 -70q-2 -41 -27 -61 q-33 -25 -67 -25q-8 0 -11 3l-4 3q-2 -20 -14 -57q-29 -53 -53 -78q-16 -4 -45 -20q-16 -18 -54 -43q-35 -14 -49 -15q-6 0 -29.5 10.5t-35.5 10.5q-55 -2 -172 4q-6 0 -24.5 8t-27.5 8q-8 0 -9 -3t-9 -3q-12 0 -25 27q-25 47 11 88q-37 18 -95 59q-20 25 -41 86 q-18 53 -18 68q0 14 18 112q6 31 54 76q-31 18 -31 66q0 33 18 53q-14 6 -39 29q-8 12 -8 32q0 31 39 76v-2q2 0 2 2v8t-47 35q0 18 2 45q4 6 15 19q0 90 55 122q-2 4 -43 27q6 43 31 158q2 4 81 67q-16 2 -31.5 22.5t-15.5 41.5q0 29 15 41q27 29 88 80q12 8 33 8 q8 0 23 -5t22 -5q6 0 21 3t24 3q45 55 71 55q12 0 43 4t37 4q8 0 27.5 -11t25.5 -11q8 0 16.5 5t14.5 5t38 -14.5t38 -14.5q8 0 11 3t9 3q41 0 71 -27.5t93 -88.5q2 2 8 -27q2 -8 -8 -37q16 -6 39 -28q6 -25 21 -70q20 -18 47 -51q4 10 4 -19z" />
<glyph unicode="D" horiz-adv-x="1193" d="M991 580q0 -12 -59 -70q-12 -18 -41 -49q2 -6 13 -23.5t11 -25.5q0 -16 -22 -58q-6 -4 -21 -12q12 -8 36 -30.5t24 -47.5q0 -33 -29 -52t-51 -19q-8 0 -11 3t-5 3q-2 -4 -2 -43t-62 -62q18 -47 4 -65t-55 -47q4 -12 2 -35q-18 -49 -100 -51q-6 -12 -29 -43 q-10 -4 -29 -11q-12 -14 -37 -37q-6 -2 -26.5 -5t-28.5 -3t-49 9.5t-49 9.5t-83 -12.5t-83 -12.5q-6 0 -18.5 3t-18.5 3q-8 0 -28.5 -15t-28.5 -15q-6 0 -13.5 3t-13.5 3q-31 0 -56.5 19.5t-25.5 60.5q0 37 39 67q0 14 1 31.5t20 32.5q-23 16 -48 32q-12 10 -12 35 q0 33 29 74q-2 12 -35 27q-8 49 29 84q51 45 59 71q-33 12 -39 29q-20 47 -20 86q0 23 8 35q23 37 55 37q6 0 9 -3.5t12 -3.5q14 0 47 33q-2 4 -45 33q-4 4 -11 37q-25 12 -26 22q-2 2 -2 31q0 35 30 59q-18 8 -53 35q-4 31 19.5 67t46.5 70q0 4 -4 29q-4 18 -2 31 q2 6 12 18.5t10 16.5q0 -4 -6 16q-8 4 -27.5 35t-19.5 43q0 29 27 41q23 6 45 14q-14 6 -35 27q0 27 -15 76q-10 8 -36 34q-2 8 -2 17q0 12 21.5 45t45.5 33q41 0 82 -27q10 -12 31 -31q23 -8 43 -14q35 -12 51 -35q27 18 53 19q6 0 21.5 -3.5t21.5 -3.5q8 0 28.5 9.5 t27.5 11.5q27 8 59 8q12 0 66.5 -19.5t82 -36t27.5 -57.5q33 -10 92 -36q8 -12 25 -35q4 -4 33 -21q18 -12 24 -32q2 -8 -8 -66q20 -8 38.5 -32.5t18.5 -41.5q0 -53 -41 -57q23 -43 25 -80q20 -6 35 -33q18 -37 22 -41q-35 -49 -35 -55q0 -8 17.5 -31.5t17.5 -29.5zM815 639 q-23 16 -39 70q-51 27 -51 55q0 18 14.5 44t32.5 32q37 12 43 22q-20 14 -27 23q-12 12 -14 30q2 16 2 41q-63 27 -76 60q-16 6 -32 18q-14 35 -15 66q-20 0 -63 13t-62 13q-20 16 -26 17q2 0 -22.5 -20.5t-63.5 -20.5q-2 0 -74 16v-20q2 -4 13.5 -17.5t11.5 -19.5 q0 -59 -68 -60q-8 0 -10 3.5t-8 3.5q-10 0 -23.5 -17.5t-15.5 -29.5q10 -4 22 -29t12 -35q0 -12 -16 -43q2 0 4 3t10 3q25 0 52.5 -27.5t27.5 -46.5q0 -25 -8 -34q-12 -16 -39.5 -37t-38.5 -21q-6 0 -31.5 5.5t-35.5 5.5q14 -10 32 -33q39 -61 39 -92q0 -20 -18 -43 q59 -45 59 -78q0 -16 -17 -42t-32.5 -33t-38.5 -30q12 -6 29.5 -31.5t17.5 -41.5q0 -31 -14 -72q-8 -23 -39 -41t-37 -27q37 -45 37 -69q0 2 -41 -78q27 -10 53 -62q111 41 144 41q8 0 32.5 -8t32.5 -8q6 0 19.5 17.5t21.5 17.5t15.5 -3t13.5 -3q12 0 37 22q39 37 41 39 q0 14 4 35q16 35 49 53q0 20 4 53q12 16 31 48q-27 14 -14 59q8 25 33.5 37t47.5 22q-23 25 -22 52q0 23 22 69q-23 0 -22 39q0 53 74 82q0 2 20 43z" />
<glyph unicode="E" horiz-adv-x="987" d="M831 1145q0 -25 -22.5 -46.5t-44.5 -21.5q-6 0 -43 -3t-45 -3q-6 0 -20.5 12.5t-20.5 12.5q-10 0 -23 -11q-23 -2 -88 -2q-6 0 -33.5 12.5t-33.5 12.5q-10 0 -17 -16q-53 -20 -71 -21q-20 0 -47 4q2 -10 -13 -10q-6 0 -39.5 9t-42.5 9q-6 0 -21.5 -9t-23.5 -11v-12 q53 -31 54 -56q0 6 -17 -32q-16 -4 -47 -19q-2 -8 4 -22.5t6 -22.5q0 -18 -28 -31q31 -16 63 -32q43 -29 43 -68q0 -25 -37 -47q20 -23 56 -70q10 -16 12 -30q2 -4 18 -5q8 0 24.5 3.5t22.5 3.5q12 0 84 -39q6 -2 15 -2q6 0 31.5 12t34.5 15t57 3q37 0 66.5 -26.5 t29.5 -50.5q0 -20 -23 -58q-4 0 -16 -10t-19 -12q-39 -4 -116 -17q-6 -2 -20.5 -10t-25 -8t-36 -2t-31.5 -2q-8 0 -45 18q-45 18 -66 25q4 -16 5 -51q-10 -10 -25 -37q2 -29 -14 -76q47 -57 47 -74q0 -20 -35 -45q16 -8 39 -35q14 -29 14 -37t-18 -24l-27 -27q-12 0 -43 -6 q29 -18 80 -53q0 4 4 -57q18 -20 45 -21q8 0 36 -6t36 -6q6 0 26.5 8t28.5 8t9 -2t10 -2q14 0 28 21q18 33 29 40q68 8 63 9q39 0 81 -31t42 -61q0 -27 -17.5 -53.5t-31.5 -30.5q-35 -2 -106 -15q-2 -4 -11 -14q-16 -4 -55 -23q-18 -8 -53 -8q-6 0 -38 6t-39 6t-10 2.5 t-9 2.5q-20 0 -71.5 -20.5t-102.5 -20.5q-6 0 -21.5 6t-24 6t-21.5 15.5t-13 25.5q0 47 82 110l-58 15q-37 10 -37 47q0 25 23.5 55.5t48.5 36.5q-8 6 -43 20q-23 8 -23 37q0 25 23 60q-57 39 -57 59q0 25 22 57q-33 27 -37 29q-10 12 -10 35q0 6 8 22.5t8 22.5q0 78 3 92 q-12 23 -13 51q0 23 11.5 36.5t21.5 27.5l2 -2v2v8q0 4 -6 25q-82 49 -82 69q0 27 25 58q12 18 26 34q8 29 27 66q0 4 -10 10q-18 0 -37 18.5t-19 32.5q0 23 25 45q18 14 39 29v17q0 18 -2 20q2 -6 -13 -6q-61 0 -61 100q0 53 20 74q6 6 17.5 10l34.5 12q16 20 43 56 q41 8 39 8q8 0 28.5 -8t26.5 -8q8 0 8 2t8 2q6 0 18.5 -10.5t14.5 -10.5q57 -16 168 -55q4 106 76 106q41 0 125 -77l43 30q4 0 8 3t12 3q39 0 82 -26q16 -10 37.5 -41t21.5 -43z" />
<glyph unicode="F" horiz-adv-x="884" d="M715 1276q0 -29 -21 -53q-31 -39 -65 -39q-8 0 -11.5 3t-9.5 3q-8 0 -51 -17.5t-49 -17.5t-35 14.5t-37 14.5q-2 0 -25.5 -4t-35.5 -2q2 -14 0 -39q-2 -10 -31 -36t-45 -26q-25 0 -72 25q-2 -2 -2 -27v-22q29 -33 29 -49q0 -6 -18.5 -27t-28.5 -27q12 -8 33 -26 q49 -82 49 -115q0 -6 -11.5 -29.5t-11.5 -31.5q0 -10 13.5 -22.5t23.5 -12.5q8 0 28.5 5t28.5 5q53 0 71 -14.5t67 -22.5q6 -10 12 -10t22.5 3t24.5 3q37 0 64.5 -22.5t27.5 -47.5q0 -31 -30.5 -57.5t-55.5 -26.5q-2 0 -38 9.5t-68 7.5q-6 0 -24.5 4t-26.5 4 q-8 -10 -13.5 -35.5t-18 -33t-67.5 -38.5q0 -20 -3 -42.5t-28 -45.5q0 -2 21 -14q10 -18 4 -25l6 -6q0 -18 -35 -41q4 -12 41 -32q0 -14 -15 -44t-15 -36t7 -20.5t7 -20.5q8 -10 22 -10q-31 -31 -30 -64q0 -18 23.5 -25.5t43.5 -13.5q10 -6 11 -29q-2 -29 0 -32 q4 -20 28 -31q-8 -16 -36.5 -50t-41.5 -42q-31 -6 -24 -6q-35 16 -43 16q-6 0 -18.5 -6t-18.5 -6q-41 0 -63 26q-2 20 -13.5 61.5t-11.5 45.5q0 6 11 21.5t11 23.5t-8 14t-14 11q-12 43 -12 92q14 6 32 28q-6 14 -6 47q0 4 7.5 18.5t7.5 22.5l-12 11q-13 12 -13 37 q0 16 4 38q-10 14 -24 50q-6 31 8 53q2 8 0 16q-2 4 -9.5 14.5t-7.5 18.5q0 45 12.5 66.5t43.5 23.5q2 2 7 3t9 3q-100 8 -100 99q0 8 20.5 39.5t20.5 39.5t-14.5 35t-18.5 37q4 8 0 16q-14 14 -35 43q-4 10 -4 29q0 49 41 72q-16 59 -27 86q-20 51 -47 67q0 4 -4 18.5 t-4 22.5l37 66q-4 25 -4 39q0 70 76 69q47 0 77 -30q6 8 17 22q20 20 65 21q8 0 33 -12.5t33 -12.5q6 0 24.5 6t24.5 6q8 0 39 -17t39 -17q6 0 23.5 3t25.5 3q8 12 25 31q27 20 69 20q37 0 74 -29.5t37 -60.5z" />
<glyph unicode="G" d="M969 1096q0 -33 -41 -54q-33 -18 -68 -18q-8 -6 0 -23q8 8 19 -4q-16 -6 -17 -10q0 2 6 -10t2 -29q-33 -27 -65 -53q-45 -35 -68 -35q-16 0 -45 43q-2 10 -10 29q-12 12 -37 35q-2 0 -2 14q0 41 43 76q25 6 74 30q0 14 8 46q-18 10 -51 30q2 20 -2 64q-23 2 -39 -4 q-4 -2 -24.5 -14.5t-28.5 -12.5h-29q-31 0 -66.5 20.5t-33.5 20.5q-47 0 -60 -68q-47 -31 -82 -41q-8 -8 -28 -24q-10 -2 -31 -4q-8 -12 -10 -37t-9 -31q-14 -16 -38 -51q66 -66 65 -90q0 -55 -53 -66q10 -20 22 -20q-4 -18 -12 -49q-12 -10 -33 -31q-12 -23 -49 -51 q-2 0 -10 -6q29 -25 63 -74q2 -12 2 -27q16 -10 37 -37q8 -18 8 -41q0 -12 -32 -59q-4 -16 -17 -43q-10 -6 -30 -27q14 -43 8 -65l-9 -11q-8 -10 -8 -18t27 -35.5t27 -35.5q0 -6 -11.5 -27t-11.5 -29q0 -2 57 -49q25 -20 46 -70q6 6 26 7q23 0 62 -21q12 -20 18 -20 q14 0 76 24q14 20 43 49l25.5 8.5t27.5 6.5l31 -6q31 -5 49 0q0 -2 -4 47q-2 33 12 47q2 6 2 14q-18 6 -33 35q-8 16 -8 43q0 25 29 44t53 40q-8 6 -26 16q-4 2 -19 45q-6 6 -16 7q-6 0 -24.5 -6.5t-24.5 -6.5q-25 0 -60 19q-18 12 -35 39q-68 6 -96.5 23.5t-28.5 66.5 q0 8 10.5 24.5t12.5 20.5q-4 23 2 57q12 10 31 31q10 0 40.5 7t39.5 7q6 0 42.5 -20.5t43.5 -20.5q6 0 27.5 6t27.5 6q8 0 33.5 -10t36.5 -12q29 -2 77 -10q12 -4 33 -28t21 -34q0 -8 -14.5 -34.5t-14.5 -34.5t3 -8.5t3 -2.5q35 -18 35 -59q0 -59 -53 -84q2 -8 19 -27.5 t17 -27.5q0 -12 -36 -94q10 -6 25.5 -19.5t15.5 -48.5q0 -23 -18.5 -52.5t-39.5 -27.5q-2 -4 6.5 -21.5t3.5 -43.5q-4 -31 -20 -39q-47 -25 -82 -25q-8 0 -48 2t-46 2q-2 0 -23 -6q-6 -25 -50 -44.5t-68 -19.5q-8 0 -46 14.5t-47 14.5q-6 0 -26.5 -3t-26.5 -3q-37 0 -57 8 q-12 8 -35 23q0 4 -4 20.5t-4 26.5q-12 0 -43 4q-37 2 -49 4q-33 35 -101 70q-8 31 -8 24q0 18 13.5 45t27.5 33q-41 37 -41 49q0 27 35 86q4 -2 -29 -2q-18 0 -35.5 19.5t-17.5 35.5q0 6 9 29t9 31q0 4 -3 14t-3 19q0 23 19 49q16 14 34.5 31.5t18.5 37.5q-55 20 -55 52 q0 35 22.5 53t42.5 33q-20 18 -41 37q-29 25 -28 34q0 25 12 43q23 23 65 74q-8 74 29 96q0 4 -10 11q-29 -2 -48.5 20.5t-19.5 40.5q0 29 39 82t68 43q0 16 12 61q-12 20 -12 39q0 35 35 62q31 20 61 20q8 0 22.5 -6t20.5 -6q4 0 45 50t102 50q8 0 41 -20.5t41 -32.5 q23 41 54 53q18 6 67 6q16 0 47 -32q16 -18 35 -37q25 -6 70 -27q16 -10 20 -47q-6 -25 -6 -22q31 -8 74 -52q-6 -4 -8 -14q6 -8 47 -35q33 -23 37 -49q4 -6 4 -14z" />
<glyph unicode="H" horiz-adv-x="1218" d="M997 41q0 -31 -5 -38t-54 -44q-4 -4 -61 -10q-8 -6 -19.5 -11.5t-40.5 -5.5q-33 0 -44 7.5t-40 44.5q-2 18 0 51q6 6 15 22q-23 27 -23 56q0 49 43 77q-37 33 -37 74q0 39 25 55q-10 10 -29 35q-2 4 -2 33q0 45 18.5 49t18.5 23q0 6 -17.5 37.5t-19.5 46.5q-8 10 -20 10 q-6 0 -14.5 -6t-14.5 -6q-8 0 -11 6t-10.5 6t-32 8t-32.5 8q-4 0 -32 -20.5t-42 -24.5q-31 -8 -67 -8q-23 0 -44.5 21.5t-58.5 21.5q-35 0 -49 -35q2 -8 2 -28q-6 -10 -23 -25v-14q41 0 66 -31t25 -61q0 -10 -31 -41q0 2 20 -27q10 -10 11 -39q0 -27 -7 -35q-18 -20 -36 -39 q10 -8 26 -18q2 -6 9.5 -24.5t7.5 -26.5q0 -20 -48 -49q8 -6 27 -19q0 -6 7 -25.5t7 -27.5q0 -16 -55 -60q-25 -18 -55 -18q-96 0 -96 88q0 27 24 39q0 6 -13 12t-18 11q-23 29 -22 65q0 2 29 47q-12 10 -29 35q0 20 -4 66q0 4 -7.5 16t-7.5 20q0 23 17 43q23 33 31 50v16 q-49 6 -65.5 20.5t-16.5 57.5q0 33 24 53q33 27 39 41q-8 6 -20 16q-20 39 -21 58q0 6 31 51q-33 27 -33 57q0 6 2 22.5t2 24.5q-4 12 -12 25q2 14 2 41q-6 8 -31 24q-6 8 -18 23q0 6 -4 21.5t-4 23.5q0 33 43 78q0 -2 2 -2q0 -2 2 0v6t-6 27q-12 2 -33 12q-37 27 -37 61 q0 25 16.5 63t36 49t49.5 15q8 4 19 11q6 0 21.5 3t23.5 3q10 0 42 -24.5t32 -33.5q2 -16 6 -53q-2 -4 -17 -16q20 -20 39 -25q20 -39 21 -55q0 -31 -15 -45q-8 -6 -26 -25q-6 6 -6 -8q0 -4 10 -8q10 -43 6 -66q2 -4 25 -41q12 -16 12 -41q0 -8 -9.5 -19t-11.5 -15 q8 -18 9 -35q0 -16 -8.5 -33.5t-8.5 -22.5q0 -4 39 -43q47 23 70 23q4 0 59 -8q31 -14 23 -15q14 20 53 35q31 12 47 13q6 0 90 -29q23 0 70 -8l8 10q-23 31 -23 55q0 4 17 45q6 20 8 66q6 8 14 24l7 39q4 29 20 43q-14 6 -35 21q-12 14 -12 49q0 39 53 82q-12 8 -12 29 q-2 33 -2 34q-45 37 -45 74t30.5 58.5t71.5 21.5q66 0 113 -55q-6 -35 -2 -54q4 -18 28 -26q6 12 7 -19q0 -35 -11.5 -50t-21.5 -30q10 -29 10 -51q0 -45 -37 -67q16 -16 29 -21q12 -14 12 -51q0 -6 -5 -20.5t-5 -20.5q0 -61 2 -47q-4 -27 -27 -43v-12q0 -18 13 -23 q29 -8 30 -10q25 -14 28 -40t5 -50q-35 -20 -59 -45q4 -2 10 -6q0 -10 4 -41t4 -39t-4 -24.5t-4 -20.5q-12 -8 -25.5 -15.5t-13.5 -15.5q0 -18 21 -35q2 -23 6 -63q2 -18 22 -25q2 -2 12.5 -19.5t10.5 -27.5q0 -70 -60 -96q0 -20 27 -31q0 -2 4 -47q10 -8 31 -21 q26 -18 26 -59z" />
<glyph unicode="I" horiz-adv-x="661" d="M449 193q6 -86 -50 -123q-29 -18 -73 -19q-20 0 -46 24.5t-52.5 50.5t-26.5 54q0 51 30 64q-4 14 -28 16q-14 35 -15 53q0 51 37 76q-18 4 -37 53q-16 41 -16 54q0 33 23 53q-49 33 -50 72q0 10 4.5 34.5t2.5 38.5q-16 10 -34 33t-18 55q0 27 35 52q-57 78 -49 112 q4 16 -6 58q2 45 6 129q-20 16 -23.5 35.5t-5.5 35.5q-12 12 -34.5 44t-22.5 69q0 14 25 59q6 10 25.5 23.5t29.5 13.5q8 0 31.5 -12t27.5 -21q16 -2 43 -4q10 -10 15.5 -36.5t9.5 -32.5q20 -8 55 -25q27 -31 27 -53q0 -4 -11.5 -23.5t-11.5 -29.5q10 -20 15 -66 q-2 -18 -14.5 -62t-12.5 -53q0 -25 41 -39q18 -12 18 -28t-41 -72q35 -29 39 -63q-8 -16 -14 -41q8 -23 37 -23q8 0 10 3l2 3q14 -39 14 -65q0 -41 -30 -74v-14q33 -2 41 0q2 -16 19.5 -46t17.5 -36q0 -29 -41 -80q10 -8 32 -37q2 -4 2 -23q0 -49 -41 -81q16 -8 37 2 q-2 0 -2 -17q0 -10 6.5 -15t8.5 -7q-4 -6 -2 -27q8 -8 41 -22z" />
<glyph unicode="J" horiz-adv-x="1050" d="M856 1264q0 -35 -51 -84q-2 -6 7 -18.5t9 -22.5q0 -35 -45 -88q2 -10 -3 -33t-5 -29t12.5 -19.5t14.5 -23.5q-6 -29 -2 -84q0 -2 11 -16.5t11 -22.5q0 -6 -45 -74.5t-45 -74.5t12.5 -25.5t12.5 -27.5t-12.5 -24.5t-12.5 -23.5q0 -6 15.5 -25.5t15.5 -27.5t-15.5 -31.5 t-15.5 -29.5q0 -8 12.5 -22.5t12.5 -22.5t-14.5 -26.5t-14.5 -27.5q0 -6 17.5 -33.5t17.5 -33.5q0 -25 -15 -45q-4 -4 -14 -12q-4 -39 -16 -66q-14 -14 -43 -41q-4 -14 -15 -35q-37 -55 -71 -55h-45q-6 0 -12.5 3t-14.5 3q-16 0 -33.5 -22.5t-19.5 -22.5q-49 -20 -76 -20 q-8 0 -32.5 17t-33.5 17q-6 0 -18 -2t-21 -2q-41 0 -51 8q-63 61 -170 152q-8 6 -31.5 41t-23.5 47q0 6 10 26.5t10 28.5q0 18 -2 54q-12 18 -12 34q0 20 31 52q6 12 22 32q35 27 62 27q8 0 22.5 -4t18.5 -6q16 -18 35 -37q6 -10 10 -45q8 -8 13 -12.5t5 -20.5 q0 -20 -10 -35q-2 -2 -12 -8q2 12 4 -20q0 -16 -12 -19v-4q0 -20 18 -39q129 -129 135 -129t16.5 6t16.5 6q14 0 74 -24q-8 41 53 84q14 10 31 49q-4 10 -4 25q0 47 38 77q0 2 -9 7.5t-13 13.5q-14 29 -14 45q0 8 7 24.5t7 26.5q8 2 22 12v88q-10 4 -22 23q2 27 -4 76 q-4 12 -15 30q-8 12 -8 31q0 39 18.5 58.5t37.5 21.5q23 84 22 74q0 6 -8 17t-8 18q2 23 -4 69q-2 8 -11.5 25.5t-9.5 25.5q0 72 37 144q2 4 45 31q-66 147 -65 149q0 27 20 58.5t53 31.5q78 0 111 -41t63.5 -82.5t30.5 -68.5z" />
<glyph unicode="K" horiz-adv-x="1191" d="M1022 115q0 -8 -15.5 -32t-27.5 -30q-53 -33 -119 -45q-4 -2 -19.5 -9t-23.5 -7q-6 0 -21.5 11t-25.5 15q-8 20 -43 53t-41 52q4 23 -4 59q-6 10 -25 17q-29 12 -30 14q-12 6 -24.5 32.5t-10.5 43.5q-80 63 -86 69q-41 43 -39 97q-23 18 -53 65q0 8 7 29.5t7 30.5 q2 14 -6 49t-8 55q-10 0 -15 4q-16 -27 -47 -76q-20 -12 -51 -41l-14 -63q-6 -25 -51 -70q8 -2 20 -6q27 -27 27 -53q0 -20 -41 -76q37 -18 39 -43q0 4 -15 -70q20 -14 21 -40q0 -20 -17 -60q55 -31 56 -76q0 -45 -40 -74.5t-83 -29.5q-18 0 -46 14.5t-32 34.5q0 14 -2 45 q-57 35 -57 76q0 8 20 40t20 40q0 6 -15 26.5t-15 28.5t15 34.5t15 35.5q0 6 -17 26.5t-17 28.5q0 6 17 40t17 40t-12 21.5t-12 25.5q0 16 31 115q-29 20 -41 45q2 -4 2 47q0 4 -7.5 20.5t-7.5 22.5q0 29 23 51q-23 35 -23 59q0 47 35 66q-29 29 -28 45q0 8 14 31.5t14 31.5 q0 6 -11 17.5t-11 17.5q0 31 12 58q10 6 29 22q-37 12 -50 98q-33 23 -32 56q0 12 5 33.5t3 29.5q-2 12 -20.5 43t-18.5 41q0 23 31.5 54.5t56.5 31.5q125 0 125 -98q0 -6 -12.5 -28.5t-12.5 -30.5q0 -6 10.5 -17.5t12.5 -17.5q-2 -14 -4 -45q47 -35 47 -52q0 -61 -41 -69 q6 -12 33 -31q20 -16 20 -39q0 -27 -26 -59q10 -10 10 -31q0 -49 -55 -82q4 -4 16 2q0 -4 10 -13t12 -18q4 -14 -10 -69q4 -4 8.5 -6t8.5 -4q16 25 51 67q16 10 35 19q35 23 34 37q0 6 -21.5 32.5t-25.5 40.5v0v2v8q0 39 47 66q39 23 74 23q6 0 15.5 -3.5t17.5 -3.5 q6 0 19.5 15.5t19.5 18.5t49 18q-12 33 -12 49t32 67q33 25 109 72q-16 27 -16 53q0 39 34.5 62.5t75.5 23.5q33 0 67 -18.5t34 -46.5q0 -23 -23 -49q-16 -18 -35 -37q0 -2 13 -29q6 -16 2 -25q-23 -53 -52 -71q-12 0 -36 -10q-4 -6 -18.5 -23.5t-43.5 -28.5q-20 -6 -43 -14 q14 -25 12 -49q-4 -37 -4 -33q0 -6 13.5 -30.5t13.5 -32.5q0 -10 -18.5 -35t-26.5 -27q-14 -6 -78 -18v-11q16 -6 37 -12q8 -6 20 -16q8 -45 9 -37q0 -8 -15.5 -45t-15.5 -43t10 -17.5t12 -17.5q4 -33 -2 -43v-4q39 -25 39 -59q0 -8 -10 -23.5t-14 -24.5q16 -12 39 -34 q4 -10 18 -33q39 -12 53 -41q8 -18 17 -39q10 -8 29.5 -25.5t21.5 -50.5q20 -8 51 -28v-35q-2 -18 10 -19q6 0 6 13q14 -31 25 -72q47 6 119 -6v-25z" />
<glyph unicode="L" horiz-adv-x="956" d="M815 115q0 -4 -8 -49q-4 -20 -43 -37q-31 -14 -47 -15q-6 0 -14.5 6.5t-14.5 6.5q-10 0 -61 -58q-6 0 -26.5 -6t-27.5 -6q-29 0 -63 25q-12 10 -37 32h-18q-49 0 -82 -12q-2 -2 -25.5 -20.5t-34.5 -18.5h-37q-33 0 -88 47q-39 33 -75 66q2 6 2 33q2 43 39 63l-39 39 q-2 8 -2 27q0 33 4 22q2 33 4 66.5t26 52.5q-2 4 -18 22.5t-16 26.5q0 -4 8 39q2 8 17.5 20.5t15.5 20.5q0 6 -14.5 19.5t-18.5 21.5q4 14 4 24q0 23 -18.5 36.5t-18.5 33.5q0 45 25 66q-37 27 -37 55q0 25 19.5 46t35.5 24q-16 14 -35 45q-2 4 2 71q-10 18 -43 41 q2 27 15 76q-16 12 -22.5 44t-8.5 32q-14 16 -26.5 29.5t-12.5 41.5q0 23 12 35q25 23 33 33q18 27 18 64q0 6 -6 18t-6 18q-4 39 19.5 61.5t50.5 22.5q14 0 69 -41q4 -16 17 -47q16 -18 45 -53q2 -4 2 -29q0 -27 -8 -45q-20 -12 -21 -22q0 -8 14.5 -28.5t14.5 -29.5 q0 -14 -21 -45q12 -45 -26 -63q14 -20 31 -59l-13 -39q51 -45 51 -88q0 -6 -20 -36t-20 -38q0 -6 13 -32t17 -36q14 -6 39 -20q31 -31 31 -62q0 -2 -23 -63q4 -14 4 -45q-6 -31 -34 -60q8 -8 20 -22q16 -20 16 -55q0 -18 -24 -43v-203l10 -10q2 0 11.5 9t15.5 11 q61 20 84 21q12 0 24 -11q39 -2 60 -10q8 -2 27.5 -14.5t27.5 -12.5q2 0 51 38t76 38q66 0 99.5 -39.5t33.5 -66.5z" />
<glyph unicode="M" horiz-adv-x="1572" d="M1358 748q0 -31 -31 -48l-12 -10q0 -6 9 -17t9 -20q0 -47 -37 -69q6 -10 7 -23q0 -10 -8.5 -30.5t-8.5 -32.5q66 -29 66 -86q0 -25 -35 -52q-20 -16 -41 -30q6 -18 8 -51q-14 -31 -39 -91v-104q25 -10 47 -23q31 -16 31 -47q0 -16 -24.5 -45.5t-32.5 -34.5 q-109 -37 -127 -36q-94 0 -95 82q0 8 14.5 34.5t14.5 32.5q0 8 -20.5 44t-20.5 42q0 8 15.5 30.5t19.5 33.5q-4 35 2 106q16 18 45 66q-4 12 -2 34q8 23 39 64q-18 12 -51 45q-8 12 -8 31q0 27 24 59q-8 20 -8 45q0 55 49 86q-59 35 -59 82q0 6 12 23.5t12 23.5q0 27 -30 27 l-64 -33q6 -12 6 -29q0 -74 -63 -90q12 -16 6 -51q-4 -35 -17.5 -44t-47 -17.5t-33.5 -16.5q0 -4 21.5 -26.5t21.5 -32.5q0 -14 -23 -72q-6 -2 -10 -10q20 -45 -12 -90q-10 -8 -31 -29q4 -6 4 -16q0 -25 -25.5 -52.5t-50.5 -31.5q4 -6 -1 -24.5t-5 -24.5q0 -8 17.5 -61.5 t17.5 -59.5q0 -31 -33 -62q-39 -37 -102 -36q-39 0 -93 14q-61 14 -77 37q-25 31 -66 57q-18 14 -18 49q0 -10 14 41q-27 45 8 101q-2 0 -10 6q-47 8 -53 69q-2 51 -6 103q47 43 47 45q0 6 -26 33.5t-32 42.5q-2 4 -2 28q0 35 23 56q-23 10 -27 12q-16 8 -20 22.5t-4 42.5 q0 18 26.5 45t26.5 54q-16 6 -41 18q-16 14 -21 39q-6 41 -8 47q-4 -10 -49 -39q20 -16 41 -33q35 -29 35 -47q0 16 -8 -51q-8 -6 -23 -22q6 -16 6 -31q0 -57 -75 -88q10 -12 22 -33q6 -31 -2 -59q-8 -35 -8 -33q0 -8 14 -32.5t14 -33.5q0 -4 -22 -45q-6 -14 -16 -88 q-8 -59 -37 -78q0 4 14 -20q2 -2 2 -37q0 -10 9.5 -33.5t9.5 -32.5q0 -14 -95 -108q-2 -12 -14 -35q-10 -12 -35 -12q-18 0 -26 2q-23 18 -44.5 38.5t-21.5 55.5q0 6 6 31.5t6 40.5q0 4 -6 31q-2 23 2 38t33 43q-35 27 -35 54q0 6 30 102t30 102q0 8 -18.5 25.5t-22.5 28.5 v37q0 82 59 106q0 10 -12.5 40t-12.5 36q0 31 39 76q33 37 68 71q-20 12 -51 41q-14 23 -15 64q0 31 54 73q-47 43 -48 78q0 23 3.5 30t42.5 50q25 29 24 53q0 8 -17.5 39t-17.5 39q0 37 33 67t74 30q37 0 102 -46q57 -41 76 -67q27 -25 74 -74q2 -2 2 -29q0 -57 -35 -59 q27 -29 55 -57q39 -41 39 -60q0 -6 -11 -20t-11 -23q0 -51 -4 -75q0 -2 -8.5 -11.5t-8.5 -17.5q27 -6 27 -33q-2 -41 0 -43q0 -2 22.5 -27.5t22.5 -39.5q0 -6 -26.5 -32t-26.5 -32q0 -8 23.5 -71.5t23.5 -69.5q0 -31 -64 -78q25 -10 55 -41q27 -63 27 -109q0 -33 -31 -47 v-14q2 0 3 4t10 4q10 0 22 -10q20 -14 21 -14q0 4 -4 28q-4 18 -2 29q4 10 22.5 30.5t18.5 37.5q0 68 -3 40q2 27 29 46q-6 12 -6 28q0 35 30.5 72t61.5 45l-31 43q0 20 21 65q12 16 41 41q-4 12 -4 25q0 59 61 88q-37 66 -37 78q0 29 23 53q35 41 40 54.5t17 45.5l49 39 q-12 41 56 84q-14 23 -15 47q0 78 95 78q90 0 127 -84q0 -2 6 -22q25 -16 49 -33q39 -29 39 -57q0 -29 -21 -56l-33 -16q23 -37 23 -59q0 -6 -11.5 -24.5t-11.5 -25.5q0 -29 23 -75q-4 0 -41 -35q8 -14 25 -21l20 -8q18 -27 64 -80q10 -9 10 -34z" />
<glyph unicode="N" horiz-adv-x="1275" d="M1057 266q0 -18 -26.5 -42.5t-51.5 -45.5q4 -6 31 -33q12 -14 12 -30q0 -27 -40 -57.5t-64 -30.5q-6 0 -15.5 -6.5t-17.5 -6.5q-6 0 -25.5 9.5t-28.5 9.5q-6 0 -38.5 -3t-40.5 -3q-6 0 -17.5 27.5t-15.5 33.5q-18 10 -49 41q-18 29 4 90q-4 18 -37 28.5t-35 12.5 q-25 25 -27 66q-8 2 -26.5 17t-18.5 50q0 23 37 56q-23 35 -26 63q-23 2 -62 12q-25 14 -24 56q0 29 18 51h-27q-27 33 -26 59q0 14 29 60q-23 8 -58 41q-16 33 -20 88q-14 12 -64 34q2 27 4 53.5t31 43.5q-8 8 -12 8q-6 0 -12.5 -5t-14.5 -5q-2 0 -41 18q-6 2 -18 35 q2 6 -4 10q-16 -23 -39 -37q16 -10 49 -33q4 12 4 -18q0 -31 -21 -80q0 -4 -51 -53q14 -6 35 -23q12 -14 12 -41q0 -12 -41 -53q31 -31 31 -37t-15.5 -25.5t-15.5 -27.5t21 -25q12 -10 27 -22l-9 -4v-19q-18 -20 -73 -69q113 0 112 -76q0 -8 -11 -14l-11 -6q-2 -37 -84 -72 q25 -10 47 -21q35 -14 35 -41q0 -20 -23 -43q20 0 36.5 -30.5t14.5 -55.5q-27 -8 -50 -46t-44 -72q-47 0 -61.5 18t-36.5 61q2 25 2 70q0 10 -13.5 32.5t-13.5 31.5q0 25 20.5 43t45.5 36q2 4 -4 9q-20 -12 -35 -13q-33 0 -57 29q-23 23 -23 49q0 35 25 47q45 25 57 37 q-63 25 -64 72q0 23 23 41q-6 6 -20.5 33.5t-14.5 38.5q0 8 12 24q18 25 21 31q4 10 -12 33q4 25 8 36q12 31 37 41q-8 8 -23 27q-8 12 -8 47q0 23 14 57q16 43 39 52q-10 8 -43 63q-10 12 -21.5 27.5t-11.5 34.5q0 31 19 49q6 6 57 39q-20 10 -51 39q-8 14 -8 36 q0 57 102 97q55 18 156 18q-2 0 45 -18q27 -12 27 -52q0 -16 -11 -26q10 -4 70 -47q-4 -6 -21 -45q-14 -31 -32 -33q20 -8 53 -29q10 -14 35 -37q27 -6 53 -12q49 -16 49 -49q0 -20 -67 -80q-4 10 -5 -20q0 -18 5 -23q31 -10 61 -22q47 -23 47 -52q0 -51 -47 -82 q27 -8 66 -36q6 -18 -7 -70q12 -2 39 3t29 5q6 0 28.5 -9t30.5 -11q20 -14 21 -95l-6 -8q6 -14 6 -30q0 -39 -47 -70q0 2 12 -19q-6 -23 23 -40q41 -29 43 -31q-2 18 0 51q8 20 57 63q0 4 -15.5 25t-16.5 37t-12 48t-11 48q0 25 20 43q-18 14 -37 29q-29 23 -28 41 q0 31 32 57q2 8 2 37v35q-2 10 -20 20q-14 31 -14 56q0 55 36 106q12 4 35 21q-20 12 -42.5 24t-22.5 41q0 14 13 42t28 30v22q-14 8 -39 25q0 2 -7.5 20.5t-7.5 26.5q0 4 43 61q10 16 35 46q33 20 76 20q39 0 76 -22.5t37 -55.5q0 -25 -31 -61q10 -6 23.5 -28.5t13.5 -27.5 q0 -25 -39 -88q-2 -4 -62 -51q129 8 129 -67q0 -8 -44 -46t-44 -42q0 -12 18.5 -21.5t20.5 -9.5q10 -12 15 -76q-39 -16 -41 -61t-31 -62q20 -6 57 -33q12 -16 4 -53q10 -6 25 -24q14 -33 14 -39q0 -12 -22.5 -39t-30.5 -29q2 -8 13.5 -30.5t11.5 -28.5q0 -27 -21 -56 q-10 -8 -33 -26q33 -23 67 -45.5t34 -61.5z" />
<glyph unicode="O" horiz-adv-x="1157" d="M944 580q0 -18 -41 -74q0 -2 15 -27q-2 -8 3 -26.5t5 -24.5q0 -29 -8 -74q0 -2 -10.5 -8t-10.5 -14t12.5 -28.5t12.5 -29.5q0 -23 -17 -45q-6 -2 -24 -16q8 -47 2 -66q-14 -10 -29 -41q2 -14 -8 -36q-98 -102 -148 -103q-6 0 -8 3t-8 3q-8 0 -19.5 -10t-15.5 -10 q-35 -14 -65 -14q-6 0 -19.5 3t-19.5 3t-45 -17.5t-47 -17.5h-41q-8 0 -66 70q-41 -16 -41 -17q-100 0 -100 62q0 23 16 51q-18 6 -53 24q-16 10 -16 45q0 33 16 50q-2 2 -45 24q-27 14 -27 47q0 18 19.5 49t33.5 39q-14 12 -71 39q-29 12 -29 49q0 29 36 66t30 53l-39 10 q-8 2 -32 39t-24 58q0 -6 7 22q-2 8 -2 17q0 27 17 53t42 33q-47 37 -47 57q0 29 37 76q-51 -2 -64 24q-8 14 -8 31q0 8 35 90q-29 18 -29 47q0 23 14 37q29 27 33 31q-35 27 -35 57q0 33 31 55q18 14 39 15q14 0 21 -6q4 4 2 8q-4 10 -5 18q0 31 27 58.5t53 27.5 q6 0 58.5 -14t58.5 -14q31 0 33 21.5t4 39.5t37 37.5t47 19.5t57 -8q2 0 10.5 -11t16.5 -11q6 0 8 3t8 3q20 0 70 -15q12 -8 37 -26q31 -8 88 -33q14 -23 47 -61q23 -6 57 -21q39 -59 39 -72q0 -8 -19.5 -30.5t-35.5 -26.5q-2 0 -10 -6q41 -29 61 -66q8 -12 -2 -63 q47 -35 47 -61q0 -6 -17.5 -33t-17.5 -35t20.5 -31.5t20.5 -30.5q0 -10 -37 -59q0 -4 8.5 -10t12.5 -12q16 -35 16 -45q0 -39 -37 -80q72 -45 72 -88zM762 526q-37 31 -37 54q0 18 31 77q-53 23 -54 64q0 6 14.5 42t14.5 44q0 6 -17.5 27.5t-17.5 27.5q0 31 41 72 q-59 43 -37 98q-23 18 -45 37q-12 12 -12 35q0 33 18.5 53.5t40.5 42.5q-29 12 -63 64q-12 2 -37 10q-12 10 -33 24q-57 33 -77 33h-25q0 -4 10 -14l-51 -51q-55 -47 -84 -47q-27 0 -70 12q6 -14 7 -31q0 -31 -23 -56.5t-61 -25.5v-26q14 -6 30.5 -33t16.5 -41 q0 -10 -15 -37q-16 -33 -41 -33q-10 0 -26 -16q33 4 69.5 -25.5t36.5 -62.5q0 -47 -59 -70q20 -18 24 -102q29 -18 29 -39q0 -16 -18 -43q25 0 48 -35t23 -70q0 -121 -77 -125q70 -10 69 -92q0 -23 -8 -37q20 -16 49 -67q-2 -14 -2 -39q16 -8 43 -39q4 53 90 53q31 0 49 -8 q10 -4 36 -21.5t32 -17.5h37q45 0 67 84q4 23 29 53q0 20 11.5 55t11.5 38q0 10 -8 18l-9 8q-8 59 -8 105q0 3 37 73z" />
<glyph unicode="P" horiz-adv-x="1093" d="M926 1087q0 -35 -33 -55q-18 -8 -62 -28q6 -6 23.5 -17.5t24.5 -17.5q31 -31 30 -60q0 -39 -114 -69q-14 -4 -33 -15l43 -24q37 -23 37 -39q2 -57 2 -47q0 -66 -37 -86q-20 -12 -82 -13q-29 0 -57 19q-35 20 -35 51q0 4 2 20.5t2 26.5q0 6 -6 16.5t-6 18.5q0 23 37 47 q2 2 65 19q-2 2 -43 22q-23 14 -22 41q0 31 19 49.5t40 34.5q-6 18 -39 23q-8 12 -25 30q-31 10 -90 39q-4 18 4.5 47t24.5 33q0 8 -5 10t-13.5 5t-38 24.5t-35.5 21.5t-29.5 -3t-32.5 -3q-6 0 -24.5 5.5t-24.5 5.5t-21.5 -8.5t-23.5 -8.5t-10 3t-10 3q-6 0 -25.5 -4 t-28.5 -4q-8 -6 -14 -12q41 -39 41 -90q0 -10 -25 -35q53 -35 54 -76q0 -29 -31 -65q4 -16 4 -27q0 -27 -55 -57q20 -10 51 -35q43 -35 43 -60q0 -35 -55 -118q-2 -4 -45 -37q4 -6 14 -4q12 10 29 14q10 2 45 2q33 0 80 -35q4 -2 6 4q16 27 59 64q25 8 82 8q6 0 21.5 -9 t23.5 -9l21 6q6 0 43 -21q14 -14 43 -39v-51q-8 -2 -33 -16.5t-33 -14.5q20 0 -102 -8q-6 -18 -35 -49q-31 -18 -96 -18q-23 0 -48 6q-10 4 -26.5 25.5t-22.5 25.5q-16 12 -32 12q-6 0 -21 -14q10 -8 27 -29q14 -31 14 -69q0 -39 -57 -80q-18 -6 -56 -19v-6q6 -4 21 0 q12 0 46 -21.5t44 -33.5q2 -8 0 -14q-8 -20 -2 -37q10 -23 10 -27q0 2 -41 -61q-4 -18 -14 -54q-4 -8 -21.5 -21t-17.5 -22q0 -6 11.5 -29.5t11.5 -31.5q0 -23 -31 -43q-8 0 -29 -2q-29 -51 -57 -51q-41 0 -71 26.5t-32 63.5q-2 4 -9 17.5t-7 21.5q0 31 32 57l31 27 q-10 14 -10 32q0 33 29 74q-53 29 -53 66q0 39 33.5 52t66.5 26q-47 20 -47 53q0 16 14 47q8 4 15 12q-2 14 4 45q8 18 32 31q-35 35 -34 53q0 25 12 37q25 16 47 33q-14 6 -36.5 18.5t-29.5 57.5q-6 43 5 65q-23 14 -23 43q0 25 41 72q-4 14 -18 26q-10 6 -11 37 q0 14 23 56q0 2 -3 12t-3 14q0 10 6 28.5t6 24.5q0 8 -14 25q-20 20 -23.5 27.5t-3.5 19.5t2 19q45 80 45 82q0 6 -11 23t-11 26q0 12 13 35.5t30 27.5q27 8 125 8q6 0 31.5 -3t33.5 -3q6 0 37 15.5t39 15.5t39 -6t39 -6q117 0 184 -52q39 -29 37 -73q14 -6 45 -21 q10 -14 35 -37q31 -6 88 -22l19 -25q18 -25 18 -33z" />
<glyph unicode="Q" horiz-adv-x="1212" d="M1026 -182q-66 -98 -195 -99h-43q-18 0 -34 27q-16 20 -19 35q2 -16 2 59q4 -2 -32 -2q-6 0 -18.5 4t-18.5 4q-8 20 -23 35q0 4 2 12.5t2 10.5q-25 6 -78 28q-8 -20 -52 -47.5t-68 -27.5h-17q-8 0 -27.5 11t-41.5 60q-2 6 -9 17q-35 -18 -47 -19q-33 0 -94 43 q-68 43 -68 72q0 8 4.5 27.5t4.5 25.5q10 10 28 25q41 27 70 26q63 0 158 -61q10 -8 20 -31q14 -37 14 -39q14 14 43 15q66 -2 60 -2q0 10 6 14q-27 12 -70 47q-2 4 -8 76q-14 6 -45 19.5t-31 68.5q0 82 107 82q49 0 76 -21q43 -35 47 -37q57 -27 86 -61q18 25 67 64 q-43 27 -47 30q-16 16 -16 49q0 27 22 50q-35 47 -34 67q0 41 41 70q-18 31 -19 59q0 55 60 92q-18 12 -27 9q-18 -4 -16 -5q-16 0 -37 30t-21 44q0 41 14.5 57.5t57.5 36.5q-20 10 -51 45q0 25 2 68q-6 23 -13 70q4 14 15 24q-35 8 -68 17q-43 16 -39 57q-16 0 -43.5 6 t-32 6t-28.5 23q-14 -16 -47 -45q-10 -8 -47 -9q-6 0 -28 3.5t-28 3.5q-18 0 -71 -31q-6 -10 -21 -27q-27 -29 -98 -53l-6 -8q16 10 79.5 -20.5t63.5 -53.5q0 -2 -18 -35q-8 0 -23 -6q0 -23 6 -35q-8 -35 -69 -77q-2 -4 -2 -27q0 -35 4 -25l12 -8q2 -2 -10 -10q6 -6 55 -25 q39 -14 49 -45v-37q0 -6 7 -18t7 -21q0 -20 -21.5 -39.5t-37.5 -33.5q10 -23 23 -29q-8 -23 -39 -59q2 -8 2 -17q0 -47 -45 -67q14 -20 57 -43q31 -14 31 -45l-21 -47q-4 0 -18 -13q-18 -18 -27 -22q-61 -39 -102 -39q-20 0 -88 26q-20 41 -21 54q0 43 23 65q14 14 65 37 q-27 18 -57 59q2 6 2 27q-33 39 -33 57q0 39 30 57.5t62 35.5q8 16 9 28q0 2 -16.5 23.5t-18.5 50.5q-78 2 -78 59q0 -12 31 80q8 8 26 29q-12 31 -8 43q8 14 27 47q-6 16 -10 51q8 59 81 72l-10 8q-20 -4 -45.5 18.5t-25.5 43.5q0 23 20 54.5t33 31.5q6 0 5 -3.5t5 -3.5 q2 0 42 45.5t58.5 58.5t55.5 13q31 2 59 4q4 0 21.5 10.5t27.5 10.5q6 0 59.5 -8.5t61.5 -8.5q4 0 17.5 11.5t19.5 11.5q78 0 137 -19q16 -6 74.5 -64t58.5 -79q0 8 -24 -41q12 0 34 -6q20 -14 64 -41q8 -33 -2 -53q-2 -6 0 -10q10 -6 22.5 -27t8.5 -39q14 -8 43 -31 q18 -18 18 -47q0 -20 -8 -31q-23 -12 -55 -40q-12 -20 -39 -62v-6q6 6 20 6q35 0 64.5 -27.5t29.5 -52.5q0 -51 -82 -94q16 -55 17 -59q0 -6 -17.5 -30t-17.5 -32q0 -6 12.5 -24.5t12.5 -24.5q0 -27 -21 -55q-14 -8 -39 -29q25 -18 47.5 -37.5t22.5 -50.5q0 -33 -58 -78 q12 -12 13 -33q0 -49 -62 -102q6 -4 41 -25q25 -14 25 -30q0 -14 -23 -49q31 -23 62 -23q6 0 8 3t10 3q37 0 64 -33q2 -10 14 -28z" />
<glyph unicode="R" horiz-adv-x="1234" d="M1057 37q0 -35 -33 -57.5t-57 -22.5h-39q-25 0 -62 41t-32 65q-2 0 -10.5 -3t-14.5 -3q-53 0 -83 34t-21 81q4 8 16 23q-6 4 -47 6q-16 18 -41 59q2 10 2 35q-45 27 -45 80q0 31 16 69q2 8 -2 21q-2 0 -8 2t-14 2t-15.5 -2t-14.5 -2t-26.5 -6t-25.5 -6q-31 0 -74 51 q-14 2 -70 2q-18 0 -32 -2q-6 -10 -23 -31q25 -20 25 -45q0 -6 -15.5 -25.5t-15.5 -27.5q0 -10 27 -33q0 -8 4 -27q2 -6 15 -19t13 -22q0 -6 -12 -26.5t-12 -28.5q0 -14 41 -39q2 -33 -19 -64l-22 -32q0 -6 14 -19.5t18 -21.5q8 -18 -12 -66q23 -23 47 -43q4 -6 4 -34 q0 -35 -29.5 -53.5t-60.5 -32.5q-2 -2 -10 -12.5t-18 -10.5q-53 0 -94.5 29.5t-41.5 79.5q0 51 20.5 66.5t20.5 27.5q0 37 -20.5 71.5t-20.5 53.5q0 8 14.5 42t14.5 40t-35 58t-35 60q0 31 29 60q-23 23 -22 55q0 8 11 39t11 39q0 14 -2 18q-57 47 -57 84q0 23 27.5 41.5 t33.5 53.5q-90 29 -90 86l16 51q0 20 3 59q6 20 38.5 38t57.5 18q31 0 52.5 -14.5t41.5 -41t20 -41.5q0 -31 -40 -112q12 -2 34 -7q33 -18 41 -34q2 -14 6.5 -30.5t12.5 -16.5q6 0 18 4q10 2 21 0q4 0 15 -4.5t19 -4.5q14 0 24.5 26t32 29t66.5 17q10 18 37 49q23 6 58 27 q8 16 34 49q-2 4 -18 23q-12 12 -12 36q0 31 53 123q-12 6 -37 19q-10 6 -28.5 33.5t-24.5 27.5t-20.5 -2t-20.5 -2q-10 0 -37 18.5t-37 34.5q-4 6 -8 54q-16 10 -35 10q-6 0 -35.5 -8.5t-38.5 -8.5q-8 0 -35.5 5.5t-33.5 5.5q-12 0 -15.5 -8.5t-9.5 -8.5q-45 0 -61 -4 q18 -37 18 -35q0 -8 -18.5 -29.5t-18.5 -29.5q0 -14 27 -35q4 -6 4 -20q0 -27 -14 -47q-29 -37 -74 -37q-35 0 -80 27.5t-45 56.5q0 6 14.5 33.5t14.5 33.5t-11.5 30t-11.5 32q0 33 35 61q-29 37 -29 66q0 18 20.5 42.5t41.5 24.5q8 0 82.5 -8t83.5 -8q6 0 45 14.5t49 14.5 q4 0 20.5 -9.5t22.5 -9.5q8 0 38.5 12.5t39.5 12.5q8 0 31.5 -12.5t30.5 -12.5t5 -5t6 -5q2 0 22.5 14.5t51.5 14.5q14 0 51 -10.5t43 -16.5q10 -20 31 -57q8 -14 36 -35t38 -37q-2 -14 4 -47q2 -8 11 -25.5t9 -25.5q0 -16 -12 -35q-23 -27 -35 -49q72 -59 72 -90 q0 -8 -20.5 -59.5t-20.5 -59.5q0 -4 11 -25.5t11 -30.5q0 -18 -24 -51q-8 -4 -23 -10q-20 -27 -67 -78q-16 -6 -49 -22q25 -16 49 -33q39 -27 39 -55q0 -8 -10.5 -31t-14.5 -35q23 -10 57 -35q25 -31 0 -106q10 -8 29 -29q8 -20 23 -59q8 -2 26 -13q23 -37 76 -96 q29 -8 82 -35q33 -22 33 -63z" />
<glyph unicode="S" horiz-adv-x="1159" d="M969 319q0 -35 -43 -69.5t-82 -42.5q12 -16 23.5 -29.5t11.5 -38.5q0 -31 -35 -55q-20 -12 -43 -23q-16 -20 -60 -51q-53 -12 -159 -45q-8 -2 -46 -23.5t-47 -21.5q-6 0 -23 9.5t-26 9.5q-8 0 -9 -3.5t-9 -3.5t-21.5 26t-19.5 34q-68 -25 -94 -25q-14 0 -56 33 q0 20 -2 57q-72 29 -71 88q0 12 6 25q-47 39 -47 78q0 16 12 53q-25 12 -49 27q-33 18 -33 41q0 27 24.5 58.5t43.5 33.5q10 4 47 4q23 0 53.5 -20.5t30.5 -49.5q0 -14 -10 -28v-17q8 -2 20 -6q18 -10 34.5 -41t10.5 -49q25 4 50.5 -21.5t25.5 -54.5q0 -16 -10 -31 q14 -14 26 -14q6 0 19.5 12.5t19.5 14.5q27 8 78 8q12 0 40 -26.5t28 -32.5q14 4 43 14q10 12 30 31q25 12 66 53q12 4 45 12q-33 31 -35 60q6 14 10 40q-8 14 -22 41q4 14 4 39q-35 39 -35 70q0 16 10 55q-8 6 -53 17q-35 8 -49 30.5t-2 71.5q-8 20 -23 21 q-8 0 -67.5 -20.5t-65.5 -20.5q-39 0 -84 49q-23 25 -4 69q-4 4 -22 29q-14 18 -23 18q-6 0 -34.5 -9t-37.5 -9q-35 0 -77 33q-8 18 -33 49q-25 16 -48.5 31.5t-23.5 46.5q0 37 47 74q-18 27 -63 63q-25 23 -25 49q0 61 66 78q0 2 -2 10q-2 2 -27 10q-10 4 -26.5 30 t-16.5 38q0 27 35 55.5t63 28.5q6 0 36 -11.5t38 -11.5l12 11q11 12 4 32q-6 23 -4 31q20 74 117 74q25 0 92 -47q4 4 10 20q37 39 111 39q86 0 111 -84q2 0 5 6.5t11 6.5q16 0 66 -21q18 -14 59 -47q14 -10 34.5 -47t20.5 -62q0 -8 -15 -31.5t-15 -31.5t14 -16 q10 -39 9 -42.5t5 -9.5q2 0 7 6.5t12 6.5v-64q-18 -18 -33 -18q-6 0 -5 -3t-5 -3q-10 0 -13.5 6t-5.5 10q-10 -16 -18 -35q-16 -29 -41 -29h-19q-33 0 -58.5 35t-29.5 68q-2 14 4 43q8 39 9 49q-25 47 -78 141q-25 -4 -68 -18q-12 -18 -37 -39q-16 -4 -100 -16 q-8 -6 -29 -19q-6 -2 -55 -2q-2 0 -5 -6t-11 -6t-9.5 3t-9.5 3q-6 0 -39 -33q16 -10 39 -28q61 -76 62 -113q0 -6 -12.5 -25.5t-14.5 -27.5q-12 -2 -27 -19q8 -14 29 -37q27 -6 70 -20q4 -2 18 -20.5t23 -18.5q10 0 16 6t14 6q6 0 15.5 -3t13.5 -3l14 -12q70 -23 64 -66 q37 6 57 6q8 0 9 -6t10 -6q154 0 153 -92q0 -12 -4 -27q12 -4 35 -12q6 -4 17.5 -21.5t19.5 -17.5t9 3t9 3q10 0 45 -26q18 -14 28.5 -29.5t6.5 -48.5q-2 -4 -8 -12q12 -35 8 -93q6 -12 27 -47q8 -6 20 -18q21 -44 21 -60z" />
<glyph unicode="T" horiz-adv-x="1107" d="M944 1245q0 -25 -35 -54.5t-53 -29.5h-27q-6 0 -26 15q-27 20 -35 24q-63 31 -104 31q-2 0 -13.5 -9.5t-32.5 -7.5v-45q-6 -33 -26 -55q-4 -10 0 -22q-6 -14 -31 -48q35 -25 12 -63q12 -12 26.5 -24.5t14.5 -28.5q0 -59 -71 -90l10 -17q0 -8 -16 -57q29 -12 32.5 -22.5 t30.5 -51.5q20 -33 21 -41q0 -14 -78 -76q6 -14 47 -41q12 -10 12 -30q0 -39 -41 -84q0 -8 -4 -23q-10 -14 -39 -47q0 -8 23 -20q6 -25 -2 -54q14 -8 41 -26q12 -51 -13 -92q53 -12 82 -35q0 -45 -14 -74q-4 -8 -40 -37.5t-48 -29.5q-8 0 -21.5 3t-21.5 3t-26.5 -23.5 t-37.5 -23.5q-84 0 -84 73q0 14 6 29q-14 31 -14 63q0 27 20.5 50.5t20.5 31.5q0 -2 -6 19q-16 6 -39 24q-8 16 -8 37q0 20 39 72q-8 49 -2 65q8 8 20 23v82q8 41 43 59q-10 14 -30 29q-14 23 -33 66q6 25 8 69q-20 25 -21 39q0 55 70 86q-10 14 -12 37v33q-29 31 -29 51 q0 8 7 25.5t10 25.5q4 12 -9 16q-2 27 15 72q0 4 -2 47q-2 18 34 41q31 20 52 25q-6 8 -23 8q-8 0 -14 -3t-13 -3q-8 0 -33.5 15.5t-31.5 15.5q-4 0 -12 -17q-131 -43 -160 -43q-31 0 -37 2q-14 6 -51 45q-6 -6 -23 -35q-18 16 -26 17q-8 0 -7 -3t-6 -3q-8 0 -51 30 q0 6 -4 19.5t-4 21.5q0 27 25.5 50.5t25.5 25.5q6 29 35 74q27 20 82 20q8 0 26.5 -6t28.5 -8q4 -2 17 -22q-4 -20 -4 -64q10 -2 18 -2q25 0 70 16.5t69 16.5q6 0 76 -23.5t78 -23.5q6 0 32.5 3t36.5 3q31 -6 19 -6q6 0 66.5 11t68.5 11q57 0 82 -26q14 -14 16 -39 q27 -12 56 -25q20 -12 20 -37z" />
<glyph unicode="U" horiz-adv-x="1189" d="M969 387q0 -37 -47 -86q14 -16 27.5 -31.5t13.5 -29.5q0 -10 -15 -52q-4 -10 -27.5 -29.5t-37.5 -19.5q-41 0 -76 19q-4 -16 -13.5 -46t-45.5 -49q-145 -72 -166 -71q-20 0 -56 45q-41 0 -123 4q-8 18 -36 49q-10 6 -33 10q-10 14 -31 43q-102 0 -100 52q2 59 2 57 q-10 2 -24.5 23.5t-14.5 39.5q0 27 41 64q-23 6 -57 33q-4 6 -11 51q-4 35 -30 45q0 12 -23 106q0 6 7 24.5t5 29.5q-10 14 -20 41q-6 55 -6 61q0 8 14 32.5t14 33.5q0 20 -8 30q-45 61 -45 62q0 16 19 106q6 25 47 47q0 16 -13 37q-23 8 -47 17q-35 12 -35 34q0 57 60 97 q-14 4 -35 20q-43 61 -43 107q0 29 40 69.5t62 40.5q14 0 78 -33q6 -14 25 -34q-6 -25 -15 -50q-6 -33 0 -45q14 -14 35 -45q2 -18 -6 -79q14 -8 43 -29q4 -4 4 -27q0 -29 -13 -40t-20 -34q16 -18 17 -38q0 -14 -12.5 -43t-12.5 -43q0 -25 6 -31q16 -12 35 -27 q-31 -164 -30 -196q0 -6 14 -17.5t14 -17.5q0 -33 2 -123q59 -31 60 -66q0 -39 -43 -71q20 -18 39 -54l24 -12q20 -16 23 -35q0 2 -2 -18t0 -33q4 -16 20 -16q6 0 13.5 3t15.5 3q25 0 53 -21q4 -6 10 -18q-4 -20 8 -20q6 0 24.5 3t27.5 3q14 12 10 12q8 0 25.5 -23.5 t25.5 -23.5h31q12 0 41.5 40t29.5 50q0 8 -10 17.5t-12 11.5q-6 10 -6 49q0 33 37 65q27 23 55 47q-10 23 -2 41q2 6 17.5 22.5t15.5 24.5q0 6 -9.5 12.5t-13.5 8.5q-12 20 -12 47q0 20 41 55q-6 8 -39 25q-23 12 -23 29q0 10 -2 29.5t-2 25.5q0 76 31 98q-4 2 -4 0 q-4 -2 -12 -2q-16 0 -36 24.5t-20 43.5q0 37 20.5 50t20.5 30q0 14 -16 18q-27 4 -46.5 30.5t-19.5 51.5q0 14 27 41q20 18 41 39q-10 43 8 69q-76 27 -76 78q0 6 14.5 34t14.5 34q0 4 -17.5 21.5t-17.5 45.5q0 37 45 65t82 28q80 0 80 -50q0 -29 -35 -71q41 -20 41 -33 q0 -20 -13 -56t-28 -48q25 -8 51 -17q25 -14 25 -49q0 -25 -16 -43q-8 -10 -19 -22q-6 -27 -6 -46q0 10 6 -16q45 -25 47 -27q16 -14 17 -47q0 -29 -33 -71q-8 -18 -31 -62q63 -6 64 -71q0 -70 -13 -109q-4 -10 -41 -45q18 -2 60 -29q0 -2 -4 -47q-4 -29 -31 -39 q0 -4 -6 -14q43 -8 43 -57q0 -25 -12 -45q47 -39 47 -62z" />
<glyph unicode="V" d="M963 1233q-33 -25 -95 -76q4 -6 22.5 -22.5t18.5 -24.5t-12 -20.5t-12 -20.5t10 -13t12 -9q8 -51 8 -43q0 -18 -53 -60q29 -45 29 -63q0 -8 -35 -51.5t-35 -49.5q29 -49 29 -65q0 -6 -8 -19.5t-8 -21.5q2 -31 -5 -101q-4 -27 -73 -71q4 -18 4 -53q-4 -10 -22.5 -24.5 t-22.5 -23.5q14 -10 43 -34q4 -6 4 -29v-12.5v-16.5l2 -8l-6 -6q8 -10 8 -23q0 -16 -27 -36q-39 -29 -43 -35q18 -35 19 -43q0 -16 -41 -58q0 -4 7 -24.5t7 -30.5q0 -25 -37 -45q-29 -14 -57 -29q-10 -16 -37 -43q-63 -31 -68 -30q-6 0 -16 3t-18 3q-31 0 -54.5 20.5 t-23.5 48.5q0 35 24 58q-12 14 -45 28q-14 8 -24 23q0 6 -3 20.5t-3 22.5q0 18 22 41q-18 6 -51 29q-14 18 -14 51t12 39t12 26q0 4 -19.5 25.5t-21.5 36.5q4 18 2 63q0 2 -4 10.5t-4 18.5q0 20 23 43q-18 14 -45 47q-6 14 14 82q-47 33 -47 74q0 4 6 45q-2 6 -45 35 q4 25 8 47q8 35 39 43q-25 16 -111 98q-14 14 -14 33q0 12 10.5 34.5t10.5 32.5q0 12 -11 23q-23 -25 -37 -25q-16 0 -45 80q-2 2 -9 12.5t-7 20.5q0 12 15.5 36.5t23.5 26.5q18 -2 51 9q2 2 64 61q-8 2 55 2q39 0 90 -84l-14 -35l14 -14t8 -16q0 -2 -8 -25 q-6 -8 -28.5 -21.5t-22.5 -19.5t5 -14.5t5 -14.5q25 -23 57 -37q10 -35 39 -106q-29 -29 -47 -41q0 -2 15 -10q20 -14 30 -47q2 -10 -8 -54q33 -51 33 -63q0 -20 -4 -27q-16 -14 -31 -28q4 -8 39 -43q27 -29 27 -52q0 -18 -35 -43q12 -8 30 -26q6 -18 17 -53q10 -12 26 -35 q4 -29 17 -78q2 -2 -3 -12.5t-5 -18.5v-98q20 -14 55 -41q14 14 37 45q-14 25 -15 53q0 53 70 131q0 4 -9 7.5t-11 7.5q-14 14 -15 47q0 31 11 39q25 16 34 28q2 6 -3 20.5t-5 18.5q-4 37 45 86v109q-29 29 -28 49q0 33 6 49q16 10 45 41q12 23 49 70q-18 18 -19 47 q0 8 10.5 27.5t10.5 25.5q-2 -8 -2 59q0 6 5 16.5t5 18.5t-17.5 28.5t-17.5 27.5q0 47 59.5 92t106.5 45q18 0 52 -22.5t40 -35.5q11 -22 9 -65z" />
<glyph unicode="W" horiz-adv-x="1660" d="M1446 954q0 -8 -18.5 -30.5t-20.5 -32.5q-2 -18 -4 -35q-4 -31 -23 -41q37 -37 37 -59q0 -20 -37 -54q0 4 23 -18q8 -37 8 -31q0 -25 -17.5 -45t-17.5 -24q4 -25 -4 -72q0 -2 -45 -45q6 -6 23 -12q25 -29 24 -56q0 -31 -18.5 -47t-20.5 -22q-4 -25 -24 -80q14 -8 43 -25 q20 -16 20 -39q0 -10 -12 -33.5t-19 -23.5q4 -49 -12 -68.5t-63 -46.5q-29 -25 -58 -51q-43 -37 -73 -37q-31 0 -52.5 13.5t-23.5 46.5v49q-37 12 -37 35q0 20 2 41q-20 8 -42.5 19t-31.5 28q-12 25 9 84q-16 16 -27.5 28.5t-11.5 34.5q0 6 14 35t14 35l-51 67q-2 0 -2 35 q-25 0 -53.5 13.5t-28.5 35.5q0 72 70 101q-8 33 -19 51q-2 4 -37 18q-27 10 -26 52q0 25 15.5 43t31.5 34q-6 4 -19 0q-14 -8 -20 -8q-16 0 -63 25q-18 -23 -56 -70q-6 -29 -37 -76v-14q18 0 58 -14q49 -16 49 -35q0 -27 -14 -45q-23 -27 -43 -51q0 2 2 -37q2 -29 -17 -45 q31 -25 31 -90q0 -137 -90 -183q18 -16 18 -35q0 -16 -24 -43q-37 -41 -39 -47q-2 -14 -11 -34q-6 -10 -28 -29q-66 -31 -74 -31q-18 0 -63 19q-10 35 -4 71q-20 10 -19 76q-8 6 -18.5 32.5t-6.5 39.5q-10 12 -28 65q-14 6 -31 25q-2 37 -4 117q-14 8 -37 24q-4 33 -16 103 q-55 12 -56 75q0 33 15 58q-33 14 -33 59q0 20 10 33q-18 2 -37.5 25.5t-19.5 52.5q0 18 10 36q-18 12 -38.5 26.5t-20.5 35.5q0 37 30 68q-59 23 -59 73q0 35 25 58q-18 12 -52 51q-20 33 -20 63q0 25 43 54q39 23 59 22q6 0 25.5 -8t28.5 -8q29 0 59 -17q10 -10 10 -98 q23 -23 31 -55q-2 -6 -6 -17q6 -25 0 -63q41 -16 41 -74q0 -20 -8 -35v-16q14 -2 47 -19q12 -23 45 -53q2 -8 -5.5 -29.5t-7.5 -29.5q0 -6 6.5 -18.5t6.5 -16.5q6 -12 -6 -18q4 -8 -9 -45q14 -12 39 -31q6 -16 0 -41q14 -4 30.5 -12.5t23.5 -28.5q-2 -18 -2 -53q2 -2 6 -7 q4 -10 2 -30q-4 -23 -17 -35q10 -8 33 -33q12 31 47 94q6 2 25 17q4 18 -6 35q8 -6 8 8q0 8 -2 43q-4 6 -55 18q-25 33 -25 58q0 45 61 79q8 27 19 76q-2 27 -2 78q0 14 28 33q20 14 41 26q0 -2 -23.5 9.5t-23.5 46.5q0 14 16.5 49t30.5 37l-43 33q-23 20 -22 40 q0 88 180 89q47 0 96 -17q2 -4 13.5 -22.5t11.5 -30.5q0 -8 -4 -16q8 -10 35 -29q10 -8 10 -27q0 -55 -76 -88q6 -6 49 -14q35 -6 37 -31q0 -8 -14 -59q4 -6 20 -13q31 -51 31 -53q0 -14 -17.5 -30.5t-35.5 -32.5q12 -8 67 -13q45 -4 60 -36q-2 -8 -2 -27q4 -2 43 -8 q20 -25 20 -43q0 -37 -69 -88q25 -53 22 -74q8 4 18 4q33 0 57.5 -35t24.5 -61q0 -33 -41 -68q37 -23 37 -53q0 -10 -10 -29q-12 -27 -14 -30q4 -4 12 -5q6 0 28.5 28t35.5 36q-2 8 -5 29q2 14 21.5 38.5t19.5 32.5q0 6 -18 32t-18 32q0 8 18 35q23 39 29 49q-2 18 2 53 q2 2 9 11t7 18q0 6 -10 17t-12 17q4 23 6 72q0 12 -12.5 38t-12.5 32t17.5 29.5t21.5 40t14 59.5q-53 23 -53 65q0 16 31 72q0 6 -4 24.5t-2 28.5q2 6 12 19.5t10 21.5q0 6 -4 10q-31 10 -31 64q0 20 27 57q-8 14 -8 54q18 35 35 47q31 20 79 20q29 0 60 -21.5t31 -43.5 q0 -8 -7.5 -24.5t-9.5 -20.5q0 -2 3 -12.5t3 -16.5q0 -12 -18.5 -44t-18.5 -38t20.5 -23.5t20.5 -40.5q0 -16 -26 -49q14 -57 14 -53q-8 -18 -22 -53q12 -4 32 -19q21 -20 21 -43zM543 367q0 8 -25 30q-31 29 -39 37q0 -4 -4 -22.5t-2 -22.5q12 -20 12 -35q0 -25 -6 -30 q4 0 13 4l18 -17q33 44 33 56z" />
<glyph unicode="X" horiz-adv-x="1280" d="M1098 1249q0 -16 -2 -22q-12 -20 -68 -47q-2 -12 -2 -39t-2 -39q-25 -12 -35 -27q6 -10 0 -33q-8 -23 -22 -32q-18 -2 -54 -17q-4 -2 -47 -55q6 -20 -4 -44t-31 -34q2 -4 13.5 -22.5t11.5 -28.5q0 2 -8 -43q-27 -23 -82 -39q-4 -18 -25 -49q-10 -8 -49 -16 q-31 -6 -30 -15q0 -14 17 -20t33.5 -12.5t43.5 -24.5q59 -70 59 -90q0 -23 -14.5 -40.5t-26.5 -33.5q20 -16 41 -31q35 -29 35 -47q0 -23 -35 -57q23 -6 47 -12q35 -14 45 -48q4 -18 -2 -47q16 -16 43 -53q-2 -20 -2 -59q45 -51 45 -54q0 -12 -15 -38.5t-22 -26.5 q-16 -2 -41 -10q-33 -16 -34 -17q-6 0 -23.5 4t-21.5 4q-8 8 -23 21q-102 33 -102 82q0 41 23.5 58.5t29.5 51.5q-2 2 -10 9q-14 -4 -56 -4q-31 0 -57 43q-8 12 -8 43q0 6 11 21t13 24q-35 14 -34 51q0 37 16 49q31 14 59 31q-35 18 -52 42.5t-34 49.5q0 -12 -4 -35 q-23 -14 -55 -47q-2 -16 -10 -47q-14 -31 -27 -31q-8 0 -6 3t-6 3q-14 0 -19.5 -17.5t-12.5 -38t-26.5 -27.5t-31.5 -15q-2 6 -6 -53q-12 -6 -33 -23q2 -4 0 -47q0 -2 -37 -41l-37 -37q0 -2 -59 -28q-4 0 -15 -7q16 -18 17 -28q0 -29 -26 -57.5t-54 -28.5h-41q-8 0 -45 35 q-51 51 -56 55q-20 18 -20 37q0 27 19.5 59.5t101.5 38.5q0 10 12 27q33 18 84 69q14 33 21 129q2 23 40.5 40.5t61.5 17.5q8 0 11 -4l3 -5q18 68 19 76q0 6 -12.5 24.5t-12.5 28.5q0 37 31 60q8 4 24 8q10 20 41 62q6 8 29 10q10 16 20.5 35.5t26.5 23.5l10 8 q-12 12 -20 19q-37 -8 -73 14.5t-36 61.5q0 20 2 26q10 14 52 31q-23 10 -76 53q-10 14 2 84q-10 12 -25 39q-6 18 2 59q-12 16 -43 48q-18 18 -18 49q0 2 4 30q4 18 -2 27q-12 14 -27 27q-6 8 -6 43q0 23 21 63q25 49 55 49q6 0 31.5 -7t36.5 -7q16 -18 49 -66 q10 -20 -15 -75q29 -20 45 -70q12 -41 21 -41q6 0 6 8q0 -18 2 -16q6 -18 29 -43q14 -18 14 -43q0 -8 -15.5 -33t-15.5 -33q0 -10 29 -43q2 -6 2 -24q0 -39 -53 -72q53 -27 74 -27q8 0 52 41t73 76q2 33 22 76q18 8 51 27q25 16 45 51q6 23 35 69q-12 27 -12 52q0 76 94 75 q53 0 104.5 -14.5t51.5 -73.5z" />
<glyph unicode="Y" horiz-adv-x="1110" d="M903 1282q0 -18 -20.5 -46t-31.5 -31t-26 -5q-16 -16 -51 -49q20 -55 12 -88q-2 -10 -28 -53q10 -31 10 -35q0 -20 -4 -43q-12 -12 -43 -37q-2 -14 -2 -29q-4 -20 -23 -32q18 -18 19 -31q0 -37 -41 -70t-80 -33q-25 0 -27 -4q23 -14 56 -47q0 10 -13 -82q4 -8 13 -22 q6 -31 -9 -53q6 -4 13 -9q0 -4 5 -16t5 -18l-23 -37q0 -16 -12 -56q35 -25 35 -45q0 -12 -12 -26q59 -45 59 -84q-35 -45 -66 -51q-6 -4 -12 -5q0 -8 7.5 -25.5t7.5 -25.5q0 -12 -25 -35q14 -14 20 -14q8 0 22.5 6t23.5 6q59 0 59 -53t-98 -80q-82 -20 -107 -20 q-6 0 -18.5 3t-20.5 3q-33 0 -45 33q-6 14 2 53q6 14 15 22q-12 8 -39 33q-8 12 -9 33q0 14 21 47q14 10 45 37v61q-43 8 -55 35q-16 45 -17 105q0 6 14.5 50t14.5 50q0 8 -17.5 52t-17.5 52q0 51 31 60q0 8 -18.5 8t-45.5 14q-37 18 -37 54q0 37 29 65q0 10 -4 14 q-39 -12 -70 -10q-16 10 -18 10q-43 0 -43 54q0 27 41 80q2 -4 -21 -4q-16 0 -55 24q-2 37 6 64q2 0 9.5 4t7.5 12q0 27 -45 27q-6 0 -30 -3.5t-32 -3.5q-35 0 -65 72q0 16 16 43t33 31v14q-2 0 -5 -3t-12 -3q-10 0 -35.5 34t-25.5 46q0 6 15.5 47t23.5 47q20 2 57 10 q82 33 76 33q10 0 49 -24.5t39 -36.5t-41 -54q35 -29 86 -92q6 -14 0 -26q-12 -18 -12 -21q29 -16 31 -40.5t4 -49.5q2 -12 8 -18l-29 -29q12 -8 33 -29q0 -2 -6 -37q-8 -8 6 -8q6 0 8 3t8 3q33 0 69 -26.5t36 -46.5q0 -14 -20.5 -34t-39.5 -38q61 -14 66 -14q2 0 37 45 q-4 8 -4 14q0 23 25.5 48.5t27.5 31.5q4 20 16 63q2 2 11 9q4 -6 4 8q0 6 -11.5 22.5t-11.5 24.5q0 23 15.5 48.5t15.5 39.5q0 16 -10 37q16 66 45.5 79t52.5 15q6 8 16 31q-35 12 -67 26q-20 12 -21 52q0 41 78 71q63 25 109 25q35 0 65.5 -20.5t30.5 -53.5q0 -39 -66 -65 q78 -46 78 -64z" />
<glyph unicode="Z" horiz-adv-x="1134" d="M956 1313q0 -25 -67 -70q-8 6 -35 6l-4 -4v-16q14 -6 41 -19q10 -8 28.5 -36.5t18.5 -45.5q0 -31 -59 -65q14 -18 14 -41q0 -35 -26.5 -66.5t-57.5 -31.5q8 0 -14 6q-12 2 -29 -10q0 -2 6 -9.5t6 -15.5q0 -23 -8 -35q-33 -31 -92 -92q-8 -4 -27 -12q2 -8 2 -19 q0 -55 -63 -82q25 -49 24 -47q0 -6 -8 -20.5t-8 -20.5q2 -18 2 -53q-39 -57 -119 -51q-10 -20 -39 -51q0 -2 8.5 -11.5t8.5 -15.5v-16q2 -12 2 -21q0 -43 -17.5 -58.5t-66.5 -27.5q-6 -10 -23 -39q0 -33 4 -22q-2 -10 -12 -29l-31 -31q-8 -2 -28 -10q-8 -14 -29 -37 q-51 -39 -51 -43q0 -31 8 -31l35 17q6 2 39 2q8 0 42 -12.5t42 -12.5q43 0 69 17q0 2 -6 11t-6 17q0 31 49 78q27 14 68 15q43 0 63 -27q14 -18 18 -46l3 -28q8 0 22.5 8.5t22.5 8.5q6 0 72 -21q27 -2 79 -10q29 -8 91 -47q8 -12 8 -37q0 -66 -54 -76q-16 -10 -21 -10 t-17.5 -5t-18.5 -5q-8 0 -8 5t-8 5q-6 0 -6 -2t-9 -2q-6 0 -19 12t-20 14q-63 14 -116 15q-6 0 -28.5 -6.5t-31.5 -6.5q-6 0 -21.5 9.5t-23.5 9.5q-6 0 -38.5 -23.5t-39.5 -23.5q-55 0 -49 0q2 10 -12 10h-16q-6 0 -11.5 -5t-11.5 -5h-110q-6 0 -24.5 8t-25.5 8 q-2 0 -31.5 -20.5t-56.5 -20.5h-26q-25 0 -48.5 25.5t-23.5 42.5q0 16 31 71q-10 12 -11 29q0 53 72 96q0 23 10 64q6 8 56 43q8 12 0 33l-8 24q37 82 83 82q6 0 11 -2q2 14 -6.5 31.5t-8.5 21.5q0 8 35 64q0 14 4 39q12 14 35 45t37 47q25 31 49 33q-12 10 -33 35 q-8 12 -8 28q0 31 43 58q35 23 55 22q6 0 11.5 -3t11.5 -3q23 0 43 35q10 20 20 41q14 10 33 30q6 18 21 54q12 8 32 28q0 16 9 47q8 12 61 41q2 2 8 6.5t6 14.5q0 8 -7 16l-7 8l6 54q-14 16 -29.5 32.5t-15.5 32.5t25 64q4 4 -10 4q-35 0 -67 -26.5t-81 -26.5 q-31 0 -53.5 -24t-46.5 -24q-6 0 -44 6.5t-44 6.5t-12.5 -9.5t-14.5 -9.5h-65q-25 0 -46 9q-12 6 -27.5 24.5t-15.5 30.5q0 37 9 65q16 12 37 47q0 23 10 60q12 23 59 41q6 2 21 2q31 0 65.5 -24.5t44.5 -49.5v-29q2 -23 21 -22q6 0 101 45t101 45q16 0 82 -37q6 0 28 6 t30 6t32.5 -6t32.5 -6q6 0 12.5 3t13.5 3t6 3t5 3q25 0 61.5 -21t36.5 -50z" />
<glyph unicode="a" horiz-adv-x="1216" d="M1004 178q0 -23 -50.5 -57.5t-62.5 -34.5h-70q-20 0 -41 31q-2 4 -8 41q-70 18 -70 84q0 29 41 65q-39 14 -43 17q-29 16 -32 43q0 12 8 47q6 18 2 45q-4 29 -14 28q-6 0 -46 -6t-49 -6q-6 0 -41 17q-41 18 -51 21t-26 3q2 0 -21.5 -23.5t-48.5 -23.5q-6 0 -38 7t-44 7 q-18 29 -33 29q-16 0 -22 -10q6 -20 2 -53q-10 -4 -10 -11v-12q18 -12 35.5 -24.5t17.5 -26.5q0 -6 -6.5 -24.5t-8.5 -24.5q-14 -6 -18 -13q2 -10 2 -18q0 -31 -59 -70q-14 -8 -33 -37q-23 -35 -27 -38t-19.5 -10t-21.5 -7q-18 0 -61 27q-10 10 -29 28q-8 8 -8 27q0 2 40 45 t40 90q0 16 -6 33q-14 53 -13 74q25 31 78 88q-4 12 -4 24q0 61 72 76q-8 2 -23 10q0 4 -6 20.5t-6 24.5q0 14 18 45q-8 59 -8 46q0 45 66 67v21q-53 -8 -53 57q0 29 10 37q25 18 33 31q-14 20 -15 47q0 66 68 67q0 4 -4 14.5t-4 18.5q0 6 10 40t12 50q10 12 29 41v35 q0 41 55 72q-6 4 -17.5 29.5t-11.5 33.5q0 14 14.5 32.5t28.5 33.5q-4 23 0 47q0 8 27 26.5t39 18.5q37 0 66 -15q6 -4 21 -21.5t19 -17.5q6 0 15.5 3.5t17.5 3.5q41 0 74 -29q4 -6 12 -10q4 -33 -2 -58q23 -12 66 -43q8 -14 6 -98l10 -6q0 -84 -31 -102q18 -37 19 -48 q0 -23 -18.5 -40t-24.5 -29q37 0 63.5 -24.5t26.5 -57.5q0 -6 -14.5 -26.5t-16.5 -26.5q47 -29 47 -64q0 -31 -26.5 -51.5t-57.5 -20.5q-29 0 -67 17q-49 23 -49 55q0 27 30 68q-20 25 -47 32v76q12 8 41 27q-23 14 -74 51q-2 6 -2 29v26q4 12 35 37v99q-25 12 -48 25 t-21 32q-10 -10 -36 -24.5t-26 -22.5q0 -6 15.5 -35t15.5 -39q0 -31 -35 -55q2 8 2 -29q0 -4 -6 -16.5t-6 -18.5q0 -55 2 -41q-4 -23 -27 -37q-12 -2 -41 -18q2 -14 2 -41q-10 -14 -32 -45q6 -6 17 -13t13 -12.5t6.5 -23t4.5 -25.5q0 -55 -72 -82q25 -18 24 -45 q0 -41 -14 -106q-2 -10 -27 -35q14 -16 29 -16q8 0 90 63q10 8 58 8q31 0 63.5 -35.5t58.5 -35.5h19l65 51q-16 8 -45 28q-14 14 -14 41q0 18 18.5 37t36.5 35q45 8 43 8q8 0 56.5 -24.5t50.5 -38.5q6 -35 -8 -68q23 -14 43 -28.5t20 -47.5q0 -27 -30.5 -48t-63.5 -42 q18 -16 94 -45q41 -14 41 -61l-35 -53q12 -10 25.5 -21.5t19.5 -32.5q4 -16 -8 -51q0 -2 35 -39q23 -22 23 -45z" />
<glyph unicode="b" horiz-adv-x="1138" d="M938 412q0 -27 -53 -93q41 -41 41 -53q0 -33 -23.5 -56.5t-23.5 -35.5q0 -4 18 -20.5t18 -26.5q0 -6 -7 -27.5t-7 -29.5q-27 2 -29 -31q-4 0 -14 12q-4 -2 -11 -10t-16 -8q-6 0 -5 3t-5 3q-8 0 -27.5 -24.5t-34 -33t-57.5 -8.5q-51 0 -75 9q-4 2 -16.5 15t-20.5 13 q-6 0 -18.5 -13t-20.5 -15q-41 -14 -68 -15q-6 0 -38.5 12.5t-41.5 12.5q-8 0 -11 -8l-3 -9q-72 -18 -70 -18q-8 0 -16 5t-14 5t-9.5 -2t-11.5 -2l-24 23q-23 -8 -29 -21.5t-35 -13.5q-74 0 -74 82q0 27 41 67q-41 23 -41 58q0 6 11.5 86t11.5 88q0 4 -13.5 19.5t-13.5 27.5 q-2 8 6.5 32.5t10.5 39.5q0 6 -12.5 25.5t-12.5 25.5q0 53 53 86v8q-43 0 -69 41q2 14 2 47q0 4 -7 20.5t-7 24.5q0 12 18 51q8 6 25 23q-2 4 0 12q4 10 4 19q0 10 -2 26q-6 10 -39 12q-35 37 -23 68q2 8 8 23q-10 -2 -10 12l6 6q-6 10 -6 27q0 55 47 86q-14 10 -31 20 q-29 23 -28 43q0 25 47 72l-49 24q-33 16 -33 45q0 49 51 78q16 2 51 10q12 12 41 31q20 8 56 8q6 0 31.5 -11t31.5 -11q8 0 14.5 12t10.5 15q18 14 53 14q31 0 115 -55q6 -6 22.5 -29t24.5 -23q4 0 15 10.5t15 10.5q14 2 37 4q8 4 23 18q8 10 39 11q35 0 70.5 -30t43.5 -73 q2 -16 28 -50t44 -34q12 -18 31 -51q-2 -16 4 -41q2 -6 14.5 -20.5t12.5 -22.5q0 -23 -70 -78q53 -53 53 -63q0 -16 -41 -62l8 -32q2 -10 -12 -48q-6 -20 -63 -34q-4 -6 -29 -62q35 -23 86 -74q29 -27 72 -84q-2 -16 -2 -53l32 -24q25 -20 25 -43zM725 1010q-4 0 -14.5 3 t-29.5 20.5t-19 31.5q0 10 6 22.5t6 16.5q0 6 -17 33q-14 18 -8 32q-4 2 -25.5 2t-43.5 41q-6 10 -2 41q-16 0 -42 6.5t-32 6.5t-23.5 -8.5t-23.5 -8.5t-48 17.5t-49 17.5q-2 0 -25.5 -32.5t-39.5 -32.5q-55 0 -82 -7q12 -14 25 -26q16 -18 16 -31q0 -18 -28.5 -40.5 t-43.5 -16.5q25 -8 51.5 -29.5t26.5 -34.5q0 -31 -31 -59l31 -45q0 -8 -12 -33q12 -2 37 -10q6 -10 23.5 -28.5t17.5 -24.5q0 -37 -54 -52l-12 -16q12 0 12 -12h49h35q-2 0 90 12q2 0 34 25.5t63 25.5q8 0 21.5 -2t19.5 -2q8 0 21 6t18 6q25 51 24 56q0 53 -2 45 q21 61 80 84zM762 326q-37 35 -37 59q0 6 10 35t13 37q-4 -2 -9 -2q-25 0 -49 30.5t-18 49.5q-2 0 -5 -3.5t-12 -3.5q-25 0 -41 35q-4 12 -10 29q-43 0 -117 6q-6 0 -20 12.5t-21 12.5q-6 0 -19 -5.5t-19 -5.5q-8 0 -61.5 8.5t-59.5 8.5t-36 -11.5t-38 -11.5t-25 -16 q39 0 62 -17q39 -27 39 -57q0 -6 -11.5 -24.5t-11.5 -24.5t14.5 -30.5t14.5 -30.5q0 -8 -11.5 -26t-11.5 -26q0 -6 7.5 -20.5t7.5 -20.5q0 -8 -4 -26.5t-4 -26.5q0 -6 7 -21.5t7 -19.5q-2 18 -2 -82q0 -14 18.5 -29.5t26.5 -15.5q10 0 15 3t11 3q8 0 13.5 -6t11.5 -6 q4 0 50 39t100 39q-4 0 139 -27q12 -8 37 -20q2 10 22.5 36.5t20.5 32.5t-17.5 31t-17.5 31q0 23 41 78z" />
<glyph unicode="c" horiz-adv-x="1064" d="M932 995q0 -66 -68 -65q-6 0 -15 6t-20 6q-4 -4 -4 -29q-14 2 -26.5 -11t-24.5 -13q-8 0 -27.5 6t-25.5 6q-70 0 -70 51q0 18 11 45q-2 2 -29 11q-10 4 -20.5 27.5t-10.5 33.5q0 37 35 59q-12 10 -49 23q-12 16 -27 70q-8 -2 -29 0q-6 2 -26.5 15t-28.5 13 q-4 0 -26.5 -12t-44.5 -14q-2 -10 -17 -33q-31 -25 -53 -25q-6 0 -11.5 6.5t-11.5 6.5q-4 0 -37 -15q6 -14 23 -39q4 -12 -8 -26q0 -2 5 -8.5t5 -14.5q0 -51 -8 -67q-4 -8 -41 -15q-4 -33 -25 -90q-6 -8 -26 -12q-27 -6 -35 -10q43 -29 53 -60q0 -8 -6 -32.5t-6 -36.5 q12 -14 20 -21q0 -8 4.5 -40t4.5 -38q0 -2 -5.5 -34.5t-3.5 -47.5q-10 -10 -61 -51q53 -14 53 -78q0 -6 -10 -23.5t-12 -29.5q-4 -10 4 -31q10 -27 10 -39q0 -18 -19.5 -54t-19.5 -40q0 -37 6 -45q10 -14 47 -34.5t50.5 -32t13.5 -47.5q0 -8 -10 -25q-14 -23 -19 -33 q12 -4 40 1t30 5q6 0 33.5 -11t35.5 -11q6 0 30 3t32 3q23 0 43 51q-12 80 0 111q16 18 49 28q55 18 59 20.5t25 2.5q12 0 12 10q0 18 -23.5 32.5t-23.5 39.5q0 35 21 67q78 33 114 33q47 0 56 -78q8 -12 26 -12v-49q2 -33 -26 -53q6 -68 6 -70q-2 -41 -27 -61 q-33 -25 -67 -25q-8 0 -11 3l-4 3q-2 -20 -14 -57q-29 -53 -53 -78q-16 -4 -45 -20q-16 -18 -54 -43q-35 -14 -49 -15q-6 0 -29.5 10.5t-35.5 10.5q-55 -2 -172 4q-6 0 -24.5 8t-27.5 8q-8 0 -9 -3t-9 -3q-12 0 -25 27q-25 47 11 88q-37 18 -95 59q-20 25 -41 86 q-18 53 -18 68q0 14 18 112q6 31 54 76q-31 18 -31 66q0 33 18 53q-14 6 -39 29q-8 12 -8 32q0 31 39 76v-2q2 0 2 2v8t-47 35q0 18 2 45q4 6 15 19q0 90 55 122q-2 4 -43 27q6 43 31 158q2 4 81 67q-16 2 -31.5 22.5t-15.5 41.5q0 29 15 41q27 29 88 80q12 8 33 8 q8 0 23 -5t22 -5q6 0 21 3t24 3q45 55 71 55q12 0 43 4t37 4q8 0 27.5 -11t25.5 -11q8 0 16.5 5t14.5 5t38 -14.5t38 -14.5q8 0 11 3t9 3q41 0 71 -27.5t93 -88.5q2 2 8 -27q2 -8 -8 -37q16 -6 39 -28q6 -25 21 -70q20 -18 47 -51q4 10 4 -19z" />
<glyph unicode="d" horiz-adv-x="1193" d="M991 580q0 -12 -59 -70q-12 -18 -41 -49q2 -6 13 -23.5t11 -25.5q0 -16 -22 -58q-6 -4 -21 -12q12 -8 36 -30.5t24 -47.5q0 -33 -29 -52t-51 -19q-8 0 -11 3t-5 3q-2 -4 -2 -43t-62 -62q18 -47 4 -65t-55 -47q4 -12 2 -35q-18 -49 -100 -51q-6 -12 -29 -43 q-10 -4 -29 -11q-12 -14 -37 -37q-6 -2 -26.5 -5t-28.5 -3t-49 9.5t-49 9.5t-83 -12.5t-83 -12.5q-6 0 -18.5 3t-18.5 3q-8 0 -28.5 -15t-28.5 -15q-6 0 -13.5 3t-13.5 3q-31 0 -56.5 19.5t-25.5 60.5q0 37 39 67q0 14 1 31.5t20 32.5q-23 16 -48 32q-12 10 -12 35 q0 33 29 74q-2 12 -35 27q-8 49 29 84q51 45 59 71q-33 12 -39 29q-20 47 -20 86q0 23 8 35q23 37 55 37q6 0 9 -3.5t12 -3.5q14 0 47 33q-2 4 -45 33q-4 4 -11 37q-25 12 -26 22q-2 2 -2 31q0 35 30 59q-18 8 -53 35q-4 31 19.5 67t46.5 70q0 4 -4 29q-4 18 -2 31 q2 6 12 18.5t10 16.5q0 -4 -6 16q-8 4 -27.5 35t-19.5 43q0 29 27 41q23 6 45 14q-14 6 -35 27q0 27 -15 76q-10 8 -36 34q-2 8 -2 17q0 12 21.5 45t45.5 33q41 0 82 -27q10 -12 31 -31q23 -8 43 -14q35 -12 51 -35q27 18 53 19q6 0 21.5 -3.5t21.5 -3.5q8 0 28.5 9.5 t27.5 11.5q27 8 59 8q12 0 66.5 -19.5t82 -36t27.5 -57.5q33 -10 92 -36q8 -12 25 -35q4 -4 33 -21q18 -12 24 -32q2 -8 -8 -66q20 -8 38.5 -32.5t18.5 -41.5q0 -53 -41 -57q23 -43 25 -80q20 -6 35 -33q18 -37 22 -41q-35 -49 -35 -55q0 -8 17.5 -31.5t17.5 -29.5zM815 639 q-23 16 -39 70q-51 27 -51 55q0 18 14.5 44t32.5 32q37 12 43 22q-20 14 -27 23q-12 12 -14 30q2 16 2 41q-63 27 -76 60q-16 6 -32 18q-14 35 -15 66q-20 0 -63 13t-62 13q-20 16 -26 17q2 0 -22.5 -20.5t-63.5 -20.5q-2 0 -74 16v-20q2 -4 13.5 -17.5t11.5 -19.5 q0 -59 -68 -60q-8 0 -10 3.5t-8 3.5q-10 0 -23.5 -17.5t-15.5 -29.5q10 -4 22 -29t12 -35q0 -12 -16 -43q2 0 4 3t10 3q25 0 52.5 -27.5t27.5 -46.5q0 -25 -8 -34q-12 -16 -39.5 -37t-38.5 -21q-6 0 -31.5 5.5t-35.5 5.5q14 -10 32 -33q39 -61 39 -92q0 -20 -18 -43 q59 -45 59 -78q0 -16 -17 -42t-32.5 -33t-38.5 -30q12 -6 29.5 -31.5t17.5 -41.5q0 -31 -14 -72q-8 -23 -39 -41t-37 -27q37 -45 37 -69q0 2 -41 -78q27 -10 53 -62q111 41 144 41q8 0 32.5 -8t32.5 -8q6 0 19.5 17.5t21.5 17.5t15.5 -3t13.5 -3q12 0 37 22q39 37 41 39 q0 14 4 35q16 35 49 53q0 20 4 53q12 16 31 48q-27 14 -14 59q8 25 33.5 37t47.5 22q-23 25 -22 52q0 23 22 69q-23 0 -22 39q0 53 74 82q0 2 20 43z" />
<glyph unicode="e" horiz-adv-x="987" d="M831 1145q0 -25 -22.5 -46.5t-44.5 -21.5q-6 0 -43 -3t-45 -3q-6 0 -20.5 12.5t-20.5 12.5q-10 0 -23 -11q-23 -2 -88 -2q-6 0 -33.5 12.5t-33.5 12.5q-10 0 -17 -16q-53 -20 -71 -21q-20 0 -47 4q2 -10 -13 -10q-6 0 -39.5 9t-42.5 9q-6 0 -21.5 -9t-23.5 -11v-12 q53 -31 54 -56q0 6 -17 -32q-16 -4 -47 -19q-2 -8 4 -22.5t6 -22.5q0 -18 -28 -31q31 -16 63 -32q43 -29 43 -68q0 -25 -37 -47q20 -23 56 -70q10 -16 12 -30q2 -4 18 -5q8 0 24.5 3.5t22.5 3.5q12 0 84 -39q6 -2 15 -2q6 0 31.5 12t34.5 15t57 3q37 0 66.5 -26.5 t29.5 -50.5q0 -20 -23 -58q-4 0 -16 -10t-19 -12q-39 -4 -116 -17q-6 -2 -20.5 -10t-25 -8t-36 -2t-31.5 -2q-8 0 -45 18q-45 18 -66 25q4 -16 5 -51q-10 -10 -25 -37q2 -29 -14 -76q47 -57 47 -74q0 -20 -35 -45q16 -8 39 -35q14 -29 14 -37t-18 -24l-27 -27q-12 0 -43 -6 q29 -18 80 -53q0 4 4 -57q18 -20 45 -21q8 0 36 -6t36 -6q6 0 26.5 8t28.5 8t9 -2t10 -2q14 0 28 21q18 33 29 40q68 8 63 9q39 0 81 -31t42 -61q0 -27 -17.5 -53.5t-31.5 -30.5q-35 -2 -106 -15q-2 -4 -11 -14q-16 -4 -55 -23q-18 -8 -53 -8q-6 0 -38 6t-39 6t-10 2.5 t-9 2.5q-20 0 -71.5 -20.5t-102.5 -20.5q-6 0 -21.5 6t-24 6t-21.5 15.5t-13 25.5q0 47 82 110l-58 15q-37 10 -37 47q0 25 23.5 55.5t48.5 36.5q-8 6 -43 20q-23 8 -23 37q0 25 23 60q-57 39 -57 59q0 25 22 57q-33 27 -37 29q-10 12 -10 35q0 6 8 22.5t8 22.5q0 78 3 92 q-12 23 -13 51q0 23 11.5 36.5t21.5 27.5l2 -2v2v8q0 4 -6 25q-82 49 -82 69q0 27 25 58q12 18 26 34q8 29 27 66q0 4 -10 10q-18 0 -37 18.5t-19 32.5q0 23 25 45q18 14 39 29v17q0 18 -2 20q2 -6 -13 -6q-61 0 -61 100q0 53 20 74q6 6 17.5 10l34.5 12q16 20 43 56 q41 8 39 8q8 0 28.5 -8t26.5 -8q8 0 8 2t8 2q6 0 18.5 -10.5t14.5 -10.5q57 -16 168 -55q4 106 76 106q41 0 125 -77l43 30q4 0 8 3t12 3q39 0 82 -26q16 -10 37.5 -41t21.5 -43z" />
<glyph unicode="f" horiz-adv-x="884" d="M715 1276q0 -29 -21 -53q-31 -39 -65 -39q-8 0 -11.5 3t-9.5 3q-8 0 -51 -17.5t-49 -17.5t-35 14.5t-37 14.5q-2 0 -25.5 -4t-35.5 -2q2 -14 0 -39q-2 -10 -31 -36t-45 -26q-25 0 -72 25q-2 -2 -2 -27v-22q29 -33 29 -49q0 -6 -18.5 -27t-28.5 -27q12 -8 33 -26 q49 -82 49 -115q0 -6 -11.5 -29.5t-11.5 -31.5q0 -10 13.5 -22.5t23.5 -12.5q8 0 28.5 5t28.5 5q53 0 71 -14.5t67 -22.5q6 -10 12 -10t22.5 3t24.5 3q37 0 64.5 -22.5t27.5 -47.5q0 -31 -30.5 -57.5t-55.5 -26.5q-2 0 -38 9.5t-68 7.5q-6 0 -24.5 4t-26.5 4 q-8 -10 -13.5 -35.5t-18 -33t-67.5 -38.5q0 -20 -3 -42.5t-28 -45.5q0 -2 21 -14q10 -18 4 -25l6 -6q0 -18 -35 -41q4 -12 41 -32q0 -14 -15 -44t-15 -36t7 -20.5t7 -20.5q8 -10 22 -10q-31 -31 -30 -64q0 -18 23.5 -25.5t43.5 -13.5q10 -6 11 -29q-2 -29 0 -32 q4 -20 28 -31q-8 -16 -36.5 -50t-41.5 -42q-31 -6 -24 -6q-35 16 -43 16q-6 0 -18.5 -6t-18.5 -6q-41 0 -63 26q-2 20 -13.5 61.5t-11.5 45.5q0 6 11 21.5t11 23.5t-8 14t-14 11q-12 43 -12 92q14 6 32 28q-6 14 -6 47q0 4 7.5 18.5t7.5 22.5l-12 11q-13 12 -13 37 q0 16 4 38q-10 14 -24 50q-6 31 8 53q2 8 0 16q-2 4 -9.5 14.5t-7.5 18.5q0 45 12.5 66.5t43.5 23.5q2 2 7 3t9 3q-100 8 -100 99q0 8 20.5 39.5t20.5 39.5t-14.5 35t-18.5 37q4 8 0 16q-14 14 -35 43q-4 10 -4 29q0 49 41 72q-16 59 -27 86q-20 51 -47 67q0 4 -4 18.5 t-4 22.5l37 66q-4 25 -4 39q0 70 76 69q47 0 77 -30q6 8 17 22q20 20 65 21q8 0 33 -12.5t33 -12.5q6 0 24.5 6t24.5 6q8 0 39 -17t39 -17q6 0 23.5 3t25.5 3q8 12 25 31q27 20 69 20q37 0 74 -29.5t37 -60.5z" />
<glyph unicode="g" d="M969 1096q0 -33 -41 -54q-33 -18 -68 -18q-8 -6 0 -23q8 8 19 -4q-16 -6 -17 -10q0 2 6 -10t2 -29q-33 -27 -65 -53q-45 -35 -68 -35q-16 0 -45 43q-2 10 -10 29q-12 12 -37 35q-2 0 -2 14q0 41 43 76q25 6 74 30q0 14 8 46q-18 10 -51 30q2 20 -2 64q-23 2 -39 -4 q-4 -2 -24.5 -14.5t-28.5 -12.5h-29q-31 0 -66.5 20.5t-33.5 20.5q-47 0 -60 -68q-47 -31 -82 -41q-8 -8 -28 -24q-10 -2 -31 -4q-8 -12 -10 -37t-9 -31q-14 -16 -38 -51q66 -66 65 -90q0 -55 -53 -66q10 -20 22 -20q-4 -18 -12 -49q-12 -10 -33 -31q-12 -23 -49 -51 q-2 0 -10 -6q29 -25 63 -74q2 -12 2 -27q16 -10 37 -37q8 -18 8 -41q0 -12 -32 -59q-4 -16 -17 -43q-10 -6 -30 -27q14 -43 8 -65l-9 -11q-8 -10 -8 -18t27 -35.5t27 -35.5q0 -6 -11.5 -27t-11.5 -29q0 -2 57 -49q25 -20 46 -70q6 6 26 7q23 0 62 -21q12 -20 18 -20 q14 0 76 24q14 20 43 49l25.5 8.5t27.5 6.5l31 -6q31 -5 49 0q0 -2 -4 47q-2 33 12 47q2 6 2 14q-18 6 -33 35q-8 16 -8 43q0 25 29 44t53 40q-8 6 -26 16q-4 2 -19 45q-6 6 -16 7q-6 0 -24.5 -6.5t-24.5 -6.5q-25 0 -60 19q-18 12 -35 39q-68 6 -96.5 23.5t-28.5 66.5 q0 8 10.5 24.5t12.5 20.5q-4 23 2 57q12 10 31 31q10 0 40.5 7t39.5 7q6 0 42.5 -20.5t43.5 -20.5q6 0 27.5 6t27.5 6q8 0 33.5 -10t36.5 -12q29 -2 77 -10q12 -4 33 -28t21 -34q0 -8 -14.5 -34.5t-14.5 -34.5t3 -8.5t3 -2.5q35 -18 35 -59q0 -59 -53 -84q2 -8 19 -27.5 t17 -27.5q0 -12 -36 -94q10 -6 25.5 -19.5t15.5 -48.5q0 -23 -18.5 -52.5t-39.5 -27.5q-2 -4 6.5 -21.5t3.5 -43.5q-4 -31 -20 -39q-47 -25 -82 -25q-8 0 -48 2t-46 2q-2 0 -23 -6q-6 -25 -50 -44.5t-68 -19.5q-8 0 -46 14.5t-47 14.5q-6 0 -26.5 -3t-26.5 -3q-37 0 -57 8 q-12 8 -35 23q0 4 -4 20.5t-4 26.5q-12 0 -43 4q-37 2 -49 4q-33 35 -101 70q-8 31 -8 24q0 18 13.5 45t27.5 33q-41 37 -41 49q0 27 35 86q4 -2 -29 -2q-18 0 -35.5 19.5t-17.5 35.5q0 6 9 29t9 31q0 4 -3 14t-3 19q0 23 19 49q16 14 34.5 31.5t18.5 37.5q-55 20 -55 52 q0 35 22.5 53t42.5 33q-20 18 -41 37q-29 25 -28 34q0 25 12 43q23 23 65 74q-8 74 29 96q0 4 -10 11q-29 -2 -48.5 20.5t-19.5 40.5q0 29 39 82t68 43q0 16 12 61q-12 20 -12 39q0 35 35 62q31 20 61 20q8 0 22.5 -6t20.5 -6q4 0 45 50t102 50q8 0 41 -20.5t41 -32.5 q23 41 54 53q18 6 67 6q16 0 47 -32q16 -18 35 -37q25 -6 70 -27q16 -10 20 -47q-6 -25 -6 -22q31 -8 74 -52q-6 -4 -8 -14q6 -8 47 -35q33 -23 37 -49q4 -6 4 -14z" />
<glyph unicode="h" horiz-adv-x="1218" d="M997 41q0 -31 -5 -38t-54 -44q-4 -4 -61 -10q-8 -6 -19.5 -11.5t-40.5 -5.5q-33 0 -44 7.5t-40 44.5q-2 18 0 51q6 6 15 22q-23 27 -23 56q0 49 43 77q-37 33 -37 74q0 39 25 55q-10 10 -29 35q-2 4 -2 33q0 45 18.5 49t18.5 23q0 6 -17.5 37.5t-19.5 46.5q-8 10 -20 10 q-6 0 -14.5 -6t-14.5 -6q-8 0 -11 6t-10.5 6t-32 8t-32.5 8q-4 0 -32 -20.5t-42 -24.5q-31 -8 -67 -8q-23 0 -44.5 21.5t-58.5 21.5q-35 0 -49 -35q2 -8 2 -28q-6 -10 -23 -25v-14q41 0 66 -31t25 -61q0 -10 -31 -41q0 2 20 -27q10 -10 11 -39q0 -27 -7 -35q-18 -20 -36 -39 q10 -8 26 -18q2 -6 9.5 -24.5t7.5 -26.5q0 -20 -48 -49q8 -6 27 -19q0 -6 7 -25.5t7 -27.5q0 -16 -55 -60q-25 -18 -55 -18q-96 0 -96 88q0 27 24 39q0 6 -13 12t-18 11q-23 29 -22 65q0 2 29 47q-12 10 -29 35q0 20 -4 66q0 4 -7.5 16t-7.5 20q0 23 17 43q23 33 31 50v16 q-49 6 -65.5 20.5t-16.5 57.5q0 33 24 53q33 27 39 41q-8 6 -20 16q-20 39 -21 58q0 6 31 51q-33 27 -33 57q0 6 2 22.5t2 24.5q-4 12 -12 25q2 14 2 41q-6 8 -31 24q-6 8 -18 23q0 6 -4 21.5t-4 23.5q0 33 43 78q0 -2 2 -2q0 -2 2 0v6t-6 27q-12 2 -33 12q-37 27 -37 61 q0 25 16.5 63t36 49t49.5 15q8 4 19 11q6 0 21.5 3t23.5 3q10 0 42 -24.5t32 -33.5q2 -16 6 -53q-2 -4 -17 -16q20 -20 39 -25q20 -39 21 -55q0 -31 -15 -45q-8 -6 -26 -25q-6 6 -6 -8q0 -4 10 -8q10 -43 6 -66q2 -4 25 -41q12 -16 12 -41q0 -8 -9.5 -19t-11.5 -15 q8 -18 9 -35q0 -16 -8.5 -33.5t-8.5 -22.5q0 -4 39 -43q47 23 70 23q4 0 59 -8q31 -14 23 -15q14 20 53 35q31 12 47 13q6 0 90 -29q23 0 70 -8l8 10q-23 31 -23 55q0 4 17 45q6 20 8 66q6 8 14 24l7 39q4 29 20 43q-14 6 -35 21q-12 14 -12 49q0 39 53 82q-12 8 -12 29 q-2 33 -2 34q-45 37 -45 74t30.5 58.5t71.5 21.5q66 0 113 -55q-6 -35 -2 -54q4 -18 28 -26q6 12 7 -19q0 -35 -11.5 -50t-21.5 -30q10 -29 10 -51q0 -45 -37 -67q16 -16 29 -21q12 -14 12 -51q0 -6 -5 -20.5t-5 -20.5q0 -61 2 -47q-4 -27 -27 -43v-12q0 -18 13 -23 q29 -8 30 -10q25 -14 28 -40t5 -50q-35 -20 -59 -45q4 -2 10 -6q0 -10 4 -41t4 -39t-4 -24.5t-4 -20.5q-12 -8 -25.5 -15.5t-13.5 -15.5q0 -18 21 -35q2 -23 6 -63q2 -18 22 -25q2 -2 12.5 -19.5t10.5 -27.5q0 -70 -60 -96q0 -20 27 -31q0 -2 4 -47q10 -8 31 -21 q26 -18 26 -59z" />
<glyph unicode="i" horiz-adv-x="661" d="M449 193q6 -86 -50 -123q-29 -18 -73 -19q-20 0 -46 24.5t-52.5 50.5t-26.5 54q0 51 30 64q-4 14 -28 16q-14 35 -15 53q0 51 37 76q-18 4 -37 53q-16 41 -16 54q0 33 23 53q-49 33 -50 72q0 10 4.5 34.5t2.5 38.5q-16 10 -34 33t-18 55q0 27 35 52q-57 78 -49 112 q4 16 -6 58q2 45 6 129q-20 16 -23.5 35.5t-5.5 35.5q-12 12 -34.5 44t-22.5 69q0 14 25 59q6 10 25.5 23.5t29.5 13.5q8 0 31.5 -12t27.5 -21q16 -2 43 -4q10 -10 15.5 -36.5t9.5 -32.5q20 -8 55 -25q27 -31 27 -53q0 -4 -11.5 -23.5t-11.5 -29.5q10 -20 15 -66 q-2 -18 -14.5 -62t-12.5 -53q0 -25 41 -39q18 -12 18 -28t-41 -72q35 -29 39 -63q-8 -16 -14 -41q8 -23 37 -23q8 0 10 3l2 3q14 -39 14 -65q0 -41 -30 -74v-14q33 -2 41 0q2 -16 19.5 -46t17.5 -36q0 -29 -41 -80q10 -8 32 -37q2 -4 2 -23q0 -49 -41 -81q16 -8 37 2 q-2 0 -2 -17q0 -10 6.5 -15t8.5 -7q-4 -6 -2 -27q8 -8 41 -22z" />
<glyph unicode="j" horiz-adv-x="1050" d="M856 1264q0 -35 -51 -84q-2 -6 7 -18.5t9 -22.5q0 -35 -45 -88q2 -10 -3 -33t-5 -29t12.5 -19.5t14.5 -23.5q-6 -29 -2 -84q0 -2 11 -16.5t11 -22.5q0 -6 -45 -74.5t-45 -74.5t12.5 -25.5t12.5 -27.5t-12.5 -24.5t-12.5 -23.5q0 -6 15.5 -25.5t15.5 -27.5t-15.5 -31.5 t-15.5 -29.5q0 -8 12.5 -22.5t12.5 -22.5t-14.5 -26.5t-14.5 -27.5q0 -6 17.5 -33.5t17.5 -33.5q0 -25 -15 -45q-4 -4 -14 -12q-4 -39 -16 -66q-14 -14 -43 -41q-4 -14 -15 -35q-37 -55 -71 -55h-45q-6 0 -12.5 3t-14.5 3q-16 0 -33.5 -22.5t-19.5 -22.5q-49 -20 -76 -20 q-8 0 -32.5 17t-33.5 17q-6 0 -18 -2t-21 -2q-41 0 -51 8q-63 61 -170 152q-8 6 -31.5 41t-23.5 47q0 6 10 26.5t10 28.5q0 18 -2 54q-12 18 -12 34q0 20 31 52q6 12 22 32q35 27 62 27q8 0 22.5 -4t18.5 -6q16 -18 35 -37q6 -10 10 -45q8 -8 13 -12.5t5 -20.5 q0 -20 -10 -35q-2 -2 -12 -8q2 12 4 -20q0 -16 -12 -19v-4q0 -20 18 -39q129 -129 135 -129t16.5 6t16.5 6q14 0 74 -24q-8 41 53 84q14 10 31 49q-4 10 -4 25q0 47 38 77q0 2 -9 7.5t-13 13.5q-14 29 -14 45q0 8 7 24.5t7 26.5q8 2 22 12v88q-10 4 -22 23q2 27 -4 76 q-4 12 -15 30q-8 12 -8 31q0 39 18.5 58.5t37.5 21.5q23 84 22 74q0 6 -8 17t-8 18q2 23 -4 69q-2 8 -11.5 25.5t-9.5 25.5q0 72 37 144q2 4 45 31q-66 147 -65 149q0 27 20 58.5t53 31.5q78 0 111 -41t63.5 -82.5t30.5 -68.5z" />
<glyph unicode="k" horiz-adv-x="1191" d="M1022 115q0 -8 -15.5 -32t-27.5 -30q-53 -33 -119 -45q-4 -2 -19.5 -9t-23.5 -7q-6 0 -21.5 11t-25.5 15q-8 20 -43 53t-41 52q4 23 -4 59q-6 10 -25 17q-29 12 -30 14q-12 6 -24.5 32.5t-10.5 43.5q-80 63 -86 69q-41 43 -39 97q-23 18 -53 65q0 8 7 29.5t7 30.5 q2 14 -6 49t-8 55q-10 0 -15 4q-16 -27 -47 -76q-20 -12 -51 -41l-14 -63q-6 -25 -51 -70q8 -2 20 -6q27 -27 27 -53q0 -20 -41 -76q37 -18 39 -43q0 4 -15 -70q20 -14 21 -40q0 -20 -17 -60q55 -31 56 -76q0 -45 -40 -74.5t-83 -29.5q-18 0 -46 14.5t-32 34.5q0 14 -2 45 q-57 35 -57 76q0 8 20 40t20 40q0 6 -15 26.5t-15 28.5t15 34.5t15 35.5q0 6 -17 26.5t-17 28.5q0 6 17 40t17 40t-12 21.5t-12 25.5q0 16 31 115q-29 20 -41 45q2 -4 2 47q0 4 -7.5 20.5t-7.5 22.5q0 29 23 51q-23 35 -23 59q0 47 35 66q-29 29 -28 45q0 8 14 31.5t14 31.5 q0 6 -11 17.5t-11 17.5q0 31 12 58q10 6 29 22q-37 12 -50 98q-33 23 -32 56q0 12 5 33.5t3 29.5q-2 12 -20.5 43t-18.5 41q0 23 31.5 54.5t56.5 31.5q125 0 125 -98q0 -6 -12.5 -28.5t-12.5 -30.5q0 -6 10.5 -17.5t12.5 -17.5q-2 -14 -4 -45q47 -35 47 -52q0 -61 -41 -69 q6 -12 33 -31q20 -16 20 -39q0 -27 -26 -59q10 -10 10 -31q0 -49 -55 -82q4 -4 16 2q0 -4 10 -13t12 -18q4 -14 -10 -69q4 -4 8.5 -6t8.5 -4q16 25 51 67q16 10 35 19q35 23 34 37q0 6 -21.5 32.5t-25.5 40.5v0v2v8q0 39 47 66q39 23 74 23q6 0 15.5 -3.5t17.5 -3.5 q6 0 19.5 15.5t19.5 18.5t49 18q-12 33 -12 49t32 67q33 25 109 72q-16 27 -16 53q0 39 34.5 62.5t75.5 23.5q33 0 67 -18.5t34 -46.5q0 -23 -23 -49q-16 -18 -35 -37q0 -2 13 -29q6 -16 2 -25q-23 -53 -52 -71q-12 0 -36 -10q-4 -6 -18.5 -23.5t-43.5 -28.5q-20 -6 -43 -14 q14 -25 12 -49q-4 -37 -4 -33q0 -6 13.5 -30.5t13.5 -32.5q0 -10 -18.5 -35t-26.5 -27q-14 -6 -78 -18v-11q16 -6 37 -12q8 -6 20 -16q8 -45 9 -37q0 -8 -15.5 -45t-15.5 -43t10 -17.5t12 -17.5q4 -33 -2 -43v-4q39 -25 39 -59q0 -8 -10 -23.5t-14 -24.5q16 -12 39 -34 q4 -10 18 -33q39 -12 53 -41q8 -18 17 -39q10 -8 29.5 -25.5t21.5 -50.5q20 -8 51 -28v-35q-2 -18 10 -19q6 0 6 13q14 -31 25 -72q47 6 119 -6v-25z" />
<glyph unicode="l" horiz-adv-x="956" d="M815 115q0 -4 -8 -49q-4 -20 -43 -37q-31 -14 -47 -15q-6 0 -14.5 6.5t-14.5 6.5q-10 0 -61 -58q-6 0 -26.5 -6t-27.5 -6q-29 0 -63 25q-12 10 -37 32h-18q-49 0 -82 -12q-2 -2 -25.5 -20.5t-34.5 -18.5h-37q-33 0 -88 47q-39 33 -75 66q2 6 2 33q2 43 39 63l-39 39 q-2 8 -2 27q0 33 4 22q2 33 4 66.5t26 52.5q-2 4 -18 22.5t-16 26.5q0 -4 8 39q2 8 17.5 20.5t15.5 20.5q0 6 -14.5 19.5t-18.5 21.5q4 14 4 24q0 23 -18.5 36.5t-18.5 33.5q0 45 25 66q-37 27 -37 55q0 25 19.5 46t35.5 24q-16 14 -35 45q-2 4 2 71q-10 18 -43 41 q2 27 15 76q-16 12 -22.5 44t-8.5 32q-14 16 -26.5 29.5t-12.5 41.5q0 23 12 35q25 23 33 33q18 27 18 64q0 6 -6 18t-6 18q-4 39 19.5 61.5t50.5 22.5q14 0 69 -41q4 -16 17 -47q16 -18 45 -53q2 -4 2 -29q0 -27 -8 -45q-20 -12 -21 -22q0 -8 14.5 -28.5t14.5 -29.5 q0 -14 -21 -45q12 -45 -26 -63q14 -20 31 -59l-13 -39q51 -45 51 -88q0 -6 -20 -36t-20 -38q0 -6 13 -32t17 -36q14 -6 39 -20q31 -31 31 -62q0 -2 -23 -63q4 -14 4 -45q-6 -31 -34 -60q8 -8 20 -22q16 -20 16 -55q0 -18 -24 -43v-203l10 -10q2 0 11.5 9t15.5 11 q61 20 84 21q12 0 24 -11q39 -2 60 -10q8 -2 27.5 -14.5t27.5 -12.5q2 0 51 38t76 38q66 0 99.5 -39.5t33.5 -66.5z" />
<glyph unicode="m" horiz-adv-x="1572" d="M1358 748q0 -31 -31 -48l-12 -10q0 -6 9 -17t9 -20q0 -47 -37 -69q6 -10 7 -23q0 -10 -8.5 -30.5t-8.5 -32.5q66 -29 66 -86q0 -25 -35 -52q-20 -16 -41 -30q6 -18 8 -51q-14 -31 -39 -91v-104q25 -10 47 -23q31 -16 31 -47q0 -16 -24.5 -45.5t-32.5 -34.5 q-109 -37 -127 -36q-94 0 -95 82q0 8 14.5 34.5t14.5 32.5q0 8 -20.5 44t-20.5 42q0 8 15.5 30.5t19.5 33.5q-4 35 2 106q16 18 45 66q-4 12 -2 34q8 23 39 64q-18 12 -51 45q-8 12 -8 31q0 27 24 59q-8 20 -8 45q0 55 49 86q-59 35 -59 82q0 6 12 23.5t12 23.5q0 27 -30 27 l-64 -33q6 -12 6 -29q0 -74 -63 -90q12 -16 6 -51q-4 -35 -17.5 -44t-47 -17.5t-33.5 -16.5q0 -4 21.5 -26.5t21.5 -32.5q0 -14 -23 -72q-6 -2 -10 -10q20 -45 -12 -90q-10 -8 -31 -29q4 -6 4 -16q0 -25 -25.5 -52.5t-50.5 -31.5q4 -6 -1 -24.5t-5 -24.5q0 -8 17.5 -61.5 t17.5 -59.5q0 -31 -33 -62q-39 -37 -102 -36q-39 0 -93 14q-61 14 -77 37q-25 31 -66 57q-18 14 -18 49q0 -10 14 41q-27 45 8 101q-2 0 -10 6q-47 8 -53 69q-2 51 -6 103q47 43 47 45q0 6 -26 33.5t-32 42.5q-2 4 -2 28q0 35 23 56q-23 10 -27 12q-16 8 -20 22.5t-4 42.5 q0 18 26.5 45t26.5 54q-16 6 -41 18q-16 14 -21 39q-6 41 -8 47q-4 -10 -49 -39q20 -16 41 -33q35 -29 35 -47q0 16 -8 -51q-8 -6 -23 -22q6 -16 6 -31q0 -57 -75 -88q10 -12 22 -33q6 -31 -2 -59q-8 -35 -8 -33q0 -8 14 -32.5t14 -33.5q0 -4 -22 -45q-6 -14 -16 -88 q-8 -59 -37 -78q0 4 14 -20q2 -2 2 -37q0 -10 9.5 -33.5t9.5 -32.5q0 -14 -95 -108q-2 -12 -14 -35q-10 -12 -35 -12q-18 0 -26 2q-23 18 -44.5 38.5t-21.5 55.5q0 6 6 31.5t6 40.5q0 4 -6 31q-2 23 2 38t33 43q-35 27 -35 54q0 6 30 102t30 102q0 8 -18.5 25.5t-22.5 28.5 v37q0 82 59 106q0 10 -12.5 40t-12.5 36q0 31 39 76q33 37 68 71q-20 12 -51 41q-14 23 -15 64q0 31 54 73q-47 43 -48 78q0 23 3.5 30t42.5 50q25 29 24 53q0 8 -17.5 39t-17.5 39q0 37 33 67t74 30q37 0 102 -46q57 -41 76 -67q27 -25 74 -74q2 -2 2 -29q0 -57 -35 -59 q27 -29 55 -57q39 -41 39 -60q0 -6 -11 -20t-11 -23q0 -51 -4 -75q0 -2 -8.5 -11.5t-8.5 -17.5q27 -6 27 -33q-2 -41 0 -43q0 -2 22.5 -27.5t22.5 -39.5q0 -6 -26.5 -32t-26.5 -32q0 -8 23.5 -71.5t23.5 -69.5q0 -31 -64 -78q25 -10 55 -41q27 -63 27 -109q0 -33 -31 -47 v-14q2 0 3 4t10 4q10 0 22 -10q20 -14 21 -14q0 4 -4 28q-4 18 -2 29q4 10 22.5 30.5t18.5 37.5q0 68 -3 40q2 27 29 46q-6 12 -6 28q0 35 30.5 72t61.5 45l-31 43q0 20 21 65q12 16 41 41q-4 12 -4 25q0 59 61 88q-37 66 -37 78q0 29 23 53q35 41 40 54.5t17 45.5l49 39 q-12 41 56 84q-14 23 -15 47q0 78 95 78q90 0 127 -84q0 -2 6 -22q25 -16 49 -33q39 -29 39 -57q0 -29 -21 -56l-33 -16q23 -37 23 -59q0 -6 -11.5 -24.5t-11.5 -25.5q0 -29 23 -75q-4 0 -41 -35q8 -14 25 -21l20 -8q18 -27 64 -80q10 -9 10 -34z" />
<glyph unicode="n" horiz-adv-x="1275" d="M1057 266q0 -18 -26.5 -42.5t-51.5 -45.5q4 -6 31 -33q12 -14 12 -30q0 -27 -40 -57.5t-64 -30.5q-6 0 -15.5 -6.5t-17.5 -6.5q-6 0 -25.5 9.5t-28.5 9.5q-6 0 -38.5 -3t-40.5 -3q-6 0 -17.5 27.5t-15.5 33.5q-18 10 -49 41q-18 29 4 90q-4 18 -37 28.5t-35 12.5 q-25 25 -27 66q-8 2 -26.5 17t-18.5 50q0 23 37 56q-23 35 -26 63q-23 2 -62 12q-25 14 -24 56q0 29 18 51h-27q-27 33 -26 59q0 14 29 60q-23 8 -58 41q-16 33 -20 88q-14 12 -64 34q2 27 4 53.5t31 43.5q-8 8 -12 8q-6 0 -12.5 -5t-14.5 -5q-2 0 -41 18q-6 2 -18 35 q2 6 -4 10q-16 -23 -39 -37q16 -10 49 -33q4 12 4 -18q0 -31 -21 -80q0 -4 -51 -53q14 -6 35 -23q12 -14 12 -41q0 -12 -41 -53q31 -31 31 -37t-15.5 -25.5t-15.5 -27.5t21 -25q12 -10 27 -22l-9 -4v-19q-18 -20 -73 -69q113 0 112 -76q0 -8 -11 -14l-11 -6q-2 -37 -84 -72 q25 -10 47 -21q35 -14 35 -41q0 -20 -23 -43q20 0 36.5 -30.5t14.5 -55.5q-27 -8 -50 -46t-44 -72q-47 0 -61.5 18t-36.5 61q2 25 2 70q0 10 -13.5 32.5t-13.5 31.5q0 25 20.5 43t45.5 36q2 4 -4 9q-20 -12 -35 -13q-33 0 -57 29q-23 23 -23 49q0 35 25 47q45 25 57 37 q-63 25 -64 72q0 23 23 41q-6 6 -20.5 33.5t-14.5 38.5q0 8 12 24q18 25 21 31q4 10 -12 33q4 25 8 36q12 31 37 41q-8 8 -23 27q-8 12 -8 47q0 23 14 57q16 43 39 52q-10 8 -43 63q-10 12 -21.5 27.5t-11.5 34.5q0 31 19 49q6 6 57 39q-20 10 -51 39q-8 14 -8 36 q0 57 102 97q55 18 156 18q-2 0 45 -18q27 -12 27 -52q0 -16 -11 -26q10 -4 70 -47q-4 -6 -21 -45q-14 -31 -32 -33q20 -8 53 -29q10 -14 35 -37q27 -6 53 -12q49 -16 49 -49q0 -20 -67 -80q-4 10 -5 -20q0 -18 5 -23q31 -10 61 -22q47 -23 47 -52q0 -51 -47 -82 q27 -8 66 -36q6 -18 -7 -70q12 -2 39 3t29 5q6 0 28.5 -9t30.5 -11q20 -14 21 -95l-6 -8q6 -14 6 -30q0 -39 -47 -70q0 2 12 -19q-6 -23 23 -40q41 -29 43 -31q-2 18 0 51q8 20 57 63q0 4 -15.5 25t-16.5 37t-12 48t-11 48q0 25 20 43q-18 14 -37 29q-29 23 -28 41 q0 31 32 57q2 8 2 37v35q-2 10 -20 20q-14 31 -14 56q0 55 36 106q12 4 35 21q-20 12 -42.5 24t-22.5 41q0 14 13 42t28 30v22q-14 8 -39 25q0 2 -7.5 20.5t-7.5 26.5q0 4 43 61q10 16 35 46q33 20 76 20q39 0 76 -22.5t37 -55.5q0 -25 -31 -61q10 -6 23.5 -28.5t13.5 -27.5 q0 -25 -39 -88q-2 -4 -62 -51q129 8 129 -67q0 -8 -44 -46t-44 -42q0 -12 18.5 -21.5t20.5 -9.5q10 -12 15 -76q-39 -16 -41 -61t-31 -62q20 -6 57 -33q12 -16 4 -53q10 -6 25 -24q14 -33 14 -39q0 -12 -22.5 -39t-30.5 -29q2 -8 13.5 -30.5t11.5 -28.5q0 -27 -21 -56 q-10 -8 -33 -26q33 -23 67 -45.5t34 -61.5z" />
<glyph unicode="o" horiz-adv-x="1157" d="M944 580q0 -18 -41 -74q0 -2 15 -27q-2 -8 3 -26.5t5 -24.5q0 -29 -8 -74q0 -2 -10.5 -8t-10.5 -14t12.5 -28.5t12.5 -29.5q0 -23 -17 -45q-6 -2 -24 -16q8 -47 2 -66q-14 -10 -29 -41q2 -14 -8 -36q-98 -102 -148 -103q-6 0 -8 3t-8 3q-8 0 -19.5 -10t-15.5 -10 q-35 -14 -65 -14q-6 0 -19.5 3t-19.5 3t-45 -17.5t-47 -17.5h-41q-8 0 -66 70q-41 -16 -41 -17q-100 0 -100 62q0 23 16 51q-18 6 -53 24q-16 10 -16 45q0 33 16 50q-2 2 -45 24q-27 14 -27 47q0 18 19.5 49t33.5 39q-14 12 -71 39q-29 12 -29 49q0 29 36 66t30 53l-39 10 q-8 2 -32 39t-24 58q0 -6 7 22q-2 8 -2 17q0 27 17 53t42 33q-47 37 -47 57q0 29 37 76q-51 -2 -64 24q-8 14 -8 31q0 8 35 90q-29 18 -29 47q0 23 14 37q29 27 33 31q-35 27 -35 57q0 33 31 55q18 14 39 15q14 0 21 -6q4 4 2 8q-4 10 -5 18q0 31 27 58.5t53 27.5 q6 0 58.5 -14t58.5 -14q31 0 33 21.5t4 39.5t37 37.5t47 19.5t57 -8q2 0 10.5 -11t16.5 -11q6 0 8 3t8 3q20 0 70 -15q12 -8 37 -26q31 -8 88 -33q14 -23 47 -61q23 -6 57 -21q39 -59 39 -72q0 -8 -19.5 -30.5t-35.5 -26.5q-2 0 -10 -6q41 -29 61 -66q8 -12 -2 -63 q47 -35 47 -61q0 -6 -17.5 -33t-17.5 -35t20.5 -31.5t20.5 -30.5q0 -10 -37 -59q0 -4 8.5 -10t12.5 -12q16 -35 16 -45q0 -39 -37 -80q72 -45 72 -88zM762 526q-37 31 -37 54q0 18 31 77q-53 23 -54 64q0 6 14.5 42t14.5 44q0 6 -17.5 27.5t-17.5 27.5q0 31 41 72 q-59 43 -37 98q-23 18 -45 37q-12 12 -12 35q0 33 18.5 53.5t40.5 42.5q-29 12 -63 64q-12 2 -37 10q-12 10 -33 24q-57 33 -77 33h-25q0 -4 10 -14l-51 -51q-55 -47 -84 -47q-27 0 -70 12q6 -14 7 -31q0 -31 -23 -56.5t-61 -25.5v-26q14 -6 30.5 -33t16.5 -41 q0 -10 -15 -37q-16 -33 -41 -33q-10 0 -26 -16q33 4 69.5 -25.5t36.5 -62.5q0 -47 -59 -70q20 -18 24 -102q29 -18 29 -39q0 -16 -18 -43q25 0 48 -35t23 -70q0 -121 -77 -125q70 -10 69 -92q0 -23 -8 -37q20 -16 49 -67q-2 -14 -2 -39q16 -8 43 -39q4 53 90 53q31 0 49 -8 q10 -4 36 -21.5t32 -17.5h37q45 0 67 84q4 23 29 53q0 20 11.5 55t11.5 38q0 10 -8 18l-9 8q-8 59 -8 105q0 3 37 73z" />
<glyph unicode="p" horiz-adv-x="1093" d="M926 1087q0 -35 -33 -55q-18 -8 -62 -28q6 -6 23.5 -17.5t24.5 -17.5q31 -31 30 -60q0 -39 -114 -69q-14 -4 -33 -15l43 -24q37 -23 37 -39q2 -57 2 -47q0 -66 -37 -86q-20 -12 -82 -13q-29 0 -57 19q-35 20 -35 51q0 4 2 20.5t2 26.5q0 6 -6 16.5t-6 18.5q0 23 37 47 q2 2 65 19q-2 2 -43 22q-23 14 -22 41q0 31 19 49.5t40 34.5q-6 18 -39 23q-8 12 -25 30q-31 10 -90 39q-4 18 4.5 47t24.5 33q0 8 -5 10t-13.5 5t-38 24.5t-35.5 21.5t-29.5 -3t-32.5 -3q-6 0 -24.5 5.5t-24.5 5.5t-21.5 -8.5t-23.5 -8.5t-10 3t-10 3q-6 0 -25.5 -4 t-28.5 -4q-8 -6 -14 -12q41 -39 41 -90q0 -10 -25 -35q53 -35 54 -76q0 -29 -31 -65q4 -16 4 -27q0 -27 -55 -57q20 -10 51 -35q43 -35 43 -60q0 -35 -55 -118q-2 -4 -45 -37q4 -6 14 -4q12 10 29 14q10 2 45 2q33 0 80 -35q4 -2 6 4q16 27 59 64q25 8 82 8q6 0 21.5 -9 t23.5 -9l21 6q6 0 43 -21q14 -14 43 -39v-51q-8 -2 -33 -16.5t-33 -14.5q20 0 -102 -8q-6 -18 -35 -49q-31 -18 -96 -18q-23 0 -48 6q-10 4 -26.5 25.5t-22.5 25.5q-16 12 -32 12q-6 0 -21 -14q10 -8 27 -29q14 -31 14 -69q0 -39 -57 -80q-18 -6 -56 -19v-6q6 -4 21 0 q12 0 46 -21.5t44 -33.5q2 -8 0 -14q-8 -20 -2 -37q10 -23 10 -27q0 2 -41 -61q-4 -18 -14 -54q-4 -8 -21.5 -21t-17.5 -22q0 -6 11.5 -29.5t11.5 -31.5q0 -23 -31 -43q-8 0 -29 -2q-29 -51 -57 -51q-41 0 -71 26.5t-32 63.5q-2 4 -9 17.5t-7 21.5q0 31 32 57l31 27 q-10 14 -10 32q0 33 29 74q-53 29 -53 66q0 39 33.5 52t66.5 26q-47 20 -47 53q0 16 14 47q8 4 15 12q-2 14 4 45q8 18 32 31q-35 35 -34 53q0 25 12 37q25 16 47 33q-14 6 -36.5 18.5t-29.5 57.5q-6 43 5 65q-23 14 -23 43q0 25 41 72q-4 14 -18 26q-10 6 -11 37 q0 14 23 56q0 2 -3 12t-3 14q0 10 6 28.5t6 24.5q0 8 -14 25q-20 20 -23.5 27.5t-3.5 19.5t2 19q45 80 45 82q0 6 -11 23t-11 26q0 12 13 35.5t30 27.5q27 8 125 8q6 0 31.5 -3t33.5 -3q6 0 37 15.5t39 15.5t39 -6t39 -6q117 0 184 -52q39 -29 37 -73q14 -6 45 -21 q10 -14 35 -37q31 -6 88 -22l19 -25q18 -25 18 -33z" />
<glyph unicode="q" horiz-adv-x="1212" d="M1026 -182q-66 -98 -195 -99h-43q-18 0 -34 27q-16 20 -19 35q2 -16 2 59q4 -2 -32 -2q-6 0 -18.5 4t-18.5 4q-8 20 -23 35q0 4 2 12.5t2 10.5q-25 6 -78 28q-8 -20 -52 -47.5t-68 -27.5h-17q-8 0 -27.5 11t-41.5 60q-2 6 -9 17q-35 -18 -47 -19q-33 0 -94 43 q-68 43 -68 72q0 8 4.5 27.5t4.5 25.5q10 10 28 25q41 27 70 26q63 0 158 -61q10 -8 20 -31q14 -37 14 -39q14 14 43 15q66 -2 60 -2q0 10 6 14q-27 12 -70 47q-2 4 -8 76q-14 6 -45 19.5t-31 68.5q0 82 107 82q49 0 76 -21q43 -35 47 -37q57 -27 86 -61q18 25 67 64 q-43 27 -47 30q-16 16 -16 49q0 27 22 50q-35 47 -34 67q0 41 41 70q-18 31 -19 59q0 55 60 92q-18 12 -27 9q-18 -4 -16 -5q-16 0 -37 30t-21 44q0 41 14.5 57.5t57.5 36.5q-20 10 -51 45q0 25 2 68q-6 23 -13 70q4 14 15 24q-35 8 -68 17q-43 16 -39 57q-16 0 -43.5 6 t-32 6t-28.5 23q-14 -16 -47 -45q-10 -8 -47 -9q-6 0 -28 3.5t-28 3.5q-18 0 -71 -31q-6 -10 -21 -27q-27 -29 -98 -53l-6 -8q16 10 79.5 -20.5t63.5 -53.5q0 -2 -18 -35q-8 0 -23 -6q0 -23 6 -35q-8 -35 -69 -77q-2 -4 -2 -27q0 -35 4 -25l12 -8q2 -2 -10 -10q6 -6 55 -25 q39 -14 49 -45v-37q0 -6 7 -18t7 -21q0 -20 -21.5 -39.5t-37.5 -33.5q10 -23 23 -29q-8 -23 -39 -59q2 -8 2 -17q0 -47 -45 -67q14 -20 57 -43q31 -14 31 -45l-21 -47q-4 0 -18 -13q-18 -18 -27 -22q-61 -39 -102 -39q-20 0 -88 26q-20 41 -21 54q0 43 23 65q14 14 65 37 q-27 18 -57 59q2 6 2 27q-33 39 -33 57q0 39 30 57.5t62 35.5q8 16 9 28q0 2 -16.5 23.5t-18.5 50.5q-78 2 -78 59q0 -12 31 80q8 8 26 29q-12 31 -8 43q8 14 27 47q-6 16 -10 51q8 59 81 72l-10 8q-20 -4 -45.5 18.5t-25.5 43.5q0 23 20 54.5t33 31.5q6 0 5 -3.5t5 -3.5 q2 0 42 45.5t58.5 58.5t55.5 13q31 2 59 4q4 0 21.5 10.5t27.5 10.5q6 0 59.5 -8.5t61.5 -8.5q4 0 17.5 11.5t19.5 11.5q78 0 137 -19q16 -6 74.5 -64t58.5 -79q0 8 -24 -41q12 0 34 -6q20 -14 64 -41q8 -33 -2 -53q-2 -6 0 -10q10 -6 22.5 -27t8.5 -39q14 -8 43 -31 q18 -18 18 -47q0 -20 -8 -31q-23 -12 -55 -40q-12 -20 -39 -62v-6q6 6 20 6q35 0 64.5 -27.5t29.5 -52.5q0 -51 -82 -94q16 -55 17 -59q0 -6 -17.5 -30t-17.5 -32q0 -6 12.5 -24.5t12.5 -24.5q0 -27 -21 -55q-14 -8 -39 -29q25 -18 47.5 -37.5t22.5 -50.5q0 -33 -58 -78 q12 -12 13 -33q0 -49 -62 -102q6 -4 41 -25q25 -14 25 -30q0 -14 -23 -49q31 -23 62 -23q6 0 8 3t10 3q37 0 64 -33q2 -10 14 -28z" />
<glyph unicode="r" horiz-adv-x="1234" d="M1057 37q0 -35 -33 -57.5t-57 -22.5h-39q-25 0 -62 41t-32 65q-2 0 -10.5 -3t-14.5 -3q-53 0 -83 34t-21 81q4 8 16 23q-6 4 -47 6q-16 18 -41 59q2 10 2 35q-45 27 -45 80q0 31 16 69q2 8 -2 21q-2 0 -8 2t-14 2t-15.5 -2t-14.5 -2t-26.5 -6t-25.5 -6q-31 0 -74 51 q-14 2 -70 2q-18 0 -32 -2q-6 -10 -23 -31q25 -20 25 -45q0 -6 -15.5 -25.5t-15.5 -27.5q0 -10 27 -33q0 -8 4 -27q2 -6 15 -19t13 -22q0 -6 -12 -26.5t-12 -28.5q0 -14 41 -39q2 -33 -19 -64l-22 -32q0 -6 14 -19.5t18 -21.5q8 -18 -12 -66q23 -23 47 -43q4 -6 4 -34 q0 -35 -29.5 -53.5t-60.5 -32.5q-2 -2 -10 -12.5t-18 -10.5q-53 0 -94.5 29.5t-41.5 79.5q0 51 20.5 66.5t20.5 27.5q0 37 -20.5 71.5t-20.5 53.5q0 8 14.5 42t14.5 40t-35 58t-35 60q0 31 29 60q-23 23 -22 55q0 8 11 39t11 39q0 14 -2 18q-57 47 -57 84q0 23 27.5 41.5 t33.5 53.5q-90 29 -90 86l16 51q0 20 3 59q6 20 38.5 38t57.5 18q31 0 52.5 -14.5t41.5 -41t20 -41.5q0 -31 -40 -112q12 -2 34 -7q33 -18 41 -34q2 -14 6.5 -30.5t12.5 -16.5q6 0 18 4q10 2 21 0q4 0 15 -4.5t19 -4.5q14 0 24.5 26t32 29t66.5 17q10 18 37 49q23 6 58 27 q8 16 34 49q-2 4 -18 23q-12 12 -12 36q0 31 53 123q-12 6 -37 19q-10 6 -28.5 33.5t-24.5 27.5t-20.5 -2t-20.5 -2q-10 0 -37 18.5t-37 34.5q-4 6 -8 54q-16 10 -35 10q-6 0 -35.5 -8.5t-38.5 -8.5q-8 0 -35.5 5.5t-33.5 5.5q-12 0 -15.5 -8.5t-9.5 -8.5q-45 0 -61 -4 q18 -37 18 -35q0 -8 -18.5 -29.5t-18.5 -29.5q0 -14 27 -35q4 -6 4 -20q0 -27 -14 -47q-29 -37 -74 -37q-35 0 -80 27.5t-45 56.5q0 6 14.5 33.5t14.5 33.5t-11.5 30t-11.5 32q0 33 35 61q-29 37 -29 66q0 18 20.5 42.5t41.5 24.5q8 0 82.5 -8t83.5 -8q6 0 45 14.5t49 14.5 q4 0 20.5 -9.5t22.5 -9.5q8 0 38.5 12.5t39.5 12.5q8 0 31.5 -12.5t30.5 -12.5t5 -5t6 -5q2 0 22.5 14.5t51.5 14.5q14 0 51 -10.5t43 -16.5q10 -20 31 -57q8 -14 36 -35t38 -37q-2 -14 4 -47q2 -8 11 -25.5t9 -25.5q0 -16 -12 -35q-23 -27 -35 -49q72 -59 72 -90 q0 -8 -20.5 -59.5t-20.5 -59.5q0 -4 11 -25.5t11 -30.5q0 -18 -24 -51q-8 -4 -23 -10q-20 -27 -67 -78q-16 -6 -49 -22q25 -16 49 -33q39 -27 39 -55q0 -8 -10.5 -31t-14.5 -35q23 -10 57 -35q25 -31 0 -106q10 -8 29 -29q8 -20 23 -59q8 -2 26 -13q23 -37 76 -96 q29 -8 82 -35q33 -22 33 -63z" />
<glyph unicode="s" horiz-adv-x="1159" d="M969 319q0 -35 -43 -69.5t-82 -42.5q12 -16 23.5 -29.5t11.5 -38.5q0 -31 -35 -55q-20 -12 -43 -23q-16 -20 -60 -51q-53 -12 -159 -45q-8 -2 -46 -23.5t-47 -21.5q-6 0 -23 9.5t-26 9.5q-8 0 -9 -3.5t-9 -3.5t-21.5 26t-19.5 34q-68 -25 -94 -25q-14 0 -56 33 q0 20 -2 57q-72 29 -71 88q0 12 6 25q-47 39 -47 78q0 16 12 53q-25 12 -49 27q-33 18 -33 41q0 27 24.5 58.5t43.5 33.5q10 4 47 4q23 0 53.5 -20.5t30.5 -49.5q0 -14 -10 -28v-17q8 -2 20 -6q18 -10 34.5 -41t10.5 -49q25 4 50.5 -21.5t25.5 -54.5q0 -16 -10 -31 q14 -14 26 -14q6 0 19.5 12.5t19.5 14.5q27 8 78 8q12 0 40 -26.5t28 -32.5q14 4 43 14q10 12 30 31q25 12 66 53q12 4 45 12q-33 31 -35 60q6 14 10 40q-8 14 -22 41q4 14 4 39q-35 39 -35 70q0 16 10 55q-8 6 -53 17q-35 8 -49 30.5t-2 71.5q-8 20 -23 21 q-8 0 -67.5 -20.5t-65.5 -20.5q-39 0 -84 49q-23 25 -4 69q-4 4 -22 29q-14 18 -23 18q-6 0 -34.5 -9t-37.5 -9q-35 0 -77 33q-8 18 -33 49q-25 16 -48.5 31.5t-23.5 46.5q0 37 47 74q-18 27 -63 63q-25 23 -25 49q0 61 66 78q0 2 -2 10q-2 2 -27 10q-10 4 -26.5 30 t-16.5 38q0 27 35 55.5t63 28.5q6 0 36 -11.5t38 -11.5l12 11q11 12 4 32q-6 23 -4 31q20 74 117 74q25 0 92 -47q4 4 10 20q37 39 111 39q86 0 111 -84q2 0 5 6.5t11 6.5q16 0 66 -21q18 -14 59 -47q14 -10 34.5 -47t20.5 -62q0 -8 -15 -31.5t-15 -31.5t14 -16 q10 -39 9 -42.5t5 -9.5q2 0 7 6.5t12 6.5v-64q-18 -18 -33 -18q-6 0 -5 -3t-5 -3q-10 0 -13.5 6t-5.5 10q-10 -16 -18 -35q-16 -29 -41 -29h-19q-33 0 -58.5 35t-29.5 68q-2 14 4 43q8 39 9 49q-25 47 -78 141q-25 -4 -68 -18q-12 -18 -37 -39q-16 -4 -100 -16 q-8 -6 -29 -19q-6 -2 -55 -2q-2 0 -5 -6t-11 -6t-9.5 3t-9.5 3q-6 0 -39 -33q16 -10 39 -28q61 -76 62 -113q0 -6 -12.5 -25.5t-14.5 -27.5q-12 -2 -27 -19q8 -14 29 -37q27 -6 70 -20q4 -2 18 -20.5t23 -18.5q10 0 16 6t14 6q6 0 15.5 -3t13.5 -3l14 -12q70 -23 64 -66 q37 6 57 6q8 0 9 -6t10 -6q154 0 153 -92q0 -12 -4 -27q12 -4 35 -12q6 -4 17.5 -21.5t19.5 -17.5t9 3t9 3q10 0 45 -26q18 -14 28.5 -29.5t6.5 -48.5q-2 -4 -8 -12q12 -35 8 -93q6 -12 27 -47q8 -6 20 -18q21 -44 21 -60z" />
<glyph unicode="t" horiz-adv-x="1107" d="M944 1245q0 -25 -35 -54.5t-53 -29.5h-27q-6 0 -26 15q-27 20 -35 24q-63 31 -104 31q-2 0 -13.5 -9.5t-32.5 -7.5v-45q-6 -33 -26 -55q-4 -10 0 -22q-6 -14 -31 -48q35 -25 12 -63q12 -12 26.5 -24.5t14.5 -28.5q0 -59 -71 -90l10 -17q0 -8 -16 -57q29 -12 32.5 -22.5 t30.5 -51.5q20 -33 21 -41q0 -14 -78 -76q6 -14 47 -41q12 -10 12 -30q0 -39 -41 -84q0 -8 -4 -23q-10 -14 -39 -47q0 -8 23 -20q6 -25 -2 -54q14 -8 41 -26q12 -51 -13 -92q53 -12 82 -35q0 -45 -14 -74q-4 -8 -40 -37.5t-48 -29.5q-8 0 -21.5 3t-21.5 3t-26.5 -23.5 t-37.5 -23.5q-84 0 -84 73q0 14 6 29q-14 31 -14 63q0 27 20.5 50.5t20.5 31.5q0 -2 -6 19q-16 6 -39 24q-8 16 -8 37q0 20 39 72q-8 49 -2 65q8 8 20 23v82q8 41 43 59q-10 14 -30 29q-14 23 -33 66q6 25 8 69q-20 25 -21 39q0 55 70 86q-10 14 -12 37v33q-29 31 -29 51 q0 8 7 25.5t10 25.5q4 12 -9 16q-2 27 15 72q0 4 -2 47q-2 18 34 41q31 20 52 25q-6 8 -23 8q-8 0 -14 -3t-13 -3q-8 0 -33.5 15.5t-31.5 15.5q-4 0 -12 -17q-131 -43 -160 -43q-31 0 -37 2q-14 6 -51 45q-6 -6 -23 -35q-18 16 -26 17q-8 0 -7 -3t-6 -3q-8 0 -51 30 q0 6 -4 19.5t-4 21.5q0 27 25.5 50.5t25.5 25.5q6 29 35 74q27 20 82 20q8 0 26.5 -6t28.5 -8q4 -2 17 -22q-4 -20 -4 -64q10 -2 18 -2q25 0 70 16.5t69 16.5q6 0 76 -23.5t78 -23.5q6 0 32.5 3t36.5 3q31 -6 19 -6q6 0 66.5 11t68.5 11q57 0 82 -26q14 -14 16 -39 q27 -12 56 -25q20 -12 20 -37z" />
<glyph unicode="u" horiz-adv-x="1189" d="M969 387q0 -37 -47 -86q14 -16 27.5 -31.5t13.5 -29.5q0 -10 -15 -52q-4 -10 -27.5 -29.5t-37.5 -19.5q-41 0 -76 19q-4 -16 -13.5 -46t-45.5 -49q-145 -72 -166 -71q-20 0 -56 45q-41 0 -123 4q-8 18 -36 49q-10 6 -33 10q-10 14 -31 43q-102 0 -100 52q2 59 2 57 q-10 2 -24.5 23.5t-14.5 39.5q0 27 41 64q-23 6 -57 33q-4 6 -11 51q-4 35 -30 45q0 12 -23 106q0 6 7 24.5t5 29.5q-10 14 -20 41q-6 55 -6 61q0 8 14 32.5t14 33.5q0 20 -8 30q-45 61 -45 62q0 16 19 106q6 25 47 47q0 16 -13 37q-23 8 -47 17q-35 12 -35 34q0 57 60 97 q-14 4 -35 20q-43 61 -43 107q0 29 40 69.5t62 40.5q14 0 78 -33q6 -14 25 -34q-6 -25 -15 -50q-6 -33 0 -45q14 -14 35 -45q2 -18 -6 -79q14 -8 43 -29q4 -4 4 -27q0 -29 -13 -40t-20 -34q16 -18 17 -38q0 -14 -12.5 -43t-12.5 -43q0 -25 6 -31q16 -12 35 -27 q-31 -164 -30 -196q0 -6 14 -17.5t14 -17.5q0 -33 2 -123q59 -31 60 -66q0 -39 -43 -71q20 -18 39 -54l24 -12q20 -16 23 -35q0 2 -2 -18t0 -33q4 -16 20 -16q6 0 13.5 3t15.5 3q25 0 53 -21q4 -6 10 -18q-4 -20 8 -20q6 0 24.5 3t27.5 3q14 12 10 12q8 0 25.5 -23.5 t25.5 -23.5h31q12 0 41.5 40t29.5 50q0 8 -10 17.5t-12 11.5q-6 10 -6 49q0 33 37 65q27 23 55 47q-10 23 -2 41q2 6 17.5 22.5t15.5 24.5q0 6 -9.5 12.5t-13.5 8.5q-12 20 -12 47q0 20 41 55q-6 8 -39 25q-23 12 -23 29q0 10 -2 29.5t-2 25.5q0 76 31 98q-4 2 -4 0 q-4 -2 -12 -2q-16 0 -36 24.5t-20 43.5q0 37 20.5 50t20.5 30q0 14 -16 18q-27 4 -46.5 30.5t-19.5 51.5q0 14 27 41q20 18 41 39q-10 43 8 69q-76 27 -76 78q0 6 14.5 34t14.5 34q0 4 -17.5 21.5t-17.5 45.5q0 37 45 65t82 28q80 0 80 -50q0 -29 -35 -71q41 -20 41 -33 q0 -20 -13 -56t-28 -48q25 -8 51 -17q25 -14 25 -49q0 -25 -16 -43q-8 -10 -19 -22q-6 -27 -6 -46q0 10 6 -16q45 -25 47 -27q16 -14 17 -47q0 -29 -33 -71q-8 -18 -31 -62q63 -6 64 -71q0 -70 -13 -109q-4 -10 -41 -45q18 -2 60 -29q0 -2 -4 -47q-4 -29 -31 -39 q0 -4 -6 -14q43 -8 43 -57q0 -25 -12 -45q47 -39 47 -62z" />
<glyph unicode="v" d="M963 1233q-33 -25 -95 -76q4 -6 22.5 -22.5t18.5 -24.5t-12 -20.5t-12 -20.5t10 -13t12 -9q8 -51 8 -43q0 -18 -53 -60q29 -45 29 -63q0 -8 -35 -51.5t-35 -49.5q29 -49 29 -65q0 -6 -8 -19.5t-8 -21.5q2 -31 -5 -101q-4 -27 -73 -71q4 -18 4 -53q-4 -10 -22.5 -24.5 t-22.5 -23.5q14 -10 43 -34q4 -6 4 -29v-12.5v-16.5l2 -8l-6 -6q8 -10 8 -23q0 -16 -27 -36q-39 -29 -43 -35q18 -35 19 -43q0 -16 -41 -58q0 -4 7 -24.5t7 -30.5q0 -25 -37 -45q-29 -14 -57 -29q-10 -16 -37 -43q-63 -31 -68 -30q-6 0 -16 3t-18 3q-31 0 -54.5 20.5 t-23.5 48.5q0 35 24 58q-12 14 -45 28q-14 8 -24 23q0 6 -3 20.5t-3 22.5q0 18 22 41q-18 6 -51 29q-14 18 -14 51t12 39t12 26q0 4 -19.5 25.5t-21.5 36.5q4 18 2 63q0 2 -4 10.5t-4 18.5q0 20 23 43q-18 14 -45 47q-6 14 14 82q-47 33 -47 74q0 4 6 45q-2 6 -45 35 q4 25 8 47q8 35 39 43q-25 16 -111 98q-14 14 -14 33q0 12 10.5 34.5t10.5 32.5q0 12 -11 23q-23 -25 -37 -25q-16 0 -45 80q-2 2 -9 12.5t-7 20.5q0 12 15.5 36.5t23.5 26.5q18 -2 51 9q2 2 64 61q-8 2 55 2q39 0 90 -84l-14 -35l14 -14t8 -16q0 -2 -8 -25 q-6 -8 -28.5 -21.5t-22.5 -19.5t5 -14.5t5 -14.5q25 -23 57 -37q10 -35 39 -106q-29 -29 -47 -41q0 -2 15 -10q20 -14 30 -47q2 -10 -8 -54q33 -51 33 -63q0 -20 -4 -27q-16 -14 -31 -28q4 -8 39 -43q27 -29 27 -52q0 -18 -35 -43q12 -8 30 -26q6 -18 17 -53q10 -12 26 -35 q4 -29 17 -78q2 -2 -3 -12.5t-5 -18.5v-98q20 -14 55 -41q14 14 37 45q-14 25 -15 53q0 53 70 131q0 4 -9 7.5t-11 7.5q-14 14 -15 47q0 31 11 39q25 16 34 28q2 6 -3 20.5t-5 18.5q-4 37 45 86v109q-29 29 -28 49q0 33 6 49q16 10 45 41q12 23 49 70q-18 18 -19 47 q0 8 10.5 27.5t10.5 25.5q-2 -8 -2 59q0 6 5 16.5t5 18.5t-17.5 28.5t-17.5 27.5q0 47 59.5 92t106.5 45q18 0 52 -22.5t40 -35.5q11 -22 9 -65z" />
<glyph unicode="w" horiz-adv-x="1660" d="M1446 954q0 -8 -18.5 -30.5t-20.5 -32.5q-2 -18 -4 -35q-4 -31 -23 -41q37 -37 37 -59q0 -20 -37 -54q0 4 23 -18q8 -37 8 -31q0 -25 -17.5 -45t-17.5 -24q4 -25 -4 -72q0 -2 -45 -45q6 -6 23 -12q25 -29 24 -56q0 -31 -18.5 -47t-20.5 -22q-4 -25 -24 -80q14 -8 43 -25 q20 -16 20 -39q0 -10 -12 -33.5t-19 -23.5q4 -49 -12 -68.5t-63 -46.5q-29 -25 -58 -51q-43 -37 -73 -37q-31 0 -52.5 13.5t-23.5 46.5v49q-37 12 -37 35q0 20 2 41q-20 8 -42.5 19t-31.5 28q-12 25 9 84q-16 16 -27.5 28.5t-11.5 34.5q0 6 14 35t14 35l-51 67q-2 0 -2 35 q-25 0 -53.5 13.5t-28.5 35.5q0 72 70 101q-8 33 -19 51q-2 4 -37 18q-27 10 -26 52q0 25 15.5 43t31.5 34q-6 4 -19 0q-14 -8 -20 -8q-16 0 -63 25q-18 -23 -56 -70q-6 -29 -37 -76v-14q18 0 58 -14q49 -16 49 -35q0 -27 -14 -45q-23 -27 -43 -51q0 2 2 -37q2 -29 -17 -45 q31 -25 31 -90q0 -137 -90 -183q18 -16 18 -35q0 -16 -24 -43q-37 -41 -39 -47q-2 -14 -11 -34q-6 -10 -28 -29q-66 -31 -74 -31q-18 0 -63 19q-10 35 -4 71q-20 10 -19 76q-8 6 -18.5 32.5t-6.5 39.5q-10 12 -28 65q-14 6 -31 25q-2 37 -4 117q-14 8 -37 24q-4 33 -16 103 q-55 12 -56 75q0 33 15 58q-33 14 -33 59q0 20 10 33q-18 2 -37.5 25.5t-19.5 52.5q0 18 10 36q-18 12 -38.5 26.5t-20.5 35.5q0 37 30 68q-59 23 -59 73q0 35 25 58q-18 12 -52 51q-20 33 -20 63q0 25 43 54q39 23 59 22q6 0 25.5 -8t28.5 -8q29 0 59 -17q10 -10 10 -98 q23 -23 31 -55q-2 -6 -6 -17q6 -25 0 -63q41 -16 41 -74q0 -20 -8 -35v-16q14 -2 47 -19q12 -23 45 -53q2 -8 -5.5 -29.5t-7.5 -29.5q0 -6 6.5 -18.5t6.5 -16.5q6 -12 -6 -18q4 -8 -9 -45q14 -12 39 -31q6 -16 0 -41q14 -4 30.5 -12.5t23.5 -28.5q-2 -18 -2 -53q2 -2 6 -7 q4 -10 2 -30q-4 -23 -17 -35q10 -8 33 -33q12 31 47 94q6 2 25 17q4 18 -6 35q8 -6 8 8q0 8 -2 43q-4 6 -55 18q-25 33 -25 58q0 45 61 79q8 27 19 76q-2 27 -2 78q0 14 28 33q20 14 41 26q0 -2 -23.5 9.5t-23.5 46.5q0 14 16.5 49t30.5 37l-43 33q-23 20 -22 40 q0 88 180 89q47 0 96 -17q2 -4 13.5 -22.5t11.5 -30.5q0 -8 -4 -16q8 -10 35 -29q10 -8 10 -27q0 -55 -76 -88q6 -6 49 -14q35 -6 37 -31q0 -8 -14 -59q4 -6 20 -13q31 -51 31 -53q0 -14 -17.5 -30.5t-35.5 -32.5q12 -8 67 -13q45 -4 60 -36q-2 -8 -2 -27q4 -2 43 -8 q20 -25 20 -43q0 -37 -69 -88q25 -53 22 -74q8 4 18 4q33 0 57.5 -35t24.5 -61q0 -33 -41 -68q37 -23 37 -53q0 -10 -10 -29q-12 -27 -14 -30q4 -4 12 -5q6 0 28.5 28t35.5 36q-2 8 -5 29q2 14 21.5 38.5t19.5 32.5q0 6 -18 32t-18 32q0 8 18 35q23 39 29 49q-2 18 2 53 q2 2 9 11t7 18q0 6 -10 17t-12 17q4 23 6 72q0 12 -12.5 38t-12.5 32t17.5 29.5t21.5 40t14 59.5q-53 23 -53 65q0 16 31 72q0 6 -4 24.5t-2 28.5q2 6 12 19.5t10 21.5q0 6 -4 10q-31 10 -31 64q0 20 27 57q-8 14 -8 54q18 35 35 47q31 20 79 20q29 0 60 -21.5t31 -43.5 q0 -8 -7.5 -24.5t-9.5 -20.5q0 -2 3 -12.5t3 -16.5q0 -12 -18.5 -44t-18.5 -38t20.5 -23.5t20.5 -40.5q0 -16 -26 -49q14 -57 14 -53q-8 -18 -22 -53q12 -4 32 -19q21 -20 21 -43zM543 367q0 8 -25 30q-31 29 -39 37q0 -4 -4 -22.5t-2 -22.5q12 -20 12 -35q0 -25 -6 -30 q4 0 13 4l18 -17q33 44 33 56z" />
<glyph unicode="x" horiz-adv-x="1280" d="M1098 1249q0 -16 -2 -22q-12 -20 -68 -47q-2 -12 -2 -39t-2 -39q-25 -12 -35 -27q6 -10 0 -33q-8 -23 -22 -32q-18 -2 -54 -17q-4 -2 -47 -55q6 -20 -4 -44t-31 -34q2 -4 13.5 -22.5t11.5 -28.5q0 2 -8 -43q-27 -23 -82 -39q-4 -18 -25 -49q-10 -8 -49 -16 q-31 -6 -30 -15q0 -14 17 -20t33.5 -12.5t43.5 -24.5q59 -70 59 -90q0 -23 -14.5 -40.5t-26.5 -33.5q20 -16 41 -31q35 -29 35 -47q0 -23 -35 -57q23 -6 47 -12q35 -14 45 -48q4 -18 -2 -47q16 -16 43 -53q-2 -20 -2 -59q45 -51 45 -54q0 -12 -15 -38.5t-22 -26.5 q-16 -2 -41 -10q-33 -16 -34 -17q-6 0 -23.5 4t-21.5 4q-8 8 -23 21q-102 33 -102 82q0 41 23.5 58.5t29.5 51.5q-2 2 -10 9q-14 -4 -56 -4q-31 0 -57 43q-8 12 -8 43q0 6 11 21t13 24q-35 14 -34 51q0 37 16 49q31 14 59 31q-35 18 -52 42.5t-34 49.5q0 -12 -4 -35 q-23 -14 -55 -47q-2 -16 -10 -47q-14 -31 -27 -31q-8 0 -6 3t-6 3q-14 0 -19.5 -17.5t-12.5 -38t-26.5 -27.5t-31.5 -15q-2 6 -6 -53q-12 -6 -33 -23q2 -4 0 -47q0 -2 -37 -41l-37 -37q0 -2 -59 -28q-4 0 -15 -7q16 -18 17 -28q0 -29 -26 -57.5t-54 -28.5h-41q-8 0 -45 35 q-51 51 -56 55q-20 18 -20 37q0 27 19.5 59.5t101.5 38.5q0 10 12 27q33 18 84 69q14 33 21 129q2 23 40.5 40.5t61.5 17.5q8 0 11 -4l3 -5q18 68 19 76q0 6 -12.5 24.5t-12.5 28.5q0 37 31 60q8 4 24 8q10 20 41 62q6 8 29 10q10 16 20.5 35.5t26.5 23.5l10 8 q-12 12 -20 19q-37 -8 -73 14.5t-36 61.5q0 20 2 26q10 14 52 31q-23 10 -76 53q-10 14 2 84q-10 12 -25 39q-6 18 2 59q-12 16 -43 48q-18 18 -18 49q0 2 4 30q4 18 -2 27q-12 14 -27 27q-6 8 -6 43q0 23 21 63q25 49 55 49q6 0 31.5 -7t36.5 -7q16 -18 49 -66 q10 -20 -15 -75q29 -20 45 -70q12 -41 21 -41q6 0 6 8q0 -18 2 -16q6 -18 29 -43q14 -18 14 -43q0 -8 -15.5 -33t-15.5 -33q0 -10 29 -43q2 -6 2 -24q0 -39 -53 -72q53 -27 74 -27q8 0 52 41t73 76q2 33 22 76q18 8 51 27q25 16 45 51q6 23 35 69q-12 27 -12 52q0 76 94 75 q53 0 104.5 -14.5t51.5 -73.5z" />
<glyph unicode="y" horiz-adv-x="1110" d="M903 1282q0 -18 -20.5 -46t-31.5 -31t-26 -5q-16 -16 -51 -49q20 -55 12 -88q-2 -10 -28 -53q10 -31 10 -35q0 -20 -4 -43q-12 -12 -43 -37q-2 -14 -2 -29q-4 -20 -23 -32q18 -18 19 -31q0 -37 -41 -70t-80 -33q-25 0 -27 -4q23 -14 56 -47q0 10 -13 -82q4 -8 13 -22 q6 -31 -9 -53q6 -4 13 -9q0 -4 5 -16t5 -18l-23 -37q0 -16 -12 -56q35 -25 35 -45q0 -12 -12 -26q59 -45 59 -84q-35 -45 -66 -51q-6 -4 -12 -5q0 -8 7.5 -25.5t7.5 -25.5q0 -12 -25 -35q14 -14 20 -14q8 0 22.5 6t23.5 6q59 0 59 -53t-98 -80q-82 -20 -107 -20 q-6 0 -18.5 3t-20.5 3q-33 0 -45 33q-6 14 2 53q6 14 15 22q-12 8 -39 33q-8 12 -9 33q0 14 21 47q14 10 45 37v61q-43 8 -55 35q-16 45 -17 105q0 6 14.5 50t14.5 50q0 8 -17.5 52t-17.5 52q0 51 31 60q0 8 -18.5 8t-45.5 14q-37 18 -37 54q0 37 29 65q0 10 -4 14 q-39 -12 -70 -10q-16 10 -18 10q-43 0 -43 54q0 27 41 80q2 -4 -21 -4q-16 0 -55 24q-2 37 6 64q2 0 9.5 4t7.5 12q0 27 -45 27q-6 0 -30 -3.5t-32 -3.5q-35 0 -65 72q0 16 16 43t33 31v14q-2 0 -5 -3t-12 -3q-10 0 -35.5 34t-25.5 46q0 6 15.5 47t23.5 47q20 2 57 10 q82 33 76 33q10 0 49 -24.5t39 -36.5t-41 -54q35 -29 86 -92q6 -14 0 -26q-12 -18 -12 -21q29 -16 31 -40.5t4 -49.5q2 -12 8 -18l-29 -29q12 -8 33 -29q0 -2 -6 -37q-8 -8 6 -8q6 0 8 3t8 3q33 0 69 -26.5t36 -46.5q0 -14 -20.5 -34t-39.5 -38q61 -14 66 -14q2 0 37 45 q-4 8 -4 14q0 23 25.5 48.5t27.5 31.5q4 20 16 63q2 2 11 9q4 -6 4 8q0 6 -11.5 22.5t-11.5 24.5q0 23 15.5 48.5t15.5 39.5q0 16 -10 37q16 66 45.5 79t52.5 15q6 8 16 31q-35 12 -67 26q-20 12 -21 52q0 41 78 71q63 25 109 25q35 0 65.5 -20.5t30.5 -53.5q0 -39 -66 -65 q78 -46 78 -64z" />
<glyph unicode="z" horiz-adv-x="1134" d="M956 1313q0 -25 -67 -70q-8 6 -35 6l-4 -4v-16q14 -6 41 -19q10 -8 28.5 -36.5t18.5 -45.5q0 -31 -59 -65q14 -18 14 -41q0 -35 -26.5 -66.5t-57.5 -31.5q8 0 -14 6q-12 2 -29 -10q0 -2 6 -9.5t6 -15.5q0 -23 -8 -35q-33 -31 -92 -92q-8 -4 -27 -12q2 -8 2 -19 q0 -55 -63 -82q25 -49 24 -47q0 -6 -8 -20.5t-8 -20.5q2 -18 2 -53q-39 -57 -119 -51q-10 -20 -39 -51q0 -2 8.5 -11.5t8.5 -15.5v-16q2 -12 2 -21q0 -43 -17.5 -58.5t-66.5 -27.5q-6 -10 -23 -39q0 -33 4 -22q-2 -10 -12 -29l-31 -31q-8 -2 -28 -10q-8 -14 -29 -37 q-51 -39 -51 -43q0 -31 8 -31l35 17q6 2 39 2q8 0 42 -12.5t42 -12.5q43 0 69 17q0 2 -6 11t-6 17q0 31 49 78q27 14 68 15q43 0 63 -27q14 -18 18 -46l3 -28q8 0 22.5 8.5t22.5 8.5q6 0 72 -21q27 -2 79 -10q29 -8 91 -47q8 -12 8 -37q0 -66 -54 -76q-16 -10 -21 -10 t-17.5 -5t-18.5 -5q-8 0 -8 5t-8 5q-6 0 -6 -2t-9 -2q-6 0 -19 12t-20 14q-63 14 -116 15q-6 0 -28.5 -6.5t-31.5 -6.5q-6 0 -21.5 9.5t-23.5 9.5q-6 0 -38.5 -23.5t-39.5 -23.5q-55 0 -49 0q2 10 -12 10h-16q-6 0 -11.5 -5t-11.5 -5h-110q-6 0 -24.5 8t-25.5 8 q-2 0 -31.5 -20.5t-56.5 -20.5h-26q-25 0 -48.5 25.5t-23.5 42.5q0 16 31 71q-10 12 -11 29q0 53 72 96q0 23 10 64q6 8 56 43q8 12 0 33l-8 24q37 82 83 82q6 0 11 -2q2 14 -6.5 31.5t-8.5 21.5q0 8 35 64q0 14 4 39q12 14 35 45t37 47q25 31 49 33q-12 10 -33 35 q-8 12 -8 28q0 31 43 58q35 23 55 22q6 0 11.5 -3t11.5 -3q23 0 43 35q10 20 20 41q14 10 33 30q6 18 21 54q12 8 32 28q0 16 9 47q8 12 61 41q2 2 8 6.5t6 14.5q0 8 -7 16l-7 8l6 54q-14 16 -29.5 32.5t-15.5 32.5t25 64q4 4 -10 4q-35 0 -67 -26.5t-81 -26.5 q-31 0 -53.5 -24t-46.5 -24q-6 0 -44 6.5t-44 6.5t-12.5 -9.5t-14.5 -9.5h-65q-25 0 -46 9q-12 6 -27.5 24.5t-15.5 30.5q0 37 9 65q16 12 37 47q0 23 10 60q12 23 59 41q6 2 21 2q31 0 65.5 -24.5t44.5 -49.5v-29q2 -23 21 -22q6 0 101 45t101 45q16 0 82 -37q6 0 28 6 t30 6t32.5 -6t32.5 -6q6 0 12.5 3t13.5 3t6 3t5 3q25 0 61.5 -21t36.5 -50z" />
<glyph unicode="&#x2000;" horiz-adv-x="805" />
<glyph unicode="&#x2001;" horiz-adv-x="1610" />
<glyph unicode="&#x2002;" horiz-adv-x="805" />
<glyph unicode="&#x2003;" horiz-adv-x="1610" />
<glyph unicode="&#x2004;" horiz-adv-x="536" />
<glyph unicode="&#x2005;" horiz-adv-x="402" />
<glyph unicode="&#x2006;" horiz-adv-x="268" />
<glyph unicode="&#x2007;" horiz-adv-x="268" />
<glyph unicode="&#x2008;" horiz-adv-x="201" />
<glyph unicode="&#x2009;" horiz-adv-x="322" />
<glyph unicode="&#x200a;" horiz-adv-x="89" />
<glyph unicode="&#x202f;" horiz-adv-x="322" />
<glyph unicode="&#x205f;" horiz-adv-x="402" />
<glyph unicode="&#xe000;" horiz-adv-x="1464" d="M0 1464h1464v-1464h-1464v1464z" />
</font>
</defs>
</svg>
