<?xml version="1.0" standalone="no"?>
<!DOCTYPE svg PUBLIC "-//W3C//DTD SVG 1.1//EN" "http://www.w3.org/Graphics/SVG/1.1/DTD/svg11.dtd" >
<svg xmlns="http://www.w3.org/2000/svg">
<metadata></metadata>
<defs>
<font id="film_crypticregular" horiz-adv-x="1053" >
<font-face units-per-em="2048" ascent="1638" descent="-410" />
<missing-glyph horiz-adv-x="556" />
<glyph horiz-adv-x="2048" />
<glyph horiz-adv-x="2048" />
<glyph unicode="&#xd;" horiz-adv-x="2048" />
<glyph unicode=" "  horiz-adv-x="556" />
<glyph unicode="&#x09;" horiz-adv-x="556" />
<glyph unicode="&#xa0;" horiz-adv-x="556" />
<glyph unicode="!" horiz-adv-x="388" d="M309 1065q0 -25 -3.5 -74t-3.5 -74l-8 -10q0 -57 -2.5 -172t-2.5 -172l-8 -12v-118l-9 -11v-58q-8 -7 -29 -23h-36q-18 0 -38 23v41q-7 8 -7 13q0 7 14 21t14 16v26l-11 13q0 36 -10 48v41q-7 8 -7 14v2l14 15v69q0 11 3 33t3 34q0 2 -20 21q-2 15 4 118q5 90 -4 97v81 l14 14q5 16 26 68q25 57 34 57h36q10 0 23.5 -14.5t13.5 -24.5v-102zM309 100q0 -7 -20 -46l-2 -6q-2 -3 -3 -5l-36 -36q-26 -15 -36 -20h-22l-9 5q-8 3 -14 3l-36 36q-15 2 -33 23v59q5 0 15 -5t12 -5h1q5 3 15 23q7 8 25 10q2 3 41 28t41 25q20 0 59 -30q2 -2 2 -6v-53z M207 1006v7h-7l-1 -4v-3l1 -2h3q2 0 4 2zM210 932v10l-7 7h-8q-5 0 -5 -7v-25q0 -8 2.5 -22t2.5 -22q2 -2 4 -2v-1h1v1q2 3 7 9q0 8 1.5 26t1.5 26zM207 783v54q-2 3 -7 8v2q-2 0 -3 -2l-2 -2v-60l5 -7z" />
<glyph unicode="&#x22;" horiz-adv-x="503" d="M423 1175q0 -28 -9 -77v-51q2 -2 4 -16q2 -8 -6 -17v-44l-8 -12v-72l-9 -11v-10q0 -8 7.5 -23t7.5 -23q0 -16 -6 -21q0 -95 -41 -96q11 0 -41 13q-15 10 -15 27v1q8 20 33 56q0 15 3 46t3 46v3l-15 13v46q10 5 19 12v2l-10 11l-2 12q-7 7 -7 21q0 11 7 23q-10 3 -15 13 v20q5 10 15 14q-8 3 -23 14v27q8 7 15 14l1 18q8 15 28 44q5 0 13.5 2.5t13.5 2.5t14 -6.5t14 -6.5q2 -7 8 -8zM210 1167q0 -46 -31 -92v-3q0 -3 7.5 -16.5t7.5 -21.5v-8l-9 -12v-128q-7 -8 -6 -18q0 -13 6 -18v-43l-8 -9q0 -95 -28 -96h-11q-7 0 -15 12l-2 36q-7 18 -23 49 v10q0 18 17 26q0 10 3 30.5t3 30.5v2l-6 9v51q20 30 20 41v45l-5 6q-13 -3 -23 12q2 5 6 52q-7 23 -6 28q0 8 4 24.5t4 24.5q8 11 15 12h19l5 -5q0 -13 5 -15h12q5 2 11 7h13q15 -12 15 -23z" />
<glyph unicode="#" horiz-adv-x="845" d="M765 709q0 -16 -30.5 -42.5t-46.5 -26.5q-7 0 -17.5 7.5t-15.5 7.5q-8 0 -18 -8h-58l-21 -22v-64q-13 -8 -13 -62q0 -7 5 -7h1q18 25 33 25q20 0 54.5 -10t50.5 -10q46 0 43 2q20 -5 20 -36q0 -20 -25.5 -45.5t-45.5 -25.5h-105q-3 0 -12 3.5t-13 3.5q-10 0 -16 -13v-41 l-8 -12q3 -30 3 -61q0 -103 -43 -103q-31 0 -31 51q0 8 6 21t6 20t-6 20t-6 22.5t-4 28.5t-4 29q0 8 7.5 22t7.5 17q0 28 -26 28q-11 0 -25 -13h-67l-4 -6q0 -8 7 -14q0 -243 -59 -242h-13l-7 5q-13 26 -13 31v49q2 8 25 34v2q0 2 -10 7t-10 14q0 7 5.5 20t5.5 20l-8 12 t-8 24q0 13 5 16h23q8 5 8 23q0 5 -33 12q-39 5 -42 6q-21 8 -27 9h-3q-18 -20 -28 -20q-18 0 -33 16l-26 35l-2 10q0 31 37 31q11 0 30 4t29 4q7 0 29 -10t25 -10q11 0 52 68q-2 10 1.5 27t3.5 23v41l-10 12h-11q-18 0 -25 -7h-67q-18 11 -18 12q-5 0 -10.5 -6t-9.5 -6 q-23 0 -23 40v51l5 6h36q8 15 12 15h67q7 0 9.5 -15.5t8.5 -15.5q23 0 45 44t22 71q0 15 -5.5 42.5t-5.5 42.5q0 18 11 23h23q5 -2 7 -15t3 -13l23 -7q11 -3 12 -18q0 -23 -3.5 -68t-3.5 -68q-8 -11 -8 -16q0 -13 15 -25h29l15 -15q10 16 38 33q11 7 15 59q21 16 22 22l-3 3 h-18q-7 3 -6 20q0 8 10.5 10.5t10.5 3.5v41q13 15 18 23q0 54 2 61l8 8h3q18 0 26 -14v-37q13 -10 30 -24q0 -26 -11.5 -75.5t-11.5 -72.5v-41q5 -11 21 -11q8 0 20.5 5.5t17.5 5.5h72q10 0 31.5 -11.5t21.5 -19.5zM515 624v24q-13 16 -54 17q-7 0 -10 -5h-78l-7 -7v-47 l-7 -10v-95l5 -5h48q8 -7 11 -7h25q16 13 31 76q7 8 17 24q5 13 11 17q8 16 8 18zM535 474v8q-7 -2 -7 -4q2 -2 7 -4zM346 445v10q-7 -2 -18 -14v-9q2 -3 5 -7q13 0 13 20zM159 464v9q-2 2 -6 5l-2 1q-2 -2 -7 -3v-3q0 -3 4.5 -6.5t4.5 -5.5h3z" />
<glyph unicode="$" horiz-adv-x="782" d="M702 458q0 -167 -42 -241q-23 -39 -97 -82t-97 -79q0 -69 -23 -138q-31 -90 -89 -90h-3l-44 44v7q0 11 26 32q5 0 20 14l10 14l8 20h-5q-21 -21 -26 -23q-8 0 -17.5 19t-17.5 19q-13 0 -39 -2t-40 -2q-128 0 -128 81v52q11 11 22 12q31 0 38 -71l3 -1l6 1v28q3 7 9 7 q13 0 27.5 -27t19.5 -27q7 0 19 14.5t19 14.5t11 -9t9 -9q16 0 36.5 29t20.5 47v88h31q5 33 5 28q0 10 -14.5 24.5t-14.5 21.5q0 8 8 22t8 19v51q-16 25 -16 34q0 8 8 15v43q13 13 13 15v1l-12 12q0 82 -3 116q-7 3 -3 4q-2 0 -7 -2t-6 -2q-3 3 -4 12q0 13 9 13q10 -3 10 -2 q0 15 -13.5 16.5t-13.5 11.5q0 8 28 59t28 81q0 13 -16.5 30t-16.5 34q0 13 8 29l9 17q0 7 -9 14v45q2 3 9 19q3 8 16 9q3 0 12 -6t13 -6q2 0 1 3q0 53 -11 53q-51 0 -101 -64t-50 -117q0 -10 17 -62.5t22 -53.5h36l5 -7v-44q-11 -20 -10 -56q2 -28 -4 -28q-34 0 -39.5 21.5 t-8.5 23.5q-3 0 -12 -3.5t-14 -3.5q-11 0 -12 13q0 3 3.5 12t3.5 16l-2 10q-20 0 -21 3v49q7 16 6 25q0 7 -5 7q2 -2 -13 -14v-54l-10 -5q-51 0 -50 109q0 77 3 100q10 74 52 74q16 0 22 16q5 23 6 25q23 15 61 44l20 20q10 10 29 52q16 34 26 35q3 0 13 -3.5t14 -1.5 q5 3 5 14q0 10 -11.5 28t-11.5 27q0 15 27 37.5t43 27.5q8 2 23 -8t15 -20q0 -71 13 -80q7 -3 90 -3q2 -2 6 -13.5t7 -11.5q16 0 47 -22t31 -37q0 -53 -36 -53h-7q-39 36 -35 37q-16 0 -38 9t-27 9l-15 -2l-20 -18v-138l-6 -10v-220q-7 -8 -7 -18q0 -33 20 -33 q69 0 138.5 -73.5t69.5 -142.5zM399 903v3q-2 2 -2 3h-6q0 -2 -2 -2.5t-2 -3.5v-4v-3q2 0 4 -2h3q0 2 2.5 4.5t2.5 4.5zM630 502v3q0 3 -5 9q-2 0 -3 1h-5q-2 0 -3 -1v-12q0 -2 2.5 -3.5t2.5 -2.5h6q0 -5 5 6zM197 940q-3 10 -7 10q-5 -2 -8 -5t-5 -15v-13q-3 -3 -3 -11v-8 q0 -3 3 -4h2q3 0 4 6.5t2 8.5q0 8 9 17q0 2 1.5 6.5t1.5 7.5zM290 666v28l-4 5l-7 -5v-28l7 -6zM402 504q-3 0 -15 -7q-5 -2 -5 -18v-3l4 -2q5 0 13 12q3 3 3 18zM610 366v5q-30 31 -27 49q2 26 -5 38q-5 7 -27 34q-11 15 -13 40l-5 6l-34 2q-7 7 -17 6h-4q-8 -5 -14 -11 q0 18 -5.5 -42t-5.5 -139v-198l3 -3q2 2 54 47q23 33 68 92q5 16 18 46q14 23 14 28zM400 417q0 5 -3 10h-3q-7 -7 -7 -13v-2q0 -2 2 -3l5 -5q6 6 6 13zM374 5v3q0 3 -3 3h-2q-5 0 -5 -16h2q8 0 8 10z" />
<glyph unicode="%" horiz-adv-x="1216" d="M988 1196q0 -67 -281 -554q-286 -497 -290 -562q-2 -20 -44 -78t-58 -58q-5 0 -21.5 9t-16.5 14q0 11 -5 31t-5 28l2 7q2 33 17 79q26 18 59 55q5 46 8 55q11 26 41 26l13 8v39q15 15 47.5 67t32.5 63q0 30 58 113l59 86q0 46 10 46q20 2 33 24v51q26 62 46 76 q34 -3 34 34q0 11 -10 23v38q7 8 20 21q10 -2 20 -5q7 0 6 13q0 102 35 102q7 0 23 19t16 25q0 5 -14 18t-14 25q0 18 25.5 61.5t41.5 43.5q5 0 13.5 -3.5t13.5 -3.5l13 15l14 2q58 0 58 -53zM578 848q0 -66 -81 -144q-66 -64 -143 -102q-2 -2 -14.5 6.5t-16.5 8.5 q-5 0 -16.5 -3.5t-17.5 -3.5q-16 20 -22 20q-5 0 -13 -5.5t-13 -5.5q-18 0 -23 34q-2 0 -3 2v1q-11 0 -18 -3l-7 -3q-5 0 -24 20q-28 0 -28 19q0 8 11 28v3q0 3 -3 5q-21 0 -43 13q-5 18 -5 35q0 28 12 39h2q11 0 22 -20l10 -19q5 0 5 6q0 13 -51 69v12q0 13 14 28l9 1 q5 0 10 -4t8 -4h4q10 5 15 15v16l-15 14v14q8 8 23 9q5 3 5 4q0 8 -2 20q-2 11 0 20q2 10 10 18q44 18 103 49q69 64 102 64q20 0 25 -18t6 -18l5 15q7 16 17 21q11 5 24 -23q-2 -5 5 -8q11 15 28 15h8q51 -41 63 -84q5 -18 13 -53v-123zM1136 284q0 -25 -18.5 -57.5 t-19.5 -45.5q-67 -49 -159 -128q-3 -2 -16.5 -9.5t-18.5 -7.5q-8 0 -21 15h-20q-8 -8 -18 -5q-10 2 -10 15q0 10 24 36t34 26q7 0 13 -4t10 -4h3q66 66 72 74l40 85q-3 -7 -4 10v28q2 7 11 24t9 23q0 11 -16.5 18t-19.5 14q0 48 -3 52l-32 20l-5 19q-3 7 -9 7 q-3 0 -29.5 -10t-39.5 -10q-15 -7 -36 -19q-80 -80 -81 -132v-72q0 -30 41 -77.5t41 -45.5q0 -15 -18 -39q-7 0 -19 -20t-27 -20q-10 0 -29 15l-28 2q-2 3 -19 13t-17 23v6l23 25v5q0 10 -7 10h-2q-7 -5 -11 -12h-28l-6 5q0 5 -4.5 15.5t-4.5 15.5v68q0 2 6 10.5t6 12.5 q0 8 -1.5 22.5t-1.5 23.5l6 6q20 2 31 17v55q33 43 110 115q13 -3 15 -3q7 7 15 13q2 5 22 24t24 19h115q48 0 52 -56q43 -43 54 -61q21 -34 22 -82v-67zM852 1144v3h-4v-3h4zM484 1054v6q-2 0 -3.5 2.5t-2.5 2.5h-4q-18 -7 -18 -15q2 -8 5 -10h3q5 2 14 9q1 2 6 5z M425 1072v1h-3v-1h3zM492 917v4q0 21 -46 52q-5 11 -9 40q-8 8 -23 8q-7 10 -28 28h-10q-11 0 -49 -14q-5 -2 -39.5 -32t-36.5 -35q-8 -23 -28 -44q0 -11 -6.5 -36t-6.5 -36q0 -30 23 -74q26 -51 30 -72l3 -4q5 0 10 4q3 0 10 -5q2 -5 36 -40q16 16 19.5 18t21.5 4 q18 15 54 46q2 7 6.5 15.5t42.5 49.5v43q0 3 -2.5 11.5t-2.5 13.5q0 11 8.5 26t10 21t12.5 8zM241 678v5q-2 3 -3 3h-3q-7 -5 -9 -5l-8 -8q0 -2 5 -7q15 0 15 7q1 2 3 5zM784 87q-2 2 -3 2h-2q-2 0 -3 -2v0q0 -3 3 -3h2q3 0 3 3z" />
<glyph unicode="&#x26;" horiz-adv-x="1240" d="M760 594q-18 -2 -45 -8q-5 -3 -11 -12q-3 0 -7 -3q-8 0 -21 -8q-5 0 -15.5 -2.5t-15.5 -2.5q-20 0 -20 13q0 7 31 38l9 13q3 7 14 7q5 0 9.5 -2t7.5 -2l8 -6h5q3 7 8 18q13 13 25 13q5 0 18 -13v-20q0 -2 -1.5 -5t-1.5 -5q0 -3 1.5 -6.5t1.5 -4.5v-2zM612 578 q-3 -3 -4 -6.5t-16 -16.5q-11 -7 -23 -7q-15 0 -14 13v8q0 3 1 5q3 13 13 23q7 3 17 12q13 2 8 1q-2 0 10 -1q3 -3 8 -12v-19zM812 1072q0 -135 -54 -135q-33 0 -33 38q0 5 2.5 19t2.5 20q0 21 -16 21q-2 0 -8.5 -7t-12.5 -7q-11 0 -29.5 33.5t-36.5 33.5 q-53 0 -126.5 -67.5t-73.5 -119.5v-89q13 -25 27.5 -49.5t41.5 -24.5q10 0 28.5 2.5t28.5 2.5q51 0 51 -28v-6q-44 -48 -158 -102q-120 -59 -162 -97q-74 -67 -74 -174q0 -28 23 -83.5t23 -75.5q0 -16 -16 -23v-42q-5 -3 -13.5 -20t-11.5 -17q-8 0 -23.5 17.5t-15.5 25.5 q0 39 -30.5 51t-30.5 53l-2 113q-15 25 -15 39v13q5 7 12 8l11 12v75q16 28 66.5 74t66.5 69q90 23 91 163q0 10 -5 10q-3 -2 -12 -7q-7 -5 -11 3q0 182 65 174q16 25 51.5 74t67.5 49q3 0 9.5 -3t9.5 -3q53 62 86 62q15 0 34 -15q5 0 11.5 11t9.5 12q62 0 63 -28v-11 q0 -10 11 -10q2 0 10 16.5t16 16.5q13 0 32 -26t19 -41zM1160 587q0 -16 -11 -16q-3 2 -23 7q-13 3 -23 -7q-13 0 -35 -8q-36 0 -51 -17q-21 -25 -39 -70q-13 -36 -29 -77q-102 -192 -120 -218q-67 -98 -187 -165q-21 -11 -66.5 -17t-65.5 -15q-3 -2 -21 14h-90l-5 9 q-2 2 2 10t4 11q0 7 -9 11q-8 5 -25.5 -9.5t-24.5 -14.5q-34 0 -40.5 5t-10.5 36h-1q-34 0 -35 11v76l20 19h3q28 0 28 -42l5 -5h31q11 -20 22 -28q44 0 62 -25q20 3 48 -5.5t37 -8.5h4q15 16 28 16q-28 -2 39 -2q87 61 126 104q49 54 92 139q2 5 21.5 29.5t19.5 26.5 q0 54 3 66q7 20 22 59l-13 13v6q0 11 14 34.5t14 33.5q0 13 -17 13q-7 0 -16.5 -7.5t-14.5 -7.5q-15 0 -25 31q-5 -2 -18 -6q-10 -5 -16 3v31l20 20h6q8 0 22 -8l45 -4l14 6q13 6 21 6q18 0 34 -13h97q7 0 20 2.5t20 2.5q88 -1 88 -55zM921 535q0 3 -6 20.5t-6 25.5l-2 2h-3 q-2 -3 -3 -9v-19q2 -10 8 -25h8q4 2 4 5zM876 394v3h-1l-2 -2q-10 0 -10 -9q0 -2 2 -4h3q8 9 8 12zM482 23q0 5 -4 5h-14q-3 -2 -6 -5v-3l3 -4h17q2 2 4 7z" />
<glyph unicode="'" horiz-adv-x="293" d="M213 1162q0 -23 -14 -57.5t-14 -39.5q0 -2 7.5 -13.5t7.5 -20.5q0 -15 -6 -20v-113q0 -2 -3.5 -6t-3.5 -6q0 -74 3 -57q0 -18 -5 -25q0 -59 -1 -66q-5 -23 -36 -44h-20q-11 0 -21 13v36q15 8 14 22q-23 61 -23 78q0 20 28 43q3 23 4 17q0 2 -6.5 5t-8.5 6v20l5 5h23 q-11 21 -12 51.5t-5 41.5q-11 23 -11 33q0 11 5 44q3 28 1 46q2 3 7 7l15 1q7 5 10 9v28q7 7 11 6q49 -5 49 -44zM143 857v8l-4 1q0 2 -1 2h-2v-2l-1 -1v-8l1 -4h3q4 2 4 4zM159 824v10l-6 6h-2l-3 -3v-20h5q3 2 6 7z" />
<glyph unicode="(" horiz-adv-x="731" d="M651 -20q0 -20 -25 -47t-45 -27h-99q-11 3 -31 15q-3 3 -13.5 24t-12.5 21t-6.5 -10t-21.5 -10q-18 0 -73 48.5t-55 66.5q0 5 -52.5 105t-57.5 103v44l7 5l15 -1l4 1q0 13 -13 29.5t-13 26.5q0 7 6.5 27.5t6.5 31.5q0 15 -11 15q-23 -16 -28 -16q-13 0 -13 29q0 3 1.5 8 t1.5 9q-2 3 -10 8v59q-15 16 -15 29q0 11 14 38.5t14 37.5q0 2 -9.5 15t-9.5 28q0 44 14 44q-2 0 14 -5q8 -2 8 10q0 66 -28 101v33l6 7h25q11 15 12 23q0 7 -14 15.5t-14 18.5q0 21 18 28l19 8q0 11 3.5 34.5t3.5 34.5q0 66 21 79h35l5 7q0 69 34 96l13 12q0 44 18 67 q26 23 53 48q3 31 85 101.5t113 70.5q18 0 39.5 -17t21.5 -34q0 -15 -95 -103q-118 -110 -181 -190q-98 -128 -103 -233q-11 -13 -24.5 -71.5t-13.5 -84.5v-260q0 -138 115 -311q123 -187 256 -188q53 0 58 -1q27 -9 27 -53zM158 494v3q-2 0 -4 4h-3q-5 -10 -5 -15l-3 -5v-3 q2 0 3 -4q12 10 12 20zM514 -10v3q-2 2 -4 2h-1q-2 0 -4 -2v-3q2 -3 4 -3h1q4 1 4 3zM226 254v12q0 3 -2 9.5t-2 10.5q-7 7 -12 6q-7 -2 -8 -3v-40h20zM433 38v8h-6l-9 -15l7 -5q8 9 8 12zM274 162v4q-3 3 -8 6h-3v-3l3 -8h3v-2h2v2q1 -1 3 1z" />
<glyph unicode=")" horiz-adv-x="712" d="M525 1022q0 -11 -6 -18h-28l-7 7v41q-16 11 -18 39q-7 8 -7 13q0 7 7 15l2 20q7 7 6 20q0 36 -13 36q-3 0 -5 -4v-28q-10 -7 -13 -6q-25 0 -25 23q-13 13 -23 16l-8 9q-3 13 -3 16q0 10 10.5 16.5t10.5 9.5t-3 9t-3 8q-5 18 -7 19q-3 0 -5 -3l-1 -31q-5 -13 -23 -13h-5 l-7 5l-5 14q-26 34 -74 74q-11 3 -14 38q-39 34 -40 54q-2 3 -5 3t-5.5 -9.5t-8.5 -9.5h-4q-2 2 -23 7.5t-21 15.5q0 21 7.5 40.5t8.5 31.5l7 5h5q41 0 55 -6t42 -35l1 -7q0 -11 -6 -21q2 -3 3 -3h2q15 11 28 11q20 0 95 -103q0 -13 5 -30l44 -41q23 -21 23 -49 q36 -18 36 -36v-61l-5 -11q20 -11 21 -46zM632 555q0 -7 -4 -26t-3 -30q-18 -20 -23 -123q-16 -49 -51 -148q-59 -156 -128 -225q-21 -21 -78 -57q-62 -39 -84 -40q-8 0 -18 6t-12 6l-21 -20h-7q-16 0 -21 27q-3 15 -6 16l-8 -13q-9 -13 -20 -13q-21 0 -28 29l15 18l-4 13 h-19q-13 23 -14 36q0 21 20 22q7 0 20 -15q11 5 108 30l12 11q3 11 24 19l20 9q75 79 153 156l11 11v5q0 5 -2.5 16t-2.5 15q0 15 15 25l31 8l5 7l-2 10h-19q-7 7 -7 11q0 16 38 71q0 36 -3 29q13 11 24 25q5 30 -15 80q0 7 9 29t9 37q2 5 9 5q-3 0 13 -5q10 -3 10 8l-5 10 q-5 11 -5 20q8 8 23 24v35q-2 5 -7 5q-8 0 -15 -12v-28l-6 -5h-20l-5 5q0 44 -6 120q-8 89 -10 118q-15 18 -15 36q0 11 28 45q0 33 23 32q20 0 20 -27q0 -36 16 -56v-28q-5 -5 -5 -13t7.5 -28t7.5 -31q11 -8 11 -20q0 -3 -3 -16q-2 -8 5 -17q-3 -18 6 -46.5t9 -40.5v-157z M574 840v18q-2 2 -3 2h-3q0 -3 -2 -8v-12l2 -1h3q1 -1 3 1zM202 -5v3l-3 4h-4q-2 -3 -3 -10q5 0 6.5 1.5t3.5 1.5z" />
<glyph unicode="*" horiz-adv-x="704" d="M624 1009q0 -11 -16.5 -31t-28.5 -20h-75q-15 15 -43 15h-2q-11 -10 -11 -15q0 -28 37 -59t38 -37v-37l-4 -4q-72 0 -73 16q0 5 4 13q-15 15 -15 23q-5 7 -12 8q-23 -8 -16 -8h-3l-22 23q-10 13 -23 13q-5 0 -8 -3q-3 -13 -27 -59t-30 -49h-36q-28 18 -28 83q0 18 28 30 q2 13 5 26q3 5 27 13q8 11 9 20q0 7 -9 6q-3 0 -7 -9t-7 -9h-2q-5 5 -20 22h-44q-3 2 -7 6l-1 15l-7 5q-7 0 -26.5 -15.5t-32.5 -15.5q-5 0 -15.5 3t-17.5 3l-5 5v28l5 7q16 -5 46 -7q-3 31 35 31h10l13 -8q5 0 14.5 4t13.5 4l19 -1l4 10q-15 16 -15 29q0 15 15 38q2 3 -5 5 h-2l-11 -12h-2q-18 0 -37 16.5t-19 34.5q0 16 3 20l10 8h51l5 -7v-26l-2 -10l5 -5q26 0 47 -27.5t32 -27.5h5q8 7 40 57.5t36 50.5h57q20 0 20 -41q0 -28 -25.5 -61.5t-25.5 -38.5l19 -18q8 0 25.5 -4t25.5 -4q10 0 33 14q43 0 48 -1q15 -11 31 -23zM271 881v12q-2 5 -4 5 h-4l-4 -23q2 -2 4 -2h3q5 5 5 8z" />
<glyph unicode="+" horiz-adv-x="822" d="M742 604l-41 -41l-94 2q-11 0 -15 -2q-30 21 -29 26q2 2 5 8q3 7 -2 7q-3 0 -10.5 -11.5t-10.5 -13.5q-8 0 -26 -10h-41q-25 -18 -25 -34q0 -139 20 -162v-10q0 -36 -37 -73t-73 -37q-39 0 -40 152q0 20 15 21.5t15 5.5q-21 41 -22 50q0 8 4.5 28t2.5 32q-10 0 -29.5 3 t-29.5 3q-25 0 -84 -16h-1q-5 0 -12.5 7t-10.5 7l-12 -8q-11 -7 -26 -6q-26 0 -35 13v59q2 3 9 6q10 -2 41 -26q3 0 3 3q0 2 -2.5 10.5t-2.5 11.5q0 10 15 10q7 0 20.5 -3.5t20.5 -3.5q36 23 44 23q7 -2 23 -15h18q25 25 74 73v1q-2 3 -8 13q0 21 -6 61.5t-6 61.5 q0 49 33 50q11 0 20 -2q7 -2 10 0q7 2 18 10h13q18 0 38 -20v-6q0 -23 -10 -70t-10 -70q0 -79 26 -79q5 0 15.5 6.5t14.5 6.5q49 0 56 -1q7 -10 16 -15h3q16 0 49 15.5t51 15.5q57 0 58 -28v-39zM391 537v26l-2 2h-3q0 -3 -2 -7l-3 -7v-6q-3 -2 -4 -8q0 -5 4 -5h5z" />
<glyph unicode="," horiz-adv-x="423" d="M343 97q0 -21 -13 -48q-30 -44 -81 -134q-28 -72 -29 -77q-23 -49 -48 -64h-10q-10 0 -21 8q-10 57 -10 51v52l2 5q10 13 28 31q11 -2 11 4q0 5 -1.5 14.5t-1.5 14.5l7 5h16l5 7q-8 5 -20 13l-1 19l-7 7h-8l-13 13q-23 0 -30 12q-2 3 -5 29q-15 16 -15 25l2 10l5 4 q3 0 13 -3q13 8 37 44.5t31.5 36.5t23 3t21.5 3h28q26 0 55 -29.5t29 -55.5z" />
<glyph unicode="-" horiz-adv-x="850" d="M770 602q0 -20 -35.5 -43.5t-56.5 -23.5q-8 0 -20.5 17t-15.5 19h-9q-3 -2 -8 -12.5t-16 -10.5q-7 0 -35 12q-11 5 -29 1q-20 -3 -30 -3t-25.5 -5t-23.5 -5q-7 0 -17.5 3.5t-16.5 3.5q-8 0 -20 -4q-5 -2 -10 -1q-5 0 -11.5 4t-13.5 12q-7 5 -8 -11q-11 -11 -23 -12h-49 q-7 3 -10 23h-5q-23 -31 -36 -31q-36 0 -47 5l-2 2q-2 0 -2 -2l-24 -13h-61q-11 7 -12 16q0 7 14 17q8 8 18 14q2 16 19 50h41q20 20 36 19q36 0 43 -1q25 -34 25 -51q3 -7 8 -7q3 2 8 7v16q0 49 -1 23q0 15 16 15q-7 0 13 -3q7 -10 23 -27q28 28 33 30q3 0 15 -3 q7 -10 16 -18h10q7 5 11 9l12 2q8 0 15.5 -5.5t10.5 -5.5l18 14q18 15 33 15q8 0 57 -23q5 -2 30.5 17t30.5 19q30 0 95 -16q21 -20 22 -28v-20z" />
<glyph unicode="." horiz-adv-x="408" d="M328 135q0 -8 -5.5 -24t-5.5 -22q-7 -39 -61 -74q-8 -5 -16 -8h-37q-16 16 -41 36h-3q-7 -7 -8 -23l-5 -5h-5q-8 0 -18 8q-3 13 -3 15q0 5 3 16q3 3 7 8v5q-8 3 -5 4q-2 0 -7.5 -2t-9.5 -2h-5q-3 2 -5 7v21q0 2 15 31q3 5 13 13h7q11 0 15 -4v-35q0 -2 5 -2q2 0 5 2v39 q15 25 29 40l15 2q20 20 51 19q8 0 13 -1.5t10 -6.5q20 -11 44 -30q8 -9 8 -27z" />
<glyph unicode="/" horiz-adv-x="914" d="M834 1188q-7 -11 -233 -425q-233 -425 -261 -487q-123 -277 -161 -278h-36q-31 20 -36 23q-8 10 -9 40q0 13 11.5 17t11.5 7q0 38 28 77q3 7 56 68q7 0 17.5 18t10.5 24q0 41 22 56t22 35l45 46q0 2 -7.5 10.5t-7.5 12.5q0 25 77 82v44q3 3 8 20.5t8 17.5q34 0 35 31 q2 46 18 69q7 3 29 28q8 53 23 64h28q11 10 12 16q0 5 -7 13v51q7 7 17 7q8 0 23 -13l5 3h1q0 3 -7.5 12t-7.5 16q0 8 7.5 26t7.5 25q0 49 56 167q59 126 100 130q28 30 41 29q23 0 53 -38v-44zM676 1080v3q-2 0 -3 2h-3l-14 -20q-8 -13 -8 -23h5q3 2 8 7q7 15 15 31z M149 46v16q-3 5 -10 12h-4l-4 -3v-35h5h3z" />
<glyph unicode="0" horiz-adv-x="1263" d="M880 829q0 -3 -153.5 -177t-171.5 -199q-82 -117 -112 -117h-25l-21 9q-15 5 -15 24q0 13 15 17q0 -2 2 -2q2 16 19 33q7 7 40 29q3 0 6.5 3.5l6.5 6.5q0 25 20 30q8 3 8 11l24 15q-5 5 -4 8q0 11 50 40v16q3 2 8.5 11t9.5 9q15 0 15 5q2 23 18 36q2 0 15 8q7 21 20 28 h18l-3 5v24q2 2 3 2q8 5 16 5h2q0 2 10 20q0 23 38.5 73.5t67.5 54.5q20 13 30 13q18 0 43 -20v-21zM1185 594q0 -120 -154 -325q-161 -213 -274 -213q-15 0 -25 3l-8 5q-7 0 -23 -16q-44 -43 -132 -43q-15 0 -44 1.5t-44 1.5q-8 0 -19 -7.5t-16 -7.5q-10 0 -21 14v21l-5 2 l-82 1q-10 0 -38 51q-16 5 -37 20v64l-10 5q-8 0 -11.5 -14t-6.5 -18h-18q-13 7 -44.5 68.5t-31.5 80.5t-13 56t-13 51q0 13 11.5 25.5t11.5 24.5q0 28 -12 36l-16 13v67q3 3 3 7q-2 0 -11 21q-3 5 -4 12q0 10 8.5 30t8.5 30q10 23 39 61q0 120 128 248q31 15 91 72q0 3 4 7 h33q10 15 57.5 37.5t67.5 22.5q31 0 60.5 20t36.5 20q18 0 41 -15q8 11 31 20q7 2 11 1q8 0 10 -5t0 -13q-2 -7 -1 -11l1 -13q3 -13 2 -20q-3 -8 -13 -8q-21 0 -59 12t-49 12q-2 0 -8 -18.5t-14 -20.5q-139 -38 -239 -181.5t-100 -289.5v-136q0 -38 49 -167t74 -147l136 -75 v-28q5 -7 11 -7q10 0 10 9q0 -7 -6 18q-2 13 9 13q5 0 14 -4t14 -4q30 30 59 34q39 5 58 15q28 15 39 15q25 0 62.5 15.5t57.5 16.5q18 15 46.5 54.5t42.5 54.5q13 30 32 65q13 3 28 9t15 18.5t13 43.5t26 29q-21 30 -21 55q0 10 13 26v33q0 2 11 7.5t11 6.5l-4 15 q-2 13 0 20q0 10 9 10q28 0 27 24q0 8 -2 24t-2 24q0 -7 4 18q5 15 -4 15q-5 0 -12 -25.5t-10 -27.5h-20q-7 2 -6 13q0 8 3 25l5 26l12 15q0 10 4 28t4 26q0 11 -3 12q-5 0 -7.5 -10t-9.5 -10h-2l-19 20v10q0 43 -3 44q-15 8 -23 24v28q-2 2 -21 12t-19 20t10.5 23.5 t12.5 20.5h-21l-8 5q0 31 -7 31q-5 0 -12.5 -13t-8.5 -15h-20l-7 5v34l-8 5h-33q-7 7 -27 17q-15 7 -15 24q0 2 3 20q3 15 -3 15h-2q-7 -7 -17.5 -21.5t-20.5 -14.5q-30 0 -29 28q0 10 19.5 34.5t27.5 24.5q11 0 26 -18l14 -17q13 0 41.5 6t43.5 6q20 0 51 -42t38 -42 q54 0 123 -130q64 -121 64 -188v-153zM1027 949v13q-2 0 -3 3h-3q-2 -3 -4 -3v-13l4 -4h3zM909 1078q0 2 -2 3h-4l-4 -3q-2 -2 -3 -1l-8 -9q0 -2 1 -3h4q2 0 4 2.5t4 2.5zM174 730h-3v-3zM153 551v27q-5 2 -5 3q-2 -2 -5 -3v-27l3 -1h3zM440 48q-2 2 -3 6h-4l-3 -3v-5 q0 -3 3 -3h4q2 2 1 3zM200 259v10q0 5 -11 17q-7 0 -7 -7q0 -5 7 -12q2 -11 1 -13l4 -3h3q3 6 3 8zM245 218v2l-4 3h-3q-16 -16 -16 -20v-1q0 -7 1 -7h7q0 8 3 12z" />
<glyph unicode="1" horiz-adv-x="551" d="M471 1180l-2 -20q-33 -26 -36 -80q-7 -8 -8.5 -28t-7.5 -28q3 -38 -3 -105q-10 -95 -10 -110l-9 -10v-267l-8 -12v-228l8 -11v-41q3 -3 11.5 -42.5t8.5 -48.5v-80q0 -10 -56.5 -31.5t-72.5 -21.5q-10 0 -25 13.5t-15 23.5q-2 120 15 119q8 -3 11 -3q5 0 5 3q0 28 -18 41 v68q2 3 15 9.5t13 11.5q0 3 -6.5 15.5t-6.5 18.5q0 5 3 9l36 36q0 7 4.5 19t4.5 18q0 13 -23 51t-23 41q0 18 18 18l11 12v3q0 10 -14.5 32t-14.5 33t-4.5 30.5t-4.5 29.5q0 31 28 31q7 0 8 -14t6 -14q13 0 13 20q0 8 -11.5 11.5t-11.5 6.5v54q7 10 6 20q0 15 -18 34.5 t-28 30.5v37l15 14q-20 39 -33 40q-7 0 -56 -52t-70 -52q-16 0 -17 17q0 7 16 21.5t16 22.5q0 2 -11 6t-12 9v21q25 13 60 39q39 48 119 146.5t142 98.5q46 0 43 -36zM302 392q-7 -7 -13 -6q-11 0 -12 6q-2 2 -1 3l1 2q0 7 5 7h13l7 -7v-5zM313 873v3q-2 0 -3 4h-3l-2 -4 q-2 0 -1 -1v-2h1l2 -2h3q1 2 3 2z" />
<glyph unicode="2" d="M656 1121q-13 -7 -36 -22h-42q-11 -10 -34.5 -12t-29.5 -6q-77 -38 -109 -44q-28 -28 -62 -61q-34 -15 -74 -37q-13 -3 -11 -4q-13 0 -32 17.5t-31 17.5q-3 2 -5 5v34q0 15 22.5 34t36.5 19h14q7 -5 16 -23q2 0 5 -2q7 0 13.5 14t7.5 16l2 6q5 11 20 28h6q10 0 28 -16v-2 l5 3q0 16 8 23h20q15 -15 15 -14h1q15 11 17 26q3 2 3 5q11 13 72 24q5 2 15 11t25 9q5 0 13 -3l10 -2q43 21 36 21q43 0 55 -21v-44zM973 162q0 -49 -57 -106h-12q-13 0 -42 24h-22q-15 2 -15 17q0 -8 7 21q3 16 -8 17q-8 0 -10.5 -20t-22.5 -20q-13 0 -37.5 8.5t-33.5 8.5 q-3 0 -6 -7.5t-8 -9.5h-15l-79 -3q-3 -8 -26 -23q-5 -2 -66 0q-41 2 -62 -21q-36 0 -105 -20t-100 -20q-5 2 -20 15q-44 0 -84 18q-51 23 -51 61q0 16 20 31h31q2 -2 7 -2q21 0 102 72q18 16 84.5 65.5t75.5 51.5q44 44 129 135t129 136q26 26 58 92q36 74 52 96v55 q8 5 19.5 36t19.5 39q0 2 10 7.5t10 10.5v10q0 13 -10 13q-3 0 -10.5 -14t-18.5 -14q-5 0 -28 20v36l15 20l-5 6h-27q-23 16 -23 38q0 8 15 20v37l-5 2q-10 0 -27 -19.5t-27 -19.5q-5 2 -24 13q0 8 -2.5 26t-2.5 28q0 41 26 41q11 0 21 -12.5t12 -12.5q8 0 27.5 -9.5 t30.5 -9.5t31.5 -8.5t31.5 -8.5q80 -80 81 -154q0 -171 -140 -369q-85 -120 -259 -292q-139 -138 -140 -158q0 -25 23 -24q3 0 23 5q15 3 22 -2l14 -20q-20 0 19 20t54 16q2 0 14 6t18 6h15q13 -16 17 -18q7 0 10 10.5t6 12.5q51 16 57 16q11 0 23 -20.5t17 -20.5t5 7 q-2 2 -7 18q-3 13 5 16h20q7 -2 7.5 -12.5t3.5 -10.5q16 0 27 23t21 23h51q16 -26 18 -28q3 0 8 22t15 22h52l26 -24zM245 1008q0 18 -10 18h-2q-7 0 -7 -9v-19q3 -8 7 -8h2q10 0 10 18zM427 87l-2 2h-3l-4 -2q2 -3 4 -3h3q2 1 2 3z" />
<glyph unicode="3" horiz-adv-x="835" d="M530 1127q-11 -20 -31 -19q-5 0 -13 2.5t-12 2.5q-7 7 -6 18q0 5 3 15.5t3 15.5v10q-5 8 -6 8q-3 0 -5 -3q-3 -16 -8 -50l-5 -6q-8 0 -27 -8h-1q-28 18 -35 18q-26 0 -37 -18q-49 -7 -108.5 -95.5t-100.5 -88.5h-15l-5 6v40q-10 3 -23 13v15q0 18 19 43.5t22 36.5l10 8 q16 0 35 17l34 31l25 2q15 7 36 19q15 21 39 40q15 -3 48 9h44q8 7 17 7q15 0 28 -15l13 -13h1q5 11 23 12q7 0 17.5 -4.5t15.5 -4.5l5 -6v-58zM755 323q0 -69 -116 -172t-186 -103q-13 0 -43.5 -5t-46.5 -4l-17 -9q-8 0 -8 9q2 3 8 14q0 28 40 27l21 15q59 0 107 46 q23 23 65 92q39 64 64 84v11l-18 20v33q49 25 49 51q0 11 -8 11q-7 0 -15 -19.5t-13 -19.5q-2 0 -14 13v42l-9 12q-2 28 -25.5 33.5t-23.5 32.5l-11 11q-13 5 -45 30l-29 24q-10 -11 -26 -29h-41q-8 8 -20 8q-15 0 -49.5 -19t-42.5 -19q-13 0 -32 15.5t-19 28.5v42 q7 13 23 31q33 0 50 30t34 30q5 0 11.5 -6.5t7.5 -6.5q5 0 10 13.5t7 14.5l21 22q59 43 168 147q-15 10 -15 22q0 10 7.5 30t7.5 30q0 8 -4.5 23t-4.5 23q-44 51 -44 67q0 31 13 32q23 0 23 6q0 5 -3 17.5t-3 18.5q0 18 18 18q8 0 19 -16q16 -23 17 -23h36q36 -33 36 -49 q0 -80 -23 -186q-28 -130 -72 -174q-15 -13 -43.5 -40t-28.5 -43q0 -10 8 -23q11 -18 13 -22q3 -8 6 -8q7 0 7 13q-2 3 -7 22q-3 15 5 18h15q30 0 97 -68q23 -3 57.5 -58.5t34.5 -82.5v-128zM315 33q0 -3 -2 -8q-8 -7 -31 -9.5t-28 -7.5h-59q-8 7 -19 17q-2 8 -10 19 q-7 -10 -20 -28h-5q-7 0 -15 4l-14 -4h-2l-7 5v28q0 2 2 5t2 5q0 7 -4.5 21t-4.5 20v20l5 5h59q2 0 17 -12.5t23 -12.5q3 0 8 1.5t8 1.5h5l7 -6l1 -12q2 0 5 -1q3 0 7 1v2q2 0 6 -1.5t5 -1.5q3 0 15 3q13 -3 38 -20q2 -10 3 -23q0 -2 2.5 -5.5t2.5 -5.5zM622 1068v33 q-2 0 -3 -2h-4q-3 -5 -5 -4q-10 -20 -9 -35h9q4 0 12 8zM674 356v3q-2 2 -3 2v2q-2 0 -3 -2l-2 -2v-3q2 -3 4 -3h1q3 1 3 3zM299 599v8h-4l-1 -3z" />
<glyph unicode="4" horiz-adv-x="1124" d="M1044 338q0 -75 -114 -75q-5 -7 -16 -7q-13 0 -41 28h-3q-3 0 -14 -3.5t-17 -3.5l-20 20h-2l-19 -20h-37q-8 -3 -20 -19.5t-12 -24.5q0 -103 18 -130q0 -79 -45 -78h-65q-20 0 -20 11q0 7 6 16t6 14q0 2 -15 15.5t-15 23.5v7q7 11 23 36q0 2 -3.5 10.5t-3.5 12.5 q0 8 7 25t7 27l-2 8q-20 21 -30 22q-5 0 -15.5 -2.5t-15.5 -2.5q-20 13 -20 21t10 17t10 14q0 15 17 51q26 2 41 23l29 43q0 13 10.5 40t10.5 39q0 13 -9.5 41t-11.5 39l-8 11q0 15 -3.5 42t-3.5 42q0 16 7 25v19q-7 8 -7 40q0 3 11 11.5t14 8.5q13 0 18 -46l5 -5q7 0 7 13 q0 5 -4 18q-2 11 0 20q2 10 12 16q10 0 29.5 10.5t29.5 10.5q16 0 34 -19q3 -34 -8 -97q-13 -67 -13 -95l-8 -10q0 -16 -3.5 -46.5t-3.5 -47.5q0 -18 4 -52.5t4 -52.5l17 -18h46q21 -21 37 -21h4l24 26l7 2h36l7 -5v-25h6q39 36 49 36q45 0 45 -49zM817 1154 q-555 -732 -554 -813v-37q3 -7 6 -7t14 7.5t12 7.5h46q8 0 13 -17.5t7 -17.5q3 0 13 17.5t23 17.5t40 6.5t41 6.5q7 0 12.5 -6.5t10.5 -6.5q8 0 26 21l8 2q20 0 20 -22q0 -48 -71 -60q-26 -5 -102 -5q-16 0 -56 -15.5t-55 -15.5h-97q-36 0 -36 55l-3 4q-31 0 -28 -2 q-8 3 -9 31q0 5 11.5 25t16.5 21q11 -2 25 8q-3 34 84 137q5 20 19 55q62 69 143 168q7 26 25 74q5 11 51 42q31 21 34 72q10 16 46 60q2 26 78 133.5t94 107.5q92 0 92 -54zM940 340v3q-13 0 -13 -12v-8l7 2q-1 8 6 15zM693 258v5q0 5 -2 4q-13 13 -17 14l-9 -4h-5 q-3 2 -7 2l-6 -3v-9q8 -5 23 -18h16q2 2 5 7q2 0 2 2zM249 253v3q-3 2 -6 5h-5q-3 -2 -7 -5v-7q2 0 3.5 -2t3.5 -2q8 8 11 8zM146 289v3h-3v-3h3z" />
<glyph unicode="5" horiz-adv-x="851" d="M771 1096q0 -39 -42 -82h-7q-26 0 -43 31l-16 33h-2q-13 -16 -29 -16q-31 0 -46 19q-2 16 -8 17l-9 -14t-23 -14h-1q-28 26 -28 28q-7 0 -7.5 -8.5t-2.5 -10.5t-34 -9q-43 -15 -148 -48l-38 -11q-54 -54 -54 -94v-159q13 -15 34 -62q5 -10 10 -10l2 2q3 30 5 33t74 13 q28 5 46 4q2 0 21 5q20 5 43 -32h1q20 34 43 34q5 0 44 -10q5 -5 33 -14t28 -15q0 -7 -7 -15l-1 -20l-7 -10v-51q-7 -15 -19 -14q-13 0 -28 27t-17 28h-33q-21 11 -37 35q-2 0 -5.5 -10t-12.5 -10q-77 0 -104 -23l-19 -1q-5 -7 -30 -9q-8 -7 -18 -6q-5 0 -11.5 3t-9.5 3 q-20 -18 -25 -19q-11 0 -33.5 4t-33.5 4q-11 -18 -23 -18q-10 0 -27.5 10.5t-17.5 20.5q0 18 22 36v44q8 7 11 15q2 8 -4.5 24t-6.5 22q0 16 18 23t20 10v10q0 26 8 78t8 78l-12 9q-11 9 -11 19q0 20 20 19q10 0 13 -5v-27q2 -3 6 -4q20 0 20 23q0 5 -18 33t-18 39v37l5 6 h44q11 8 15 8q2 0 19 -11.5t22 -11.5q100 0 126 23q10 0 30.5 8.5t22.5 8.5h15l9 -7q18 0 53.5 3.5t51 3.5t34.5 6.5t26 6.5t23 -12h42l10 -8q30 -2 39.5 -10t9.5 -36zM765 402q0 -112 -179 -290q-23 -23 -79 -51q-61 -30 -82 -46q-15 0 -43 -7.5t-41 -7.5h-75q-11 0 -31 23 q-10 0 -23 8v33l-7 5q-20 0 -21 -15q-3 -20 -13 -23h-12q-38 0 -38 22v50q0 18 -11.5 24t-11.5 17q0 28 19 28q11 0 19 -10.5t13 -10.5q2 2 17 13h5q7 0 50 -30.5t65 -30.5l23 -23v-36l4 -3q7 0 19.5 21.5t17.5 24.5h36q2 -3 6 -3q5 0 19 5.5t19 5.5t13 -2.5t10 -2.5 q5 0 6.5 8.5t3.5 9.5q18 15 65 56q41 46 125 136q0 10 -2.5 30t-2.5 29q0 2 3.5 7t1.5 8q-7 11 -2 33q7 28 7 34q0 11 -2.5 35.5t-2.5 35.5q0 5 -3 15.5t-3 17.5l3 18q2 7 0 6q-2 0 -6 -1.5t-6 -1.5q-21 11 -21 33q0 8 6 22t6 21t-3.5 21.5t-3.5 22.5q3 5 13 5t38 -28 q28 -5 60 -64t32 -92v-105zM689 532v3q-2 3 -3 3h-2q-3 -2 -3 -3v-3q2 -2 3 -2h2q1 0 3 2zM269 51v8h-11q0 -11 8 -11z" />
<glyph unicode="6" horiz-adv-x="945" d="M865 469q0 -121 -71 -210q-43 -53 -172 -149q-136 -102 -202 -102q-11 0 -31.5 -6.5t-30.5 -6.5q-20 0 -20 20l2 8q10 30 10 23q0 8 -4 8q-8 0 -24.5 -19t-24.5 -19q-13 0 -28 10q-20 0 -26 2q-15 23 -44 61q-10 2 -27 13v69l-6 5q-2 0 -10 -5t-13 -5t-5 10q0 16 14 31.5 t14 18.5q0 7 -7 7q-23 -16 -31 -16q-10 0 -16 6v67q-13 18 -14 45l5 34q2 5 14.5 6.5t12.5 6.5l-4 15q-5 -2 -9 -2q-8 0 -14 7q0 23 13.5 68t13.5 68q2 8 24 8q5 21 20 46h2q3 -2 11 -6q5 -3 10 6v38q13 18 13 30q0 5 -5 20.5t-5 23.5q0 20 18 20q28 0 38 37t15 45 q69 72 123 165q15 25 36 37q10 3 20 13q2 28 56.5 113t77.5 85q95 0 95 -56q0 -39 -70 -96l-99 -79q-3 -23 -67 -120.5t-64 -110.5q0 -7 10.5 -23.5t15.5 -16.5q15 0 57 18t58 18q7 0 19 -8t19 -8q3 0 9.5 8t21.5 8q44 0 44 -65q0 -20 -13 -20h-59q-128 0 -230 -64 q-121 -77 -121 -205q0 -59 44 -217q25 -21 63 -62q2 -2 5 -15t5 -13q15 0 44 -6.5t43 -6.5q2 0 7.5 8t11.5 8q10 0 20 -10t13 -10q13 0 18 15t8 17q36 21 107 65q61 38 94 82q2 13 22 48v36l9 5h21q2 8 -2.5 17t-4.5 14q0 10 15 23v30l-36 59q-23 38 -23 65q2 5 7 20 q5 13 0 13q-21 0 -46 20t-25 41q0 3 13 15.5t13 27.5q0 3 -4 12t-4 14q0 10 20 10q18 0 41 -30h34q3 -5 56 -57q33 -33 44 -68q2 -18 15 -47q-2 -11 2.5 -28.5t4.5 -24.5zM729 619v13q-2 5 -5.5 13t-6.5 8h-2q-3 -5 -9 -13v-3q5 -5 3 -25t3 -20t12 9q0 3 2.5 9t2.5 9z M743 553v0q0 2 -1 2v0q-2 0 -2 -2v0q0 -2 2 -2zM158 512v10l-4 3h-3q-2 -2 -2 -3v-3l2 -5q2 0 7 -2zM428 51v8q-2 0 -3 3h-3q0 -2 -4 -3v-5l7 -6q0 1 3 3z" />
<glyph unicode="7" horiz-adv-x="963" d="M441 1077q0 -15 -59 -15l-16 -17q-16 0 -36 -1q-11 -8 -33 -20q-89 -30 -97 -31q16 0 -47 8q-5 2 -7 7v9l5 7l11 2l12 11v3q-2 3 -12 12h-1q-7 0 -7 -15q-10 -13 -28 -13q-5 0 -11 2q-16 21 -17 34v36l5 5h20l7 -5l1 -16q2 -3 15 -12h2q3 0 3 4v16q0 2 -2.5 8.5t-2.5 9.5 v7q13 20 31 19q5 0 10 -6.5t7 -6.5v-6q0 -7 -2 -10l-2 -4v-3h4q5 5 36 23h18q11 0 33.5 -11.5t31.5 -11.5q3 0 9 2.5t8 2.5h36q2 0 6.5 -2.5t6.5 -2.5h2q20 15 36 15q5 0 16 -3q5 -5 8 -12v-19zM883 1113q0 -20 -26 -50q-20 -21 -41 -46q-92 -149 -130 -211 q-80 -136 -102 -202v0q8 0 58 -23q5 -2 30 17t30 19q30 0 96 -16q21 -20 21 -28v-20q0 -20 -35.5 -43.5t-56.5 -23.5q-8 0 -20.5 17t-15.5 19h-8q-3 -2 -8 -12.5t-17 -10.5q-7 0 -34 11q-11 5 -30 2q-20 -3 -29 -3t-23 -4l-232 -535q-15 -31 -46 -31q-16 0 -56.5 33 t-40.5 48v14q7 5 31 28t24 27q0 10 -4 9q-3 0 -10 -1q-5 -2 -6 0q-3 2 -3 10q0 11 6 11h17q2 44 49 88.5t47 62.5q0 7 -3 10v28q18 16 46 56q-2 10 8 26h22l6 8q0 67 23 87q11 10 20 18v0q-7 7 -13 15q-7 5 -9 -12q-11 -11 -23 -11h-49q-7 3 -10 23h-5q-23 -31 -36 -31 q-36 0 -47 5l-2 1q-2 0 -1 -1l-25 -13h-61q-11 7 -11 16q0 7 13 16q8 8 18 15q2 16 20 49h41q20 20 36 20q36 0 42 -2q25 -34 25 -50q3 -7 8 -7q3 2 8 7v16v29q3 8 15 9q-7 0 13 -4q7 -10 23 -26q28 28 33 30q3 0 15 -4q7 -10 16 -18h2v51q8 5 25 13v40q5 7 16 6 q7 0 14 -5.5t9 -5.5q16 0 16 29q0 7 -5 22.5t-5 23.5q21 28 61 74v43q13 8 34.5 55t32.5 58q21 16 50 57q2 5 -5 9q-5 0 -6.5 -10t-8.5 -10q-20 0 -30 22l-9 22h-35q-3 -3 -56 9q-64 15 -72 14q2 0 -13 -14h-28q-7 2 -6 13q0 8 14 11q3 0 7.5 9t9.5 9q20 0 56.5 6.5 t56.5 6.5q10 0 21.5 -15.5t12.5 -15.5h7v43q3 3 35 11t39 8q20 0 20 -14v-58q0 -3 -5 -11q-5 -7 0 -7q3 0 13.5 20t10.5 25t-2.5 15.5t-2.5 16.5q0 21 22 22q113 0 113 -59zM359 587q-2 -2 -1 -3q1 10 1 3zM694 1085v6l-3 -6h3zM246 51v5h-5z" />
<glyph unicode="8" horiz-adv-x="1017" d="M720 1129l-6 -7l-10 -1q-7 -7 -8 -23q-5 -5 -12 -5q-10 0 -47 28q-5 0 -15 1l-16 19q0 2 -4 4v12q23 23 28 23q10 0 26.5 -13t16.5 -22t5 -14q5 2 15 10h21l6 -7v-5zM581 1129l-7 -7h-5q-7 7 -6 14q0 7 6 13h5q3 -2 7 -7v-13zM937 839q0 -130 -80 -176q-18 -10 -64 -34 q-28 -15 -56 -32v-1q53 -46 100 -94q25 -25 39.5 -94.5t22.5 -79.5v-44q-13 -15 -32.5 -64t-41 -72t-103.5 -70t-108 -47q-8 0 -26.5 -2.5t-27.5 -2.5q-43 0 -43 25q0 13 13 26h44q23 13 115 111.5t92 113.5q0 8 -12 41t-12 44l11 43q-28 41 -74 93q-92 23 -92 48q0 8 14 27 t14 24l-3 3q-7 0 -26 -36q-3 -7 -31 -20t-37 -13q-3 2 -16 15q-115 -30 -189 -95q-85 -79 -85 -187q0 -11 3 -33.5t3 -32.5q7 -7 30 -77q20 -62 38 -62q69 0 69 -56q0 -20 -15 -20q-2 0 -30.5 12.5t-41.5 12.5l-13 -2l-15 8q-8 21 -10 48q-8 5 -24.5 6t-24.5 4q-20 8 -20 75 q-20 16 -27 58t-12 49v57q-8 13 -17 14q-10 0 -10 -9q0 -15 6 -47.5t6 -48.5q-3 -5 -12 -5q-10 0 -14 18t-7 21v49q-7 8 -7 25q0 67 69 126q33 28 87 71q26 7 30 8q15 7 21 21q-5 3 -28 51q-20 41 -31 41l-10 -8q-10 -7 -16 -7q-11 0 -21 15q0 26 -30.5 76.5t-30.5 71.5v84 q11 11 21 11q8 0 18 -19.5t15 -19.5q10 28 10 42q0 2 -17.5 7t-22.5 13v41q2 7 14 7q28 0 29 1l-3 12q-3 11 -2 16q2 8 13 8q26 0 53 32q0 48 110 47q26 0 48 24t45 24q11 0 30.5 6.5t25.5 6.5q16 0 17 -23q0 -8 -60 -41q-66 -36 -73 -44l-94 -92q-11 -11 -22 -54t-14 -46 v-64q15 -16 26 -87q25 -28 41 -74h59l17 -13h44q30 -21 53 -22q3 0 5.5 9t5.5 11q33 21 57 21q71 0 112 36l89 96q5 5 8 59q16 11 16 29q36 44 36 51q0 8 -16 8q-5 0 -10.5 -11.5t-14.5 -11.5q-8 0 -11 7v28q10 8 10 15t-16.5 14.5t-16.5 12.5t13 22.5t13 20.5q0 13 -10 23 l-6 -2v-34q-5 -7 -10 -7q-7 5 -31 30q-2 8 -12.5 29.5t-10.5 27.5q0 8 12 27t21 19q11 0 14 -28l2 -14q23 0 23 -5q-2 -10 7 -15q43 0 62 -36q2 -7 13 -25q18 -46 57 -115q-2 -11 2 -28q5 -20 5 -27zM502 31q0 -3 -5 -6l-6 -4q-11 -7 -25 -13h-28q-3 0 -10 8q-11 21 -11 23 q0 8 24 10q5 5 18 8q3 0 10 3.5t10 3.5q5 0 20 -16q2 -2 3 -7v-10zM740 535v8l-6 7q-7 -5 -20 -15v-5l3 -3h8q8 2 10 3zM817 423q0 7 -5 17l-3 11q-10 8 -21 40q-3 5 -10 8q-11 0 -12 -13q0 -7 7.5 -21.5t7.5 -21.5t-3 -8v-8q8 -8 21 -32q-3 -7 -15 -31h5q15 0 23 33v10 q5 24 5 16z" />
<glyph unicode="9" horiz-adv-x="969" d="M889 779q-26 -26 -37 -86q-16 -82 -23 -99q-33 -80 -128 -233q-100 -159 -155 -213l-88 -89q-13 -18 -58 -84q-39 -59 -72 -59q-7 0 -38 20t-31 25q-15 -2 -33.5 8t-18.5 24q0 10 15.5 28t23.5 18q13 0 17 -19q5 -26 6 -28q3 2 8 8v41q0 23 96 110q43 38 124 113 q20 18 81 109q48 71 83 106v8q0 25 -59 25q-10 0 -28 -9t-28 -9q-23 -30 -55 -30q-28 0 -28 40q0 18 23 26q31 8 36 15h56q23 21 29 21q7 0 14.5 -5t8.5 -5q5 0 10 4v31l8 5q30 0 72 24q49 26 50 53v1l-13 14q0 25 27 62q0 16 4.5 24.5t4.5 14.5q0 10 -10 23t-10 15v36 q7 8 6 15q0 5 -12 19t-12 25q0 61 15 76q-13 21 -28 44q-46 0 -49 2q-11 7 -15 51q-2 3 -5 3t-11.5 -3.5t-13.5 -1.5q-10 3 -23 13l-6 18q-5 16 -9 18q-7 0 -22 -14t-22 -14q-53 0 -57 15v30q2 20 16 19q7 0 15 -8t13 -8q2 0 9 15.5t29 15.5q15 0 59 -7q7 -2 11.5 -9t8.5 -7 h23q-3 -7 27 -21h25q13 -8 23 -63q2 -5 64 -34q15 -46 51 -118q-2 -11 2 -28q5 -21 4 -28v-99zM494 1114q-15 -18 -62.5 -36t-62.5 -33q-143 -143 -143 -254v-72q16 -23 38 -75.5t23 -77.5l54 -44q16 13 22 13q10 0 11 -13l7 -7h10q62 0 62 -19v-12q0 -11 11 -18 q-15 -23 -23 -23h-59q-13 0 -16 25q0 3 -3 8v2q-41 -30 -54 -30h-10q-3 2 -15 15v44l-13 15q-2 2 -5 -3q0 -26 -12 -43l-8 -2q-15 0 -21.5 16.5t-11.5 31.5q-5 5 -31 13q-8 3 -43 48q-2 10 -11 27v64q-2 2 -16 9.5t-14 18.5q0 7 7.5 20t7.5 20q0 5 -7.5 14t-7.5 12 q0 74 40 79q8 7 18.5 36t10.5 43q7 8 23 21q0 34 15 46l13 1q38 36 45 37q3 0 11 -4q5 -2 8 4q0 20 8 24h37q10 7 34 35q2 15 39.5 39.5t54.5 24.5q28 0 39 -20v-20zM714 1129v5l-2 3h-3l-3 -3q-3 -5 -6 -10.5t-11 -14.5q0 -2 -1 -3v-3h21l3 3v16q2 5 2 7zM366 496v3l-3 3 h-2l-3 -3v-8q2 -3 3 -4h2q3 2 3 9z" />
<glyph unicode=":" horiz-adv-x="408" d="M323 653q0 -11 -24.5 -36t-36 -25t-35.5 -3t-37 -3h-3q-13 7 -20 20v6l12 13l-3 4h-2q-8 -7 -12 -7h-27l-12 8q-2 8 -25 31v33q0 16 50 17q7 3 11 23q2 5 25.5 24.5t27.5 19.5h42q10 0 39.5 -29t29.5 -38v-58zM328 135q0 -8 -5.5 -24t-5.5 -22q-7 -39 -61 -74 q-8 -5 -16 -8h-37q-16 16 -41 36h-3q-7 -7 -8 -23l-5 -5h-5q-8 0 -18 8q-3 13 -3 15q0 5 3 16q3 3 7 8v5q-8 3 -5 4q-2 0 -7.5 -2t-9.5 -2h-5q-3 2 -5 7v21q0 2 15 31q3 5 13 13h7q11 0 15 -4v-35q0 -2 5 -2q2 0 5 2v39q15 25 29 40l15 2q20 20 51 19q8 0 13 -1.5t10 -6.5 q20 -11 44 -30q8 -9 8 -27z" />
<glyph unicode=";" horiz-adv-x="411" d="M331 635q0 -5 -37 -56q-20 -10 -27 -10q-2 0 -6.5 2.5t-6.5 2.5h-24q-7 0 -12 -5h-36l-5 4q-5 3 -18 16q-18 -11 -33 -11l-28 28v36q2 3 5 5h7q5 -7 13 -20q5 -2 16 -3q11 2 12 26q0 3 -2.5 9t-2.5 7v23q0 3 11.5 16.5t13.5 19.5q53 31 75 32q21 0 53 -24t32 -44v-54z M302 125q-2 -8 -8 -36q-7 -10 -20 -35q-49 -128 -115 -272q-25 -25 -31 -25h-2q-11 7 -11 13v54q3 7 21 25v49l8 12q-2 11 2.5 30t4.5 26v39h-30l-6 5q-2 3 -9.5 15.5t-7.5 18.5q0 15 17 38v3l-8 12v1q0 11 11.5 29.5t22.5 18.5t20 -10l8 -10q2 0 2.5 2t2.5 2l2 11 q33 34 36 36h46q7 0 44 -36v-16z" />
<glyph unicode="&#x3c;" horiz-adv-x="580" d="M501 417q0 -38 -2 -46q-3 -18 -26 -35q-5 0 -15 -4t-15 -4q-8 0 -25 15h-36l-6 8q0 16 -13 30v28l10 14q0 5 -11 16.5t-16 11.5q-10 0 -19 -14l-9 -14h-28l-6 5l-2 17l-28 28h-5q-13 0 -27 -4q-2 3 -28 28q-2 7 -2 18v41q-5 0 -7.5 -11.5t-5.5 -14.5h-2q-25 0 -33 12v50 q-5 5 -23 20q-23 3 -23 31q0 21 151 164l151 143l40 13q30 15 26 15h7q8 -10 18 -16q2 -13 1 -20l-1 -20l-127 -106q-108 -90 -110 -105q-20 -21 -19 -43q0 -8 23 -59t27 -53.5t42 -2.5q16 0 54 -38q44 -44 52 -49q16 -2 38 -7q30 -26 30 -42zM320 489v12q-2 2 -2 3h-6 q-2 -3 -3 -8q0 -2 1.5 -5.5t1.5 -4.5h6q0 1 2 3zM258 528v2h-4v-5q2 2 2 3h2z" />
<glyph unicode="=" horiz-adv-x="861" d="M757 707l-37 -37h-98q-5 -7 -13 -7h-3q-7 5 -12 11h-3q-41 0 -46 17l-5 3v-1q-5 -8 -18 -20q-3 -2 -12 -2q-10 0 -21 7.5t-18 7.5q-5 0 -16.5 -4t-17.5 -3q-3 0 -15.5 7t-19.5 7q2 -2 -13 -14q-13 0 -37.5 -9t-36.5 -9q-72 0 -89 2l-13 13l-42 -13h-53q-20 20 -20 25 q0 3 5 9h27l6 7v48q2 3 22 23h1q10 0 17.5 -15l8.5 -17q18 10 58 32q49 0 67 -27q10 3 23 0q18 -5 21 -5h9q10 8 21 15l13 -9t25 -9q13 7 16 10q39 -10 72 -10l7 -5v-1q0 -2 -1.5 -7t-1.5 -7l16 -16l7 7l1 32l8 10q5 5 14 5q10 0 32.5 -9t36.5 -9q8 -5 8 -21l3 -4q5 0 7 4 v24q11 16 42 17l20 15h20q28 -18 28 -32v-36zM781 468q0 -21 -37.5 -44.5t-60.5 -23.5h-7q-10 10 -49.5 21t-57.5 11q-16 13 -13 13h-3q-21 -13 -25 -13q-13 0 -19 11l-7 13l-11 -13q-10 -13 -28 -13q-8 0 -24.5 3.5t-24.5 3.5q-16 -15 -25 -15q8 0 -12 3q-8 11 -16 20 q-5 -2 -19.5 -12t-18.5 -10q-8 0 -23.5 -3t-22.5 -3q-10 0 -17 14l-7 14h-2q-28 -26 -33 -28h-75q-3 0 -12.5 8t-9.5 12v52l5 7l10 1l13 -1l17 -17q7 -25 10 -26q2 0 2.5 1.5t2.5 1.5v40q15 13 29 13h13l12 -8h6q26 18 46 18q23 0 74 -51q5 -2 5 3q0 3 -5 16q-2 5 13 22 l15 1q34 0 46 -21v-25q2 0 2.5 -1.5t2.5 -1.5q10 0 10 18q15 21 51 22q5 0 14.5 -2t14.5 -2q8 7 15 13h33l28 30q28 0 55.5 -14t26.5 -14h1q21 13 26 13q31 0 42 -2q23 -23 24 -27v-28zM597 693v3q-2 3 -3 3h-2q-3 -2 -3 -3v-8l3 -4h2q3 4 3 9z" />
<glyph unicode="&#x3e;" horiz-adv-x="580" d="M501 653q0 -16 -22 -44q-38 -11 -164 -153q-120 -133 -164 -133q-36 0 -36 38q0 43 44 48q16 25 53 62q28 20 92 79q74 67 73 82q-2 2 -9 5q-15 7 -41 33q-15 26 -40 59q-36 0 -36 47h-39q-13 25 -36 56h-46l-7 5v8q0 51 2 40q-2 13 -27 36v13l5 6q7 2 33 13q20 8 36 9 q18 0 46 -33t48 -36q59 -59 128 -105v-40l6 -6q31 -2 66 -30t35 -59zM359 724q-2 0 -13 16h-6q5 -7 14 -20h2q3 1 3 4zM377 681q-3 5 -11 10h-5v-5q0 -2 2 -3l5 -2h9zM391 660v10q-2 2 -4 6h-3q-2 2 -3 2v-7q0 -2 1 -3v-3l2 -4q2 1 7 -1z" />
<glyph unicode="?" horiz-adv-x="1001" d="M830 1114q0 -16 -21 -41.5t-36 -25.5q-8 0 -8 11q0 8 3 15l3 7l-6 6q-11 -3 -31 2q-8 13 -33 28q-11 15 -36 39q-18 0 -38.5 10t-19.5 10q-8 0 -26 3.5t-28 3.5l-15 -2q-8 11 -19 11q-5 -3 -18 -19q-3 -3 -20 -13q-71 -30 -197 -94q-18 -11 -82 -74q-56 -54 -74 -54 l-13 3q-16 15 -17 30q0 11 4 15q10 8 10 9h18q5 20 5 23q0 7 -2 21t-2 20q3 5 12 14h15q5 0 14.5 -2.5t14.5 -2.5q5 3 28 37q20 30 36 30q23 0 35 2l13 14q23 3 68 24t70 24q28 28 60 28q7 0 23 -2t28 0q16 2 21 10h15q8 -11 28 -34l7 3v24q3 7 11 7q7 0 20 -10t20 -10 q7 2 21 5q11 3 21 -5v-11q0 -53 12 -53v0v25l8 5h21l7 -5q0 -7 8 -18h39q23 -25 23 -43zM921 868q0 -144 -209 -239q-13 -7 -234 -96q-43 -38 -43 -93q0 -11 10.5 -31t12.5 -28q46 -41 46 -72q0 -23 -40 -66q-33 -8 -47 -8q-54 0 -54 31q0 8 3 26t3 26l-3 4q-41 0 -41 59 q0 10 14 15l14 6v39q-11 8 -12 17q0 2 5 28q5 10 15 15q-7 8 -7 16q34 36 37 39q23 20 46 22q10 2 29 8q7 2 24 15.5t24 13.5q3 0 10.5 -3t12.5 -3l55 54h33l36 44q21 7 66.5 58.5t48.5 51.5q25 34 25 61q0 3 -3 15q-2 11 0 16q3 7 14 7q-3 0 17 -5q11 -3 11 6q0 7 -25.5 20 t-25.5 41q0 11 3.5 36t3.5 36q7 2 20 8q2 2 13 19.5t14 17.5q38 0 55 -55l23 -73v-99zM542 85l-7 -16q-5 -16 -15 -46q-23 -44 -62 -44q-23 0 -33 23q-2 5 -7 9v2q-13 -13 -31 -13q-34 0 -60 26l-2 5v36q0 13 21 12q3 2 7 6l1 13l15 15q2 23 31 30q10 3 25 11q2 2 5 4h84 q28 -23 28 -28v-45zM757 1124v15l-4 3h-5q-2 -2 -6 -5v-3q0 -3 1 -3v-4l2 -3q2 0 3 -2h5q2 0 4 2zM779 1099v7l-3 2h-3q-3 -3 -3 -7q0 -2 1.5 -2.5t1.5 -2.5h3q0 1 3 3zM420 530h-2q0 2 -4 7h-5q-3 2 -5 1v-3q2 -3 1 -5l5 -5h7l1 2q2 1 2 3z" />
<glyph unicode="@" horiz-adv-x="1626" d="M1546 709q0 -108 -138.5 -258.5t-245.5 -150.5q-3 0 -10 3.5t-10 3.5q-26 -23 -34 -23t-10 6v37q21 23 34 23q7 0 21.5 -3.5t21.5 -3.5q2 10 18 28q84 56 103 72q61 51 73 102q3 15 52 64v6q0 8 -11.5 15.5t-11.5 14.5q0 11 7 20l1 36q20 13 20 49q0 10 -10 33.5 t-10 35.5v13q20 20 17 20q5 0 10 -5l6 -5q5 0 5 11q0 8 -16 20v39l-7 7h-24q-7 3 -18.5 25.5t-11.5 30.5q2 2 5 16q3 13 -3 13q-3 0 -12.5 -3t-14.5 -3q-10 2 -16.5 18t-11.5 19v28q11 13 12 18v4l-20 19v20l7 7h36q3 -2 41 -40q13 -20 46 -57l3 -2q39 0 76 -75 q31 -66 31 -112v-136zM1098 796q-2 -2 -19 -91.5t-27 -98.5q0 -15 -6.5 -46.5t-6.5 -45.5v-146q0 -8 22 -26.5t22 -24.5q0 -38 -29 -38q-7 0 -16 4t-12 4h-2q-18 -26 -39 -26t-22 33l-5 5q-13 15 -34 32l-5 7v36q2 3 5 5h8q3 2 7 7v9q0 10 -2 27q-2 16 0 23q5 13 18 21v5 q-7 0 -15 -2q-18 -26 -85 -52q-61 -23 -98 -23q-11 -10 -20 -10q-11 0 -12 13q0 10 7 13q18 0 28 12q16 25 67 44q26 10 87 92q75 102 80 107v5q0 5 -3 17t-3 19q3 5 11 16v2q0 15 -5 39l-8 43q-10 11 -21 19v40l-7 5l-6 -5q-2 -23 -20 -23h-8q-38 18 -38 49l2 10l6 6h36 q10 13 20 14q7 0 29 -21.5t25 -21.5q8 10 12 20q0 13 -3 19v7q8 10 14 20l7 1q34 0 39 -1q11 -10 25 -20v-128zM1277 1088q-2 -5 -7 -11h-28l-10 19q-7 15 -19 15q-7 0 -19 -3.5t-17 -3.5q-15 0 -35 17q-3 2 -7 12.5t-8 10.5q-13 0 -32.5 7.5t-26.5 7.5q-8 0 -24.5 -15 t-24.5 -15l-3 2q-15 13 -28 13q-3 0 -12 -3.5t-13 -1.5q-5 2 -10 2q-26 0 -114.5 -48t-111.5 -48q-177 0 -473 -379q-3 -3 -8 -28q-15 -46 -39 -133l-5 -8q0 -64 33.5 -156.5t33.5 -97.5q0 3 -5 -18q-2 -10 45 -31q31 -15 60 -28q87 -46 92 -58v-1q-3 -15 -44 -71h-28 q-5 7 -43.5 21.5t-38.5 34.5q0 10 14.5 23t14.5 21q0 11 -5 12l-21 -22q-20 -21 -28 -21l-10 7v23l-5 1q-5 0 -15.5 -3t-16.5 -3q-15 0 -17 14h-21q-7 5 -15 36.5t-18 31.5q-31 0 -51 70q-15 54 -15 104q0 16 10 49t10 44l-20 20v36q8 3 22 15v47q2 13 21 40h23l2 29 q3 59 106.5 189t159.5 130l19 -4q11 -3 17 4v24q15 11 24 12q31 0 109 42.5t111 47.5q43 36 56 36q5 0 12.5 -3t12.5 -3q7 8 23 21h36q33 38 106 38q18 0 43.5 8t38.5 8q15 0 48.5 -12.5t52.5 -12.5q2 0 21 4q13 2 21 0q7 -2 7 -15t6 -13q53 0 61 -7q20 -11 20 -72zM875 907 q0 -18 -23 -27h-36q-16 -15 -32 -15q-38 -25 -123 -66q-34 -11 -81 -76t-47 -101v-97q3 -8 9 -23l50 -61q7 -16 15 -34h2q8 11 15 11q77 0 77 -36v-5l-5 -6q-23 0 -31 6h-33q-8 -7 -17 -6l-6 6q0 20 -35 20q-8 0 -22.5 -1.5t-23.5 -1.5q-36 30 -75 67q0 46 25 77q5 7 -25 8 v84q5 5 34 54q21 34 38 38q28 23 28 79q3 5 7 6h32q5 3 9 17q26 11 44 36q34 15 107 33q23 28 41 28h59q2 0 8 -2.5t8 -2.5l7 -7v-2zM975 120q0 -15 -38 -33t-56 -18l-15 2q-16 -18 -50 -20q-10 0 -33 -15q-34 -5 -30 -5q-5 0 -13 2q-15 11 -15 41q0 18 28 18q7 0 23 -12h3 q31 28 40 28q3 0 10.5 -2.5t12.5 -2.5q13 0 21 7l17 16q21 7 52 22h36l7 -5v-23zM709 38q0 -25 -20 -25q-7 0 -13 10h-11q-7 2 -10 2h-2q-3 -3 -34 -18q-16 -7 -50 -7h-9q-11 8 -12 23v18q-5 3 -10 3h-5q-5 -10 -16 -28q-2 0 -3.5 -1.5t-3.5 -1.5q-3 0 -14 3l-10 -1l-2 -2v2 q-11 2 -10 1q-5 0 -16 -3q-5 0 -10 7v44q0 7 41 44q23 2 15 2q39 0 56 -16q8 -8 11 -9q33 -5 41 -5h33q2 0 6 2t5 2q5 0 13.5 -2.5t11.5 -2.5q28 -28 28 -41zM1449 935v2q0 2 -1.5 3.5t-1.5 3.5l-13 13h-5q2 -2 1 -4q5 -7 17 -18h3zM1457 812v9l-11 11h-4q0 -2 -1 -3 q-2 -7 -2 -10q0 -11 10 -15v-2h2q0 2 3 4.5t3 5.5zM1008 837v8l-2 3h-3q-3 -2 -4 -3v-8l4 -3h3q0 1 2 3zM1022 768q-3 7 -11 18q-7 0 -7 -8v-2h2q0 -5 10 -8q0 -2 1 -2h2q1 0 3 2zM550 435q0 2 -2 3v3q-5 7 -15 17h-1q-2 0 -4 -3q8 -16 17 -25h3q2 2 2 5zM397 87q-2 2 -3 2 h-2q-2 0 -3 -2v0q0 -3 3 -3h2q3 0 3 3zM259 194q-10 0 -13 -4v-8q2 -5 7 -10h1l4 4v8q1 7 1 10zM230 195v8l-8 12h-4q4 -13 12 -20zM281 154q-2 0 -4 2h-3q-2 -2 -3 -2l3 -3h3z" />
<glyph unicode="A" horiz-adv-x="1452" d="M1372 131q0 -102 -99 -93l-60 5q-5 0 -13 49q-8 43 -9 51q0 11 2.5 33.5t2.5 33.5q-2 18 -11 25v39q-25 18 -49 71q-26 61 -41 77q-31 36 -89 36q-7 0 -16 -10t-14 -10q-21 0 -26 36q-2 20 -5 20q-2 0 -9 -22t-12 -26h-107q-7 8 -18 9q-8 0 -26 -8.5t-25 -8.5 q-13 0 -24 12l-10 11q-16 0 -46.5 -15.5t-47.5 -15.5q-8 0 -23 2q-13 2 -21 0q-11 -2 -23 -12h-75q-26 -10 -115 -244q-85 -225 -133 -225h-8l-20 19h-3q-5 0 -15 -3q-10 -2 -17 0t-12.5 21t-6.5 19q-2 0 -22 -4q-11 -2 -28 0v56q23 8 43.5 33.5t20.5 48.5q36 48 130 141v43 q46 39 61 61q20 28 28 78q5 31 26 32l10 -2q2 3 1 21q2 30 38 58v29q3 3 18 7.5t15 7.5q0 51 156 289l198 302h46q30 -51 73 -169q30 -82 115 -271q2 -23 39 -84q41 -67 47 -87q34 -112 156 -354q53 -105 53 -112zM1183 386v8q0 5 -6 5q0 2 -4 1h-3q0 -15 7 -19q3 2 6 5z M1044 569v9q-10 5 -15 14v10q7 8 15 15v16q-2 3 -7 4q-5 0 -13 -7h-11l-5 7v21l5 7h6l10 -7q7 3 6 13v7l-6 6l-25 2q-11 3 -28 15v41l5 6h9q5 0 13 -1.5t13 -1.5q0 18 -10 31t-10 20l-5 5h-5q-18 0 -23 -13q7 -7 13 -15v-5q0 -11 -8 -11q-13 0 -31 13v9q0 10 7.5 32.5 t7.5 33.5v3q-8 7 -10 7q-5 0 -10 -7q5 -11 5 -16l-5 -7h-3q-8 0 -19 20t-22 20l-7 6q-3 33 -65 100h-12q-20 -18 -46 -64q-30 -51 -43 -65q-5 -7 -11 -25q-26 -23 -67 -108q-48 -98 -63 -120v-36l12 -11q13 0 30 -7.5t21 -7.5q10 0 19 11h50q23 0 23 -29v-17l-2 -6h2 q11 10 13 34q15 13 28 13q75 0 111 23h28l36 -28q21 11 28 12q16 0 20 -26q2 0 2.5 -2t3.5 -2t5 4q12 17 40 55zM1214 302q0 7 -11 15h-5q-2 2 -3 1q-3 -2 -7 -5v-8q3 -7 8 -15q2 0 3 -1.5t4 -1.5q2 0 2 2q8 0 8 8q1 2 1 5zM1244 199v3l-3 3h-2l-3 -3v-3l3 -4h2z" />
<glyph unicode="B" horiz-adv-x="1028" d="M967 392q0 -143 -233 -282q-212 -125 -368 -125q-71 0 -76 15v3q-5 15 -16 15q-5 0 -8 -8l-3 -3q-5 -13 -23 -14q-7 0 -7 10t-3.5 14t-7.5 8h-56q-5 5 -15 16q-3 5 -3 26l-15 13v28q34 15 34 33v7l-34 28v9q0 10 9 27.5t9 27.5q0 5 -9 12t-9 15q0 15 28 40l5 3q2 2 1 5 q0 10 -19 20l-7 3q-8 3 -8 8q0 15 38 43v43q10 8 10 24l-32 51q0 15 -3 43t-3 42v176q0 7 27 18.5t27 32.5v8l-36 30l-10 23v31l5 1l8 5q11 7 12 13q0 21 -15 32q-7 3 -18 11v15q10 2 24 11q0 8 -2.5 22t-2.5 23q2 5 5 10q5 15 -9 14q13 0 -28 -8q-18 -3 -18 5q0 3 3 5h33 q10 5 10 13v5q0 7 -4 15q-5 13 2 21h16l36 -5l18 30h14q20 0 31 -8l5 -2q8 -5 21 -5q11 0 21 5l7 3q20 0 57.5 3.5t57.5 3.5q7 0 18 -8l3 -2q10 -5 17 -5q3 0 13 7.5t19 7.5q28 0 28 -27q0 -21 -15 -36h-16q-85 0 -89 13l-1 4q-3 10 -10 10q-33 0 -84.5 -42t-55.5 -73 q-8 -77 -8 -91q0 -30 3.5 -88.5t3.5 -88.5q5 -5 14 -42t9 -48l6 -5q7 0 21 13t19 13q44 0 57 -6q7 -3 45 26q21 7 62 28l54 41q25 33 84 85l8 5q0 10 -6 31.5t-4 32.5q25 28 25 61q-3 7 -15 15q-71 53 -71 83q0 15 10 22q16 10 20 13v29q2 5 11 5h7q28 0 49 -21h49 q28 -28 56 -57q38 -41 38 -64v-96q-7 -7 -10 -11l-20 -28q-28 -39 -39 -48q-123 -89 -126 -114l11 -7q48 0 82 -26q8 -5 17 -5q53 0 73 -18q3 -3 30 -23q3 -5 15 -28q2 -5 6 -5q3 0 10.5 1t11.5 -1q5 0 5 -10q0 2 -4 -20q-3 -18 10 -18q5 0 12 12l1 3q0 2 2 5q31 0 51 -67 q15 -53 15 -94zM154 437h-1l-5 -2l-4 2h-1v13h1l4 1h1l4 -1h1v-13zM670 1014v23q0 5 -5 7l-4 1q0 2 -1 2q-7 2 -17 10h-10q0 -23 7 -33q3 -3 16 -11h10zM894 461v13l-8 7l-3 -3q-3 0 -7 -4v-13q0 -7 7 -6l8 -2l2 5q1 1 1 3zM863 491q0 7 -8 6q-7 2 -7 -6q0 -5 5 -5h4 q6 2 6 5zM837 391q0 7 -14 19.5t-14 21.5q0 5 4 16t4 18q-30 26 -29 54q2 7 10 23q2 5 1 13l-10 5q-11 0 -23 -8l-9 -7q-5 -3 -9 -4q-11 -3 -19 16q-7 15 -7 28q-7 5 -38 5h-36q-13 0 -57.5 14t-67.5 14q-79 -18 -101 -15q-25 -15 -69 -17h-77l-9 -8q-5 -89 -8 -357 q0 -13 3.5 -40.5t3.5 -40.5t74 -52q10 -5 11 -9q0 -8 -21 -24v-3q0 -7 10 -7h3q11 -2 33 16q20 7 59 27h62q11 8 23 6l12 -1q18 11 26 11h39q11 11 35 31l67 58q98 84 99 93q0 5 -4 18q-10 39 7 53q36 28 36 33zM228 591v5l-20 18h-13q0 -10 -5 -8v-7l-1 -3l-4 -2l-6 -5 q-13 -8 -13 -15v-16q0 -5 3 -7q0 -7 7 -6q2 -2 5 -3l1 1q20 0 23 12.5t23 35.5z" />
<glyph unicode="C" horiz-adv-x="1148" d="M1052 1081q0 -31 -29 -63t-60 -32q-26 0 -47.5 31.5t-24.5 31.5q-23 -8 -33 -9q-25 0 -24 33q0 5 19 25l2 8q0 26 -36 26q-7 0 -7 -24q-8 -21 -33 -22q-15 0 -19 9h-43q-8 8 -26 8q-71 0 -199 -115q-102 -92 -164 -177q-94 -128 -93 -222v-115q0 -56 56.5 -153.5 t56.5 -82.5q-2 -8 -7 -23q-5 -16 0 -16q5 2 20 16h10q13 0 16.5 -14t4.5 -14q10 0 30.5 -11.5t28.5 -11.5q18 0 22 -2v-27l-7 -7q-18 0 -31 -30.5t-30 -30.5q-15 0 -21 12v28l-5 1q-56 0 -43 -1q-25 3 -39 18q0 23 -10 47q-13 31 -33 31q-5 0 -5 -4l4 -14q2 -8 0 -11 q-3 -7 -15 -7q-15 0 -39 28q0 5 -4.5 15t-4.5 15q0 13 15 19.5t17 9.5v30l-5 6l-2 4q-5 0 -16.5 -24.5t-13.5 -24.5q-3 2 -8 6q0 34 -31 76q0 8 -39 85v38q5 5 5 13q0 10 -7 27t-7 24q0 43 31.5 98.5t31.5 52.5q-7 3 -15 9q0 54 26 96q8 13 27 41l14 14q2 21 22 40 q53 48 156 141q154 138 229 138q23 30 64 29q15 0 45.5 11.5t40.5 11.5h55q18 -3 46 -21h45l33 -21q31 -2 64 -22q39 -23 39 -51zM1068 16q0 -3 -5 -9.5t-5 -9.5q-34 -25 -41 -25t-19.5 6t-19.5 6q5 0 -16 -4q-10 -2 -15 7h-46q-18 13 -28 13q-33 0 -28 -2q-13 3 -13 25 q0 2 -5 2l-10 -12q-10 -10 -24 -10q-8 0 -15 6l-8 6q-21 0 -25 1q-11 8 -25 17h-1q-36 0 -51 -13h-59l-8 8h-40q-11 5 -28 11q-15 0 -32 2q-3 2 -22 26h-1q-8 -8 -14 -8l-9 2l-9 11v7q2 5 12 28q13 5 34 18q7 21 31 21q8 0 29.5 -11.5t34.5 -11.5q48 0 58 -3q16 -18 34 -36 q3 0 11.5 14.5t10.5 16.5h3q5 0 21 -15q13 0 39.5 -4t39.5 -4q5 0 15 6q7 0 25.5 -7t26.5 -7q20 0 30 14h36q16 16 21 17h2q8 -7 18 -7h7q11 11 31 12q20 0 36 -15.5t16 -35.5v-53zM907 1126q0 3 -3 3v0q-3 0 -3 -3q0 -2 2 -2h3q1 0 1 2zM812 64v3h-3v-3h3zM171 681v2h-4v-2 h4zM779 33v11q-7 7 -14 17q-2 3 -4 3h-4q0 -10 1 -13l3 -8q3 -5 9 -18h3q8 8 6 8zM670 56v3l-5 5h-4q-7 -5 -7.5 -6t-3.5 -2v-5q3 -3 6 -3h4l6 1q4 2 4 7zM542 92v3q-3 3 -7 3q-2 0 -5 -1l-5 -3q-2 0 -5 -5h-1v-2h1q3 -2 10 -8q3 2 8 8q4 0 4 5zM195 331q0 2 -1 4h-4l-3 -4 q3 0 3 -3h4q-1 1 1 3zM382 136v7l-5 5h-4q-3 0 -4 -4v-1q3 -7 8 -8l2 -2z" />
<glyph unicode="D" horiz-adv-x="1101" d="M1021 622q0 -102 -191 -286q-141 -135 -280 -228q-192 -128 -292 -128h-36l-15 15q-10 0 -17 -15l-13 -8q-10 -3 -24.5 16.5t-14.5 31.5l3 11q3 8 -2 8l-6 -8q-7 -7 -12 -3q-11 7 -23 20q0 33 2 37t21 27l2 16q0 7 -12.5 7.5t-12.5 7.5q0 8 17 8q5 0 14.5 -4t14.5 -4 q8 0 9 16q0 33 -17 43q-11 5 -21 10q-2 5 4 23.5t6 25.5q0 11 -6 34t-6 35q0 18 11 42.5t11 27.5q0 5 -10 12.5t-10 12.5q0 18 -8 39l-9 22q0 13 25 13q2 0 9 -3.5t11 -1.5v25q-28 31 -28 36q0 7 9 19t9 18q0 2 -13 18.5t-13 26.5q0 8 6 16v46q3 18 23 35v32q16 13 17 46 q0 16 -5 17q-3 0 -7.5 -10t-9.5 -10q-8 0 -8 20q0 28 15 28q31 0 31 29l-2 3q10 0 -21 -3q-15 -2 -18 7q0 16 -6.5 46.5t-6.5 46.5q0 5 6 8h28q2 -2 9.5 -15.5t15.5 -13.5q5 0 5 3q0 11 -12.5 29.5t-12.5 26.5q0 3 6 18.5t6 22.5q0 8 -7 8q0 -2 -11 -8v-25l-9 -6h-18 q-7 3 -6 15q0 7 11.5 33.5t16.5 30.5h19q2 -2 6 -15t9 -13t22.5 18t36.5 18q11 0 30.5 -11.5t30.5 -11.5q5 0 16 8q30 5 92 7q11 -10 12 -51q0 -36 -20 -36q-85 0 -130 -89q-33 -69 -32 -164q0 -89 6.5 -265.5t6.5 -264.5q3 -7 21 -71q13 -51 48 -51q5 2 26 7q15 3 26 -7h49 l4 -3q15 -10 31 -10q18 0 22 19t14 22l39 13l66 64q49 13 277 273q2 31 4 36q7 15 29 11l5 5q0 18 3.5 54.5t3.5 54.5q0 7 -3.5 21.5t-3.5 20.5q-13 16 -13 27q0 18 13 41l15 24q0 7 -5 7q-2 0 -15 -7.5t-19 -7.5q-13 0 -14 23v41q-39 56 -129 156q-8 7 -28 25l-2 1 q-11 46 -23 46l-5 -5q0 -3 6 -11t6 -12q0 -8 -31 -8q-10 0 -17.5 21.5t-10.5 21.5q-5 0 -12.5 -12.5t-10.5 -15.5q-5 0 -15 3t-15 3q-13 0 -37.5 -7t-36 -7t-31.5 -7.5t-29 -7.5q-16 0 -17 15q0 44 2 50q7 28 36.5 25t53.5 2q7 8 13 8q16 0 47.5 -10t39.5 -10t22 10t23 10 h54l41 -41q16 0 51.5 -19t35.5 -32q0 -2 -15 -13.5t-15 -25.5q0 -31 15 -38h18l2 5l-5 8q0 49 -2 28q2 20 15 20q20 0 26 -12v-36q25 -26 76 -80q54 -61 54 -148v-128zM776 1029q0 2 -1 2v0q-2 0 -2 -2v0q0 -2 2 -2v0q1 0 1 2zM880 922v4q-2 0 -5.5 4t-6.5 4q-3 -2 -6 -5v-7 q2 -2 3 -5h8q4 2 7 5zM949 725h-5v-6zM143 59v13q-2 3 -4 3h-1q-3 -2 -3 -3v-8q2 -8 3 -8h1q4 0 4 3z" />
<glyph unicode="E" horiz-adv-x="907" d="M696 647q0 -5 -5 -21t-5 -22l-28 -28q-7 0 -20.5 -4t-20.5 -4t-30.5 7.5t-49.5 7.5q-3 2 -7 6v7q0 13 15 33l-7 6h-5q-2 -13 -16 -34q-8 -3 -29.5 -18t-34.5 -15q-8 0 -27 21t-19 30q2 2 11 16q15 3 40 20h84q16 16 31 16q36 -2 39 0q2 0 12.5 6.5t12.5 6.5h36 q16 -11 23 -23v-14zM827 1077q0 -23 -29 -53h-28q-16 8 -38 20q-34 36 -35 37l-4 -1q0 -16 -15 -17q-11 0 -35 14t-36 14q-2 0 -12.5 -7t-20.5 -4q-3 2 -10.5 16.5t-10.5 14.5q-7 0 -13.5 -19.5t-16.5 -19.5q-49 0 -137 -30q-95 -31 -123 -62q-2 -21 -16 -67.5t-14 -72.5 q0 -97 8 -131q18 -77 84 -77q15 -20 16 -20l45 3q15 -20 14 -28q0 -5 -19.5 -17t-26.5 -12q-67 0 -96 -18q-39 -23 -40 -87v-141q0 -8 2.5 -24t2.5 -24l8 -11v-43l9 -10v-67q0 -13 10.5 -33t12 -27t8.5 -7q3 0 11 7t15 7h57l23 -19q0 -59 -14 -59q-21 0 -61 3q-49 5 -48 3 h-49q-8 -7 -18 -6q-10 0 -33 8t-36 8q-15 10 -15 56q8 10 9 20q0 8 -9 16q5 31 7 95q-11 13 -12 31q0 15 12.5 23t12.5 12v1q-20 18 -20 30q0 7 7.5 17.5t7.5 16.5q0 7 -6 14q0 26 14.5 36.5t14.5 30.5q0 8 -5 8l-11 -7q-10 -7 -17 -6q-10 0 -10 16q0 8 7.5 24t7.5 24l-1 16 q8 7 9 7q30 0 35 2q13 7 13 42q0 8 -8 8q-5 0 -10 -18.5t-13 -18.5q-18 0 -18 34q0 21 18 25q-3 15 2.5 41t5.5 36q0 33 -13 52.5t-13 21.5q0 10 10 22l9 12q0 3 -13.5 10t-13.5 15v57q0 8 18 19t19 12v36q-38 51 -37 79q0 5 13.5 16.5t13.5 21.5q0 5 -8 8t-10 7q0 39 14 51 q21 15 44 29h54l10 -6h43q15 -18 32 -18q23 0 79 23.5t76 23.5h95q15 0 43.5 -3t43.5 -3q5 0 11 6h46l10 -18q59 0 67 -2q38 -7 38 -45zM817 115l-3 -15q-2 -15 -10 -39q-7 -5 -16 -18q-8 -3 -27 -10q-5 -7 -11 -7h-28q-13 0 -23 15q0 25 -5 25h-1l-4 -4q-2 -21 -8 -21h-28 l-5 5v23l28 28q0 5 2 11l6 5q13 2 48 23q16 0 44 8h22q19 -19 19 -29zM648 94l-15 -40q-7 -7 -21 -20h-20l-6 7v33q0 7 10 23q3 5 13 13q2 3 5 3h19l15 -15v-4zM569 54q0 -3 -8 -11.5t-11 -8.5h-25q-2 0 -7.5 -4t-7.5 -4h-46l-9 -8q-13 -3 -30 -8h-28l-6 5v28q16 28 23 31 q5 -2 31 15h5q10 -8 16 -12h20q7 0 11 3q11 0 33 2q7 15 21 15q18 0 18 -15v-28zM205 1055v17l-6 6h-4q-11 -11 -11 -15q3 -3 10 -11h8q0 1 3 3z" />
<glyph unicode="F" horiz-adv-x="794" d="M819 1077q0 -44 -49 -45q-13 0 -36 15h-41q-3 2 -9 17.5t-14 15.5h-5v-18l-7 -7h-21l-15 17h-25q-3 3 -19 11l-105 -28q-7 0 -22.5 7.5t-18.5 7.5h-2q-48 -21 -94 -43q-59 -30 -75 -62q-20 -41 -20 -133v-95q7 -10 13 -46q36 -36 61 -36q8 0 24.5 -11.5t24.5 -11.5l18 23 q3 -2 20 -12q2 -2 12.5 5t17.5 7q11 0 26 -15h3l17 15q18 16 32 16q21 0 65 6.5t65 6.5l16 -1l12 -12l2 -6q0 -84 -137 -84q-15 0 -43.5 1.5t-43.5 1.5q-8 -8 -19 -8q-162 0 -171 -46q-5 -30 -25 -46v-51l-8 -10v-65l8 -10q0 -11 3.5 -35t3.5 -36q0 -171 -3 -92 q3 -61 26 -87q0 -53 -3 -64q-10 -33 -46 -32q-30 0 -40.5 31t-15.5 31t-8.5 -15t-12.5 -15q-36 0 -37 35q0 7 7 20t8 18q-15 30 -15 36q0 18 20 38v49q0 18 8.5 40t8.5 27q0 11 -9 15q-13 5 -14 8v20q3 5 13 5t14 -8.5t5 -8.5l5 2v23l-19 20l-2 8q0 13 8 23v52q7 8 7 13 q0 10 -10 10q-7 0 -7 -8q0 -2 2 -7t0 -8t-7 -3q-7 0 -8 3q-2 2 0 7t2 8q0 8 -3 10v36q3 7 8 6q2 0 8.5 -1.5t9.5 -1.5q3 2 3 10q0 -16 -15 57q-28 23 -28 33q0 20 12 31q0 18 -6 52.5t-6 53.5l5 6h20q5 -2 7.5 -11t5.5 -9q7 0 5 25q-3 46 -3 31q0 16 4 49t4 50q0 36 -34 70 v28l23 23h4q15 0 15 -2q0 10 -24 35v31q28 28 32 30q15 0 15 -17l-5 -16q-3 -13 5 -13l20 29q21 30 38 30h67q8 -11 20 -12q28 28 41 28q15 0 34 -23h3q3 2 14 15l80 2q8 7 21 6q13 0 22 -6l28 -2q5 -7 4 -8q0 -7 -7 -12.5t-7 -7.5q0 -15 16 -15q5 0 16.5 25.5t24.5 25.5 q21 0 21 -16q0 -5 -4 -22q-2 -5 -2 -9q0 -7 3 -12h31q0 8 -3 28t-2 31q2 16 14 17q10 0 26 -11l15 -12q53 0 68 -5q40 -11 40 -54zM154 986v2h-3v-2h3zM159 676l-5 7q0 -2 -3 -4v-3q2 0 3 -3h4q-1 1 1 3zM149 154v20q-2 3 -3 3h-3q-3 -2 -4 -3v-20l4 -1h3z" />
<glyph unicode="G" horiz-adv-x="1327" d="M1247 589q0 -46 -13 -128q-15 -87 -16 -126l-9 -12v-59l-8 -10q0 -13 -3 -39t-3 -39v-165q0 -11 5 -35.5t5 -37.5q0 -49 -58 -50q-36 0 -52 15q-13 25 -10 25h-27q-3 3 -3 38q0 3 -3 52q-2 30 0 51l6 6h20q3 -2 5.5 -14t6.5 -12q8 0 8 17q0 8 -16.5 34t-23.5 26 q69 0 -95.5 -57.5t-192.5 -57.5t-80 -5.5t-78 -5.5q-7 0 -18 -2q-10 -2 -16 0q-8 2 -15 10v45q-7 11 -17 11t-9 -7v-1l13 -17v-31q-20 -20 -28 -19q-8 0 -24 11t-20 11q-23 0 -23 12q0 7 5.5 21.5t5.5 22.5q0 20 -26 20l-5 -3v-51l-7 -5h-28q-33 16 -95 52q-54 31 -62 82 q-3 16 -18 17q-5 0 -16.5 -1.5t-16.5 -1.5q-30 0 -30 50q0 20 5 20q3 0 9 -1q3 -2 5 0q2 3 1 9l-13 12l-2 -2q-7 -3 -13 -3q-5 0 -10 3v35l-13 13q-2 21 -13 25t-11 6v36q2 5 13 8.5t11 9.5l-1 21q-23 0 -28 14q-3 7 -4 34q0 25 16.5 66t16.5 69q0 10 -3 28t-3 27 q0 30 21 30q33 0 33 23v3q-15 0 -17 2q0 51 12 61h25l6 6q0 46 61 121.5t107 87.5l14 14q11 11 46 20l15 22q15 21 30 21q7 0 15.5 -9t13.5 -9q3 0 9 21t29 21t67 26.5t66 26.5q5 0 17 -6t14 -6q31 30 46.5 36.5t60.5 6.5q8 8 16 8q10 0 29 -10t28 -10q59 0 63 -8v-31 q-11 -11 -12 -18q0 -8 15 -8q10 0 22.5 23t25.5 23q20 0 19 -20q0 -3 -2.5 -10.5t-2.5 -9.5q0 -8 17 -8q8 0 16 8h45q7 0 15.5 -19.5t15.5 -19.5q36 0 66.5 -45t30.5 -83v-13l-5 -8q-7 -7 -10 -7t-6.5 7.5t-6.5 7.5l-15 -7q-15 -7 -23 -6q-18 0 -18 23q0 3 5.5 17t5.5 19 q0 7 -5 6q-8 0 -31 -5.5t-34 -5.5q-75 66 -76 77q0 -2 4 13q2 10 -5 10q-5 0 -16.5 -15.5t-18.5 -15.5q-21 0 -30 16.5t-17 30.5q-53 0 -78 15q-8 -2 -23.5 1.5t-21.5 3.5q-3 0 -96 -48.5t-108 -48.5q-130 0 -256 -169q-120 -159 -120 -293q0 -126 33 -199.5t126 -166.5 l10 -27q11 -25 17 -24q5 0 6.5 9.5t6.5 9.5l100 -37q33 0 63 -19l30 -19q2 0 12.5 19t30.5 19q28 0 28 -25q0 -5 -5.5 -18t-5.5 -16t3 -4q13 0 26 20q7 13 38 36q11 7 15 7q21 0 63.5 12t55.5 25q69 5 122 55q31 31 97 96v36q7 7 9 7q3 0 11.5 -2.5t11.5 -2.5q13 0 14 20 q0 10 -9 10q-2 0 -9 -9t-12 -9t-8 6v43q-7 5 -7 24q0 20 7 25q2 43 8 56q3 7 36 43v19q0 28 -5 28q-2 0 -13 -33t-16 -33q-7 2 -22 14h-36q-5 3 -7.5 17.5t-7.5 14.5l-17 -11q-17 -12 -27 -12q-11 0 -22 14l-11 13q-7 0 -14 -9t-14 -9q-30 0 -84.5 -16t-82.5 -16 q-15 0 -40.5 -8t-33.5 -8q-16 0 -48 -8t-49 -8q-75 0 -75 75q0 38 125 38q13 0 28 -15h37q25 18 30 20q-26 -3 36 -3l15 11q21 -3 50.5 6.5t41.5 9.5q34 0 72 -42h3v31q3 16 25 16q34 0 34 -21q0 -3 -1 -8q-2 -5 0 -8t6 -4q3 0 27 20.5t31 20.5t19.5 -4.5t17.5 -4.5 q7 0 13 4q31 0 69 -9q51 -14 51 -35zM1072 1057v11q0 5 -5 9h-4l-8 -9v-16q2 -3 5 -7h3q9 7 9 12zM1136 422v19l-5 5h-5v-32q5 0 10 8zM135 435v20q-2 3 -4 3h-1l-4 -3v-25q0 -3 4 -3h1q4 3 4 8zM410 112v3h-1v-3h1zM361 89v3l-3 3h-4l-4 -3q0 -3 -4 -5v-3l4 -4q5 0 7 4.5 t4 4.5z" />
<glyph unicode="H" horiz-adv-x="1186" d="M1106 645q0 -16 -3.5 -50t-3.5 -50l-8 -12v-67l-8 -11v-58l-8 -11q0 -15 -2.5 -42t-2.5 -42v-151q0 -7 5.5 -20t5.5 -21q0 -39 -35 -64.5t-76 -25.5q-11 0 -56 39l-2 7q0 59 23 90l23 31q0 2 -4.5 11.5t-3.5 11.5l13 13v56q3 5 16.5 7.5t13.5 7.5q0 8 -3.5 23.5 t-3.5 23.5q-5 2 -13 12v105q15 16 15 20q0 3 -15 6t-15 13q0 11 17 12q8 0 15 -6l6 -6q5 0 5 12v10l-16 18l-15 1l-36 36q-16 0 -28 10h-44q-20 16 -20 54q0 8 20 27q33 2 62 11q46 15 46 38q0 20 -2.5 57.5t-2.5 57.5l16 13q16 15 17 49q0 8 -2.5 23t-2.5 23q-51 46 -51 77 q0 20 14 30.5t14 20.5q-2 7 -5 25q-3 13 5 23l28 1q13 11 36 12h34q30 0 33 -86q-2 51 -2 -91q0 -2 3.5 -6t3.5 -6v-292zM842 594q0 -7 -3 -8q-8 -16 -18 -17q-7 0 -15 7h-45q-11 11 -11 15v28q0 25 39 31q3 2 12 5v1q10 0 21 -13q5 -8 8 -29q12 -17 12 -20zM742 632 q0 7 -5 -13l-7 -17q-5 -16 -11 -16h-33q-7 7 -25 6q-5 0 -16.5 -3t-15.5 -3h-7q-7 3 -8 16l-4 4h-1q-5 -3 -7 -15l-5 -5q-7 0 -25.5 -8.5t-26.5 -8.5q-30 0 -30 43v15q0 5 7 13h44q10 8 17 8t19.5 -5t19.5 -5q33 0 41 15q5 0 10 3l1 -1l7 -2q11 -11 18 -11q5 0 12.5 3 t10.5 3q-8 0 12 -3q8 -11 8 -13zM502 578q0 -7 -5 -9h-67q-3 0 -14.5 11.5t-15.5 11.5q-3 0 -10.5 -10.5t-10.5 -12.5q-21 -7 -61 -24q-92 0 -92 -43v-136q0 -11 9.5 -70.5t12.5 -62.5v-43l8 -11q-2 -11 2 -28q5 -21 5 -28v-113q-11 -11 -32 -12q-11 0 -43 7.5t-35 12.5v33 q-3 7 -9 6q-3 0 -10.5 -10.5t-13.5 -10.5q-8 0 -13 7v80q0 7 17 18.5t17 14.5q0 8 -17 24.5t-17 29.5q0 8 4 26t4 27q2 3 9 6t7 7q0 7 -10 11v46l-14 20q-5 11 0 31q7 28 6 34l15 15v38q54 61 54 75l-5 2q-8 0 -18 -20.5t-13 -20.5q-5 0 -14 15t-9 21q0 16 11.5 36t11.5 22 l-11 5q-11 7 -12 18q0 11 15.5 26t15.5 39l-16 11q-15 11 -15 37q0 10 3.5 30.5t3.5 30.5q20 18 19 31q0 7 -13 6.5t-13 21.5q0 59 7 72q2 5 11.5 6.5t9.5 4.5q0 7 -14 26.5t-14 27.5q0 36 35 56q0 51 -10 51q-5 0 -10 -18t-18 -18q-21 0 -22 13q0 41 24 79.5t62 38.5 q94 0 93 -62q0 -48 -25.5 -142t-25.5 -142v-128q0 -39 45 -59q8 -3 70 -26q5 -26 13 -27q10 0 21 16.5t16 20.5l6 1h49q16 0 36 -27t20 -43z" />
<glyph unicode="I" horiz-adv-x="338" d="M258 128q0 -126 -74 -126h-49q-28 8 -32 13v44q2 5 12.5 8.5t10.5 6.5l-1 13h-22l-5 5q0 80 2 85q13 18 26 35q-5 33 -6 101q11 10 11 17q0 13 -9.5 38.5t-9.5 31.5q0 8 16 28q0 25 11.5 72.5t11.5 70.5v3l-23 22q5 25 -16 55q-2 10 -2 20q0 18 8 38l8 20q0 13 -7 38.5 t-7 34.5q0 18 6 25q0 18 -3 56t-3 56l7 14t7 22v10q-5 10 -14 24v53q11 11 33 38t42 27h36q10 0 18 -17t8 -27q-2 -46 -9 -161q-8 -102 -9 -161v-471q0 -7 4.5 -24t2.5 -28q3 -2 11.5 -50.5t8.5 -59.5zM164 1049v1q-2 3 -5 7q-7 -7 -6 -10q0 -3 5 -8q6 7 6 10zM162 935v4 q-2 0 -3 1h-3l-2 -1q0 -2 -1 -2v-2h1q0 -2 2 -3h3zM156 880v8q-5 10 -15 10q0 -21 10 -22q2 2 3 2zM164 801l-2 1h-6l-2 -1l5 -7zM166 671q0 10 -7 17h-3q-5 -3 -10 -9v-24q2 -3 5 -7h3l7 7q5 5 5 16zM156 269l-5 5l-5 -5q0 -2 2 -3h6q2 1 2 3zM148 153v16q0 2 -2 3h-3 q-3 0 -4 -3v-16q2 -2 4 -2h3zM135 135h-7v-4z" />
<glyph unicode="J" horiz-adv-x="827" d="M638 775q-2 -7 -5 -14l-6 -6h-13l-7 6v5q20 18 23 20h3l5 -5v-6zM747 491q0 -143 -63 -263q-67 -130 -187 -190q-79 -39 -105 -40q-46 0 -46 56q0 15 17 15q82 0 144 70l100 143v51q3 5 13 5q3 0 11.5 -5.5t10.5 -5.5q3 2 3 4q0 3 -7.5 12.5t-7.5 14.5v31q7 5 15 11 q0 3 -6.5 6.5t-8.5 7.5q-7 16 -6 49l1 18l13 13q2 11 -5.5 36.5t-7.5 35.5q0 7 20 43q2 3 -13 14.5t-15 13.5v21q2 3 10 6.5t8 5.5t-14 15.5t-14 23.5q0 26 15 33h28q5 -3 6.5 -15t4.5 -12q5 0 5 14q0 11 -9.5 40.5t-11.5 41.5q-43 51 -43 59t2 24.5t2 24.5v110 q-20 26 -20 52q0 10 7.5 19t8.5 13l15 8q3 -2 13 -7l25 27q46 11 36 11q7 0 20.5 -15.5t13.5 -22.5q0 -28 -3 -83t-3 -82l8 -12v-84l8 -11v-41l8 -12l4 -92v-206zM338 10l-5 -7h-6q-3 5 -12 15h-2q-23 -20 -34 -20q-3 0 -10.5 2t-10.5 2q-5 0 -12.5 -2t-12.5 -2t-15 2t-15 2 q-3 0 -9.5 -2t-9.5 -2q-23 0 -33 20l-2 20q-3 3 -6 5q-11 -5 -13 -5q-31 0 -32 41q0 7 6 18t6 16q0 2 -1.5 7t-1.5 6v20q5 7 14 7q8 0 16.5 -7t10.5 -7q5 0 12 3.5t12 3.5h7q25 -16 67 -61q3 -15 12 -46q2 -5 3 -5q5 0 6 4v33l7 6h20q44 -44 44 -61v-6zM653 1073v5l-6 7h-5 l-7 -7v-8q2 -2 7 -5q2 0 5 2zM637 894q-2 2 -4 7h-3q0 -2 -3 -3v-5q2 -3 3 -4h3q2 2 2 4zM154 51v8q-8 20 -8 18h-3q0 -3 -4 -3v-8l9 -10q1 0 6 -5z" />
<glyph unicode="K" horiz-adv-x="1074" d="M817 1096q0 -7 -211 -266t-211 -284q0 -34 37 -60q44 -33 51.5 -43t17.5 -57l4 -20q5 0 16 15.5t14 17.5h28q5 -2 8 -22h31q92 -46 92 -80v-15q-10 -18 -23 -36q-7 0 -64 23q-30 0 -29 26q0 3 2.5 10.5t2.5 9.5l-2 7q-3 0 -15.5 -11.5t-19.5 -11.5q-3 0 -12 4t-12 4 q-13 13 -61.5 36t-53.5 31v15q0 -5 5 23q3 18 -5 18q-5 0 -10 -21.5t-10 -22.5h-21q-7 11 -23 29q-15 0 -45.5 6t-44.5 6q-11 0 -12 -12v-220l7 -10q0 -16 3 -50.5t3 -50.5q0 -85 -51 -86q-31 0 -57 28q-10 10 -39 48q0 5 -4.5 12.5t-4.5 11.5q0 34 22 68v49q3 7 18 8l20 20 v6q0 8 -5 9h-2l-12 -12q-25 0 -19 100l-8 12v44q11 15 26 15l10 -7q0 -28 5 -28t13 32q0 25 -2 26q-36 0 -36 72q0 8 18 28q-26 49 -26 54q2 3 6 8h20q10 -13 15 -13q2 0 5 2l1 41l-19 9q-18 9 -18 20v41q2 5 9 7.5t7 5.5l-3 7q0 41 -22 71v44q18 18 22 20q23 0 23 23 q0 18 -7 18q-2 0 -6 -10t-12 -10q-21 0 -21 21q0 18 19 18q-10 0 15 -3q8 0 12 8v15q0 13 -9 40t-8 44q-30 11 -29 21q0 20 31 51l15 3q10 0 27 15t37 15q13 0 34.5 -11.5t21.5 -24.5t-4.5 -40.5t-4.5 -40.5q-28 -30 -28 -267v-143q0 -25 15 -25q26 0 210 230 q179 225 181 241q5 7 35 52t32 45q59 0 64 -1q31 -7 31 -45zM994 103l-1 -5q-7 -7 -16 -23t-30 -16h-8l-5 7v36q2 3 8 11q28 10 28 17q0 8 -3 8q-7 0 -10 -7q-20 -5 -25.5 -14.5t-25.5 -9.5q-18 0 -30 19v36q-2 0 -2.5 2t-2.5 2q2 0 -5 -4q0 -5 -8 -11l-11 -2q-7 -7 -17 -6 q-13 0 -44 28.5t-33 41.5l-6 5q-16 0 -20 2q-8 3 -16 13q-21 -3 -12 -3l-5 5v6q5 7 13 10q0 56 18 56q15 0 20 -20q7 -25 10 -29h5q8 0 23 1h23l19 -18v-15l-8 -13l2 -19l3 -4h3q20 0 22 20l6 5h22l6 -5q-2 -7 -3 -16l3 -4h8q7 -5 12 -11l16 6l17 -11h8l5 3h34q3 -13 13 -36 v-38zM166 783v26l-7 5l-5 -5v-28q0 -3 4 -3h1q2 2 7 5zM653 294l-20 19h-3q0 -2 -3 -3v-16l6 -7h14zM174 702l-8 15h-12q0 -7 13 -20zM174 313l-7 5l-5 -5q0 -3 4 -3h5q3 1 3 3zM149 90q-7 7 -10 7l-1 -2q-3 -2 -7 -5q2 -2 7 -5l1 -1q3 -1 10 6z" />
<glyph unicode="L" horiz-adv-x="869" d="M366 57q0 -39 -48 -59q-38 -16 -82 -16h-28q-11 0 -21 20q-2 11 -3 11q-53 0 -59 2q-23 25 -25 28v34q3 5 18 9t15 11q0 25 -16.5 37t-16.5 19q0 15 15 37v51l8 12q0 -2 -15 13v44l5 7h18q5 3 5 6q0 10 -17 20.5t-19 14.5q-5 8 12 26v2l-12 11q0 43 23 43q10 0 10 6 q0 15 -8 30q-5 8 0 25q7 20 6 24q-2 5 -12.5 19t-10.5 17q0 113 -1 54q2 43 16 50h16q5 3 5 9q0 7 -12 11t-15 8v27q20 13 19 37q0 20 -13 36q0 15 -3 44t-3 44q2 7 16 22v49l11 15l-11 13q0 10 2 41q3 26 1 39q-2 21 -11 35v13q0 15 14 14q15 0 30 -11.5t16 -11.5 q5 0 12.5 7.5t10.5 7.5h35q2 0 20 -16.5t18 -19.5q0 -43 -22.5 -125t-22.5 -124v-694q11 -16 12 -38q0 -18 -8 -40q-7 -7 11 -23q5 0 12 9v28q5 7 27 6l10 -6q8 0 23 5.5t22 5.5q21 0 21 -25zM791 79q0 10 -13 -25q-2 0 -9.5 -12t-13.5 -12h-44q-7 7 -22 6q-5 0 -12 -3 t-11 -3q-2 0 -29 15.5t-33 16.5q-16 31 -17 27v28q3 5 15 14h84l12 7q13 8 22 8q36 0 61 -25q0 -3 5 -10.5t5 -8.5v-23zM566 57q-8 -5 -20 -14h-14q-15 15 -20 14v2q0 31 10 31q5 10 21 10q15 0 18 -8q3 -13 5 -15v-20zM496 57q-2 -3 -5 -6q-11 -2 -28 -12l-17 -9h-46 q-13 13 -13 14q2 2 13 25q5 0 12 2q8 8 39 8q3 3 12 3h21q7 -2 8 -7l4 -4v-14zM689 67v4q0 8 -6 8l-5 -5q0 -7 8 -7h3zM151 412v2h-3v-2h3zM133 384q0 2 -2 2h-1v-2h3zM154 57q0 10 -13 17l-5 -5v-18q5 -3 5 -5h7l5 5v3q1 1 1 3z" />
<glyph unicode="M" horiz-adv-x="1317" d="M1237 89q0 -20 -18.5 -43t-38.5 -23h-54q-7 5 -40 8q-20 2 -19 30q0 11 6 18h20q2 -2 6.5 -12.5t8.5 -10.5l5 1q3 38 3 156q0 16 -15.5 50t-15.5 42q0 13 16.5 24.5t16.5 13.5v2l-20 23v31q11 10 11 18q-3 5 -19 29l3 45q2 18 18 49t16 49q0 33 -21 58v52q-16 23 -16 36 l14 44v51q-5 10 -18 48.5t-19 38.5q-7 0 -40 -77l-39 -93q-36 -66 -110 -260q-64 -169 -118 -252v-51q-15 -26 -47 -78.5t-58 -52.5q-36 0 -58 31v18q0 -13 4 28q2 21 -5 21q5 0 -22 -3q-13 -3 -18 5v62q-77 46 -77 107q0 34 -27 100.5t-27 109.5q-15 3 -18 26l-21 21 q-36 -8 -36 71q0 3 1 18q3 13 0 20q-2 13 -21.5 30t-24.5 25q-23 46 -23 63l-28 28h-3q-8 0 -8 -15q-2 -33 -13 -108q-11 -69 -12 -109q-15 -15 -15 -26q0 -23 22 -38v-154l8 -11v-110l8 -12v-215q0 -7 -14.5 -21.5t-21.5 -14.5q-82 0 -107 36v59q10 7 22 79q10 61 10 80 q0 8 -7.5 20t-7.5 18q0 7 6 15l2 36q2 3 28 30v3q0 2 -10 16.5t-10 27.5q0 18 8 25q18 15 20 18q0 30 -14 86.5t-14 85.5q0 11 7 15h28l3 6q-3 5 -23 30q0 30 14 73t14 60v3q-34 0 -35 53q0 23 28 23q13 0 22.5 -20t10.5 -20q7 0 7 13q0 7 -6.5 17t-6.5 15q0 16 1 19l7 5 q2 3 1 5q0 2 -1 2l-13 -10q-13 -10 -27 -10q-16 0 -16 18q0 13 15.5 41t15.5 30q0 15 -7.5 43.5t-7.5 43.5q0 48 46 47q56 0 82 -51q20 -51 40 -100q16 -31 164 -372l143 -333l6 -2l18 2q20 20 48.5 84.5t38.5 74.5h18l2 5q0 30 31 136q34 117 56 116q43 0 21 -1q11 0 12 18 q0 7 -15 11t-15 17q0 33 25 33h18q8 2 8 18q0 5 -11 18v28q2 2 24 15.5t22 26.5q0 7 -3.5 21t-3.5 20q0 23 33 23q10 0 23 25v1l-17 19q0 64 30 64q7 0 9 -10t7 -10l4 1v32q-7 7 -7 16q0 28 43.5 73t71.5 45q41 0 41 -72q0 -13 -2.5 -39.5t-2.5 -39.5l8 -11v-176l8 -11v-102 l9 -12q0 -33 2.5 -99t2.5 -99l8 -10v-115l10 -11v-112l8 -11v-128q11 -8 11 -64zM825 540v8q0 3 -3 3h-1q-3 0 -4 -3v-8q2 -2 4 -2h1q1 0 3 2zM351 755v28q-2 2 -1 3h-4q-3 -5 -11 -8q0 5 -2 -7v-6q2 -5 2 -7l8 -8h3zM486 464v18q0 10 -12 10q0 2 -1 2h-4q-2 0 -8 -7v-3 l10 -20q3 -2 7 -5h3q0 2 5 5zM625 176v3l-16 33q-3 16 -26 41q-2 3 -9 3h-8q-5 -3 -5 -8v-3l5 -5h8q15 0 20 -20q0 7 12 -31q0 -23 9 -23zM614 154v2q0 2 -2 2v0q-2 0 -2 -2v0q2 0 4 -2z" />
<glyph unicode="N" horiz-adv-x="1145" d="M957 523q-2 -3 -5 -6h-3q-18 13 -23 23v11q3 5 8 12q-5 0 6 2h12q5 0 5 -5v-37zM1065 1086q0 -48 -5.5 -142t-5.5 -142l-9 -11v-386l-10 -10v-298q0 -21 -23.5 -49t-44.5 -28q-49 0 -50 29q0 75 -19 76q-3 0 -10 -2t-10 -2q-5 2 -5 9q0 15 12 26h16v28l-5 1l-71 -32 q-7 0 -11 11q-11 21 -80 100q-59 67 -64 105q-3 18 -9 18q-11 0 -13 2q-7 7 -11 41q-3 30 -17 29q-46 0 -106 103l-61 104q-38 0 -38 33q0 5 1.5 15.5t1.5 15.5q-2 8 -6 8q10 0 -23 -3q-18 -2 -20 5v36q20 26 20 35l-5 1q-16 0 -27 -8t-19 -8q-23 0 -23 16q0 34 -56 35 q-15 0 -23 -35q-8 -39 -13 -44l-6 -167l-7 -10q0 -48 5 -112l8 -110l8 -10v-54l9 -10v-103l37 -146q0 -7 -8 -20t-15 -13q-57 0 -77 23q-59 3 -65 17v41q-13 16 -14 23q0 5 9.5 18t12.5 13q7 0 11 -4l5 -3q3 2 8 12l5 8v1q0 10 -21 43v48q-16 10 -16 19q0 8 7 28t7 28 q0 10 -14 33v43q7 5 8 20.5t8 20.5v67q2 2 11.5 6.5t9.5 8.5l-14 13t-14 23q0 15 5 72q5 48 2 72q10 8 10 184q0 2 5.5 12.5t5.5 20.5q0 11 -3 33.5t-3 33.5l15 15v7q0 49 4 64q10 30 56 29h15q26 -16 69 -56q43 -53 189 -257q110 -154 195 -240q49 -51 112 -121 q90 -105 90 -158q0 8 -3 -23q-2 -18 3 -18q10 0 25.5 20.5t18.5 23.5v112q0 3 -4 10.5t-2 12.5q13 5 31 20q-23 20 -23 29v36l6 8h25l6 7q0 16 2.5 46.5t2.5 47.5q0 7 -3 6q-5 0 -6.5 -11.5t-6.5 -13.5h-20q-7 2 -6 14q0 28 21 89.5t21 88.5q0 3 -13.5 6t-13.5 11t7 26t7 25 q0 30 -29 64v67q8 13 26 46l2 3h1q0 8 -10.5 21.5t-12.5 18.5h-16q-7 3 -7 16q0 36 18 36q5 0 15 -2.5t15 -2.5q8 0 25.5 2.5t25.5 2.5q49 0 49 -33zM971 960v16q-2 0 -3 -1h-3l-5 -5v-3q0 -2 2.5 -3.5t2.5 -3.5h6zM976 919l-3 3h-2l-6 -6q0 -2 -2.5 -5.5t-2.5 -6.5h5 q3 3 8 10q1 2 3 5zM213 1063v7l-10 -10t-9 -13q-7 -7 -7 -18v-2q3 0 3 -3h4q0 3 8 13t8 13q0 10 3 13zM474 740v3q-2 2 -1 4h-4l-3 -4q0 -5 -3 -5v-6q6 0 11 8zM561 620q0 15 -8 20q-5 -2 -11 -8v-8q8 -8 11 -9h3zM189 985v3q0 8 -7 8l-3 -2q0 -2 -2 -3v-6q2 -3 2 -5l3 -2h3 q4 2 4 7zM606 532v31l-5 5h-9q-3 0 -5.5 -2.5t-3.5 -2.5v-3q5 -31 19 -32q4 2 4 4zM676 440v3q-2 0 -3 2h-3q-2 -2 -4 -2v-3l4 -3h3zM737 364v9q-2 5 -2.5 5.5l-2.5 2.5h-3l-9 -8v-12l2 -2q2 0 5 -1t10 6zM187 840v3l-2 4h-3l-3 -4v-3l3 -1h3zM167 386q-2 3 -8 11l-5 -5 q0 -6 13 -6z" />
<glyph unicode="O" horiz-adv-x="1449" d="M1370 730q0 -172 -46.5 -279.5t-173.5 -227.5q-54 -51 -180.5 -106.5t-162.5 -86.5h-75q-31 -20 -36 -22q-16 0 -47.5 -4t-44.5 -4q-16 0 -17 21v7l20 20v3q0 10 -5 10q-3 0 -23.5 -26.5t-40.5 -26.5t-26.5 18t-7.5 18q-51 0 -74 30q-10 13 -21 56q-8 30 -22 29l-5 -1 q0 -30 9 -40l9 -10q0 -7 -8 -23t-13 -16l-39 15v28q20 21 19 41q0 28 -21 28l-5 -2v-40q-10 -23 -24 -22q-7 0 -9.5 10.5t-7.5 11.5h-39q-8 5 -18 48q-10 38 -46 48q-11 3 -38 36q0 25 -10 49.5t-10 33.5q0 15 8.5 21.5t8.5 15.5q-39 44 -40 64q0 8 5 11h35q3 2 3 20 q0 31 -8 31q3 0 -18 -21h-20q-7 10 -3 14q3 7 3 13q0 10 -3.5 29t-3.5 27q0 11 30 43q-8 11 -8 23q0 11 8 23h25q7 3 6 8q0 7 -6.5 15t-6.5 13q0 8 15 18v41q23 15 69 56v51q8 7 75 79q48 51 87 62q13 16 40 36q25 3 81 37t58 34q7 0 21.5 -3.5t22.5 -1.5q11 2 12 13 q21 28 66 28l26 -4l28 28q59 15 70 15q8 0 24.5 -14t24.5 -14q7 0 22.5 8.5t23.5 8.5q20 0 30 -35q7 -25 18 -25q3 3 7 27q0 7 19.5 14t27.5 7h3l37 -36h3q112 0 216 -148q97 -138 97 -256zM1201 947v3l-3 3h-7v-3q0 -5 7 -5q1 2 3 2zM1282 806q-2 5 -4 5h-1v-9h1q4 1 4 4z M1277 624q0 18 -20.5 55.5t-20.5 55.5q0 13 -6.5 38.5t-6.5 37.5l6 31q-13 3 -31 16v20l23 20v8q0 28 -13 28q-2 0 -7 -21.5t-21 -21.5q-13 0 -24 18t-11 33q0 36 -9 48v44l-17 13v2q-10 -5 -10 -10q0 -3 4 -20q3 -16 0 -25q-3 -11 -15 -11l-54 63q-53 63 -71 63 q-2 0 -7.5 -17t-13.5 -17q-46 0 -77 24h-81q-8 7 -13 7q-11 0 -93 -59q-31 -23 -101 -44l-108 -35l-24 -10q-103 -98 -150 -162q-77 -107 -77 -205v-112q0 -46 65 -174.5t93 -128.5h1l12 11q8 0 38.5 -24t44.5 -24q21 0 31 -18t14 -18l116 2q20 -13 18 -13q10 0 30 5.5 t31 5.5q15 13 20 14q13 0 38.5 4.5t37.5 4.5t28.5 8.5t27.5 8.5t28 8t28 8l109 102q66 61 115 93q3 2 3 5v51l33 33q0 71 34 71q10 0 10 9q0 10 -5.5 33t-5.5 36q0 30 23 30q3 0 12 -6t12 -6q7 1 7 14zM663 64v15q-2 2 -3 1h-2q-3 -3 -7 -8v-3q2 -3 7 -8h2zM666 41v10h-3 l-3 -3q0 -3 3 -7h3zM199 289v1q0 3 -2 9l-2 1h-3l-3 -1v-17q0 -3 3 -3h3q4 3 4 10z" />
<glyph unicode="P" horiz-adv-x="1030" d="M950 766q0 -105 -164 -233q-158 -121 -267 -121q-33 0 -41 11v40l13 19h10q28 0 18 -3l11 12q97 5 236 200q13 3 35 20q3 15 22 49t19 54q-8 7 -21 21l-14 61q0 7 12.5 18.5t12.5 15.5q0 11 -8 12q-3 -2 -17 -7q-7 -3 -34 40v28q11 7 23.5 13t12.5 26v5q-23 23 -30 23 q-3 0 -4 -3v-40q-15 -13 -23 -13t-15.5 18t-11.5 22q-30 16 -83 54q-61 0 -33 -2q-11 0 -23 13q0 13 -8.5 27t-8.5 16q0 16 22 16q11 0 31 -15h10q10 0 29.5 3.5t27.5 3.5q26 0 30 -43q5 -5 8 -5l7 12q8 13 18 13q7 0 31 -22t70 -45q20 -10 58.5 -89.5t38.5 -104.5v-120z M555 1127q-11 -13 -71 -29q-18 -5 -43 -26q-30 -23 -39 -28q-36 -2 -89.5 -34t-81.5 -63q0 -44 -6.5 -131t-6.5 -132q0 -131 13 -149q46 -34 92 -71q31 -5 95 -6q20 -16 20 -31q0 -23 -34 -23q-13 0 -18 3l-9 3v-1l-14 -14q-15 0 -43 -4t-43 -4q-7 0 -21.5 7.5t-20.5 7.5 q-16 0 -17 -13q0 -34 6.5 -105t6.5 -105l9 -12q0 -15 3 -43.5t3 -43.5q0 -80 -52 -80q-25 0 -60.5 30.5t-35.5 54.5q0 13 16.5 37t16.5 37q0 7 -19 25v52q15 13 14 23q0 11 -6 20v80q-10 15 -8 17q7 3 6 11q-2 5 -6 13v37q5 8 23 19q13 0 19 -6l7 -5q3 5 13 19h-16 q-8 7 -14 7q-3 0 -12 -3.5t-14 -1.5q-7 2 -11 13q0 20 -4.5 58.5t-4.5 58.5q0 30 7 86t7 86q15 16 14 44q0 10 -14 30t-14 29q0 8 8.5 23t8.5 23t-3 10v36l6 7h13q-2 11 -13 38t-11 46q0 30 18 29q11 0 14 -5v-23q13 -8 12 -8q20 0 16 48q13 15 51 14q18 0 36 -37 q3 0 15.5 4t20.5 2q15 30 17 33q13 18 26 20q38 3 99 31q15 0 43.5 5t43.5 5q8 7 16 6q20 0 20 -15v-36zM770 1086q-15 15 -25 15q-2 0 -7 -3v-3q8 -13 9 -14l3 -3h8q8 2 7 2q5 -4 5 6zM822 976v17q-8 -2 -8 -7v-3q2 -7 5 -7h3zM862 830l-4 2q0 2 -1 2v-7h1q4 0 4 3z M149 866l-3 2q0 2 -2 2h-1v-2q-2 -2 -4 -2v-6q2 0 4 -2h3q3 6 3 8zM525 461v8q-7 -2 -6 -5q1 -1 6 -3zM327 443l-4 3h-1l-4 -3q0 -3 4 -3h1q4 0 4 3z" />
<glyph unicode="Q" horiz-adv-x="1447" d="M1362 604q0 -148 -240 -391q-67 -69 -256 -142q-2 -2 -52 -18q-41 -15 -41 -23q0 -3 60.5 -65t67.5 -75q0 -31 5 -31q3 0 4.5 14t10.5 14q20 0 31 -31q10 -36 15 -38h36q49 -39 49 -61q0 -57 -39 -57q-16 0 -14 42l-18 13q-67 0 -69 37q-3 46 -14 46q-72 0 -73 24 q2 3 7 15q5 10 -3 10l-12 -5q-11 -5 -21 -5t-17 6v28q-5 7 -118 51q-5 3 -9.5 37.5t-13.5 34.5q-10 0 -14.5 -23.5t-22.5 -23.5q-20 0 -25 6h-46q-31 -21 -91 -76t-89 -70q-64 0 -64 20q2 5 13 20l-2 3q2 0 -11 -3q-5 0 -9 6v28q7 8 7 13t-7.5 15t-7.5 18q0 20 35 59 q16 18 49 53v34l8 5l13 -5q8 -2 8 5q0 39 -29 40q-3 0 -5 -11.5t-8 -11.5q-5 0 -9 6v30l-21 19h-1l-5 -1v-27q-21 -13 -27 -13q-51 0 -70 51q-23 61 -40 72v50q11 13 12 16q-2 5 -12 18v81l-9 4q-10 0 -10 -13q0 -11 3 -35.5t3 -36.5q-3 -7 -8 -6q-16 0 -22 19.5t-9 24.5 q0 38 -8.5 114t-8.5 114q0 25 23 25q20 -5 22 -2q-13 34 -13 51q0 20 16 19q44 0 44 28q0 8 -5 9q-7 0 -9 -10t-5 -13h-20q-5 3 -5 13q0 7 15.5 19t15.5 18.5t20 31.5v47l8 5h31v41q16 26 116.5 101.5t122 75.5t42.5 22.5t36 22.5q21 0 62 14.5t69 14.5l77 48 q33 0 55.5 -16.5t18.5 -16.5v13q8 11 23 12q26 0 79.5 -12.5t79.5 -12.5q13 0 32 -21.5t32 -21.5q5 0 11.5 7.5t11.5 7.5q71 0 168 -149q90 -143 90 -222v-167zM1431 -356q0 -23 -33 -39q-26 -13 -52 -14q-10 0 -27.5 7.5t-25.5 7.5q-5 0 -14 -3t-14 -3q-8 0 -40 7 t-34.5 9.5t-13 22.5t-17.5 20q-13 0 -13 -23l-5 -5h-31q-25 16 -28 21v28q0 2 2.5 6t2.5 5v9h-21l-7 6v20q0 30 38 29q23 0 34 -39q2 -2 5 -2h2q7 5 11 12h28q10 -18 28 -39q3 0 8 1v31q10 15 63.5 41.5t73.5 26.5q31 0 59 -45l1 -19q20 -30 20 -59v-20zM1150 1055v3l-11 12 l-7 -7v-1l7 -7l5 -3h3q0 3 3 3zM1237 934q0 10 -6 10h-4l-4 -5q0 -7 4 -12h7zM1262 793q0 20 -5 26q-13 11 -18 21h-3q-3 -2 -4 -6q0 -2 2 -4l15 -29q2 -3 5 -8h8zM1250 537q0 7 -9 8t-10 6v41q20 20 19 33q0 10 -13.5 35.5t-13.5 32.5q0 21 -7.5 61t-7.5 62q0 33 -12.5 46 t-12.5 16v52q-5 31 -28 48h-1q-39 0 -32 -2q-18 3 -18 30q0 44 -16 44l-9 -9t-19 -9q-21 0 -67 51q-13 0 -59 39v33l-5 4l-7 -4v-47l-6 -5q-16 0 -40 8t-29 8q-59 0 -226.5 -72t-211.5 -115l-46 -44q-98 -95 -115 -176q-8 -39 -23 -88q2 -11 -2.5 -29.5t-4.5 -25.5 q0 -13 4 -45.5t3 -50.5q13 -20 26 -77.5t33 -83.5l2 -3q3 -33 110.5 -106t143.5 -73q18 0 51.5 -11.5t46.5 -11.5q7 0 21.5 3t21.5 3q13 13 26 13q11 0 18 -8l9 -8h9l18 18h38l13 13l20 3q71 0 159 89q48 34 145 117q3 11 19.5 32.5t16.5 28.5t5.5 24.5t5.5 25.5l15 15 q3 31 23 31q7 0 18 11.5t11 18.5zM980 -230q-5 5 -5 13q-11 11 -7 12h-1q-3 0 -4 -3v-14q5 -10 12 -11h1q4 0 4 3zM789 -69v2h-1v-4q1 0 1 2zM266 223v7q0 3 -3 6h-9q0 -3 -11 -14v-4l3 -5l8 -8h7q0 3 2.5 9.5t2.5 8.5zM353 -97v7q-3 2 -5 3q-7 -2 -18 -10q-2 -2 -3 -1v-7 q3 -2 4 -3q7 2 19 8q1 3 3 3z" />
<glyph unicode="R" horiz-adv-x="1068" d="M957 819q-15 -51 -58 -146q-43 -67 -141 -146q-107 -51 -216 -107q31 -38 34 -39q20 -16 49 -17q5 -2 5 -11q0 -5 -3 -18t-3 -20q0 -26 24 -26q5 0 5 10q0 3 -7.5 13.5t-7.5 22.5q0 21 17 21q5 0 36 -28q7 0 25 -9.5t18 -14.5l-12 -15q-11 -15 -11 -26q0 -18 13 -18 q2 0 24 34q10 16 35 16q20 0 35.5 -19.5t15.5 -39.5t-7 -24v-68q-3 -5 -10 -5q-20 0 -55 38t-43 38q-33 0 -40.5 5t-25.5 34h-39q-7 7 -20 17q-31 10 -69 39q-18 18 -13 18l-46 -3l-41 38q-31 2 -46.5 21.5t-20.5 19.5q-3 0 -5 -12.5t-8 -12.5q-5 0 -10 16l-2 4q-23 0 -26 3 h-41q-15 13 -36 13q-15 0 -15 -11q2 -5 8 -15v-97l8 -11v-73l9 -11q0 -15 3 -43t3 -42v-76q-26 -26 -31 -28h-36q-5 8 -49 23q-31 10 -32 66q0 11 12 21h25q8 7 8 17v4q-23 20 -23 51q0 15 10 23l11 10q0 11 -14.5 34.5t-14.5 34.5v123q0 11 23 31t23 36q0 36 -12 37 q-3 0 -7 -7t-8 -8h-21q-8 0 -8 11q0 7 4 19t4 16q0 21 8 38.5t8 18.5q0 11 -6 12h-5q-13 0 -13 47l1 158l7 6q33 0 33 10q0 31 -20 47t-20 30q0 7 7.5 22.5t7.5 20.5q0 2 -7.5 11t-7.5 17v6l20 20v3q0 21 13 53.5t31 32.5q36 28 43 28q18 0 33.5 -25.5t17.5 -25.5h2 q43 67 87 67q15 0 45 11.5t51 11.5q11 8 50 19.5t52 10.5l21 -2q34 -38 41 -38l4 2q0 3 -2.5 9.5t-2.5 10.5q0 10 23 9q10 0 28.5 -2.5t28.5 -2.5l5 -6v-74q-3 -8 -15 -8q-10 5 -57 33q-13 0 -38.5 5.5t-38.5 5.5q-7 0 -28 -26q-31 -8 -62 -28l-61 -36q-95 5 -130 -61 q-25 -48 -24 -151l-9 -10v-59l-8 -11v-64l-8 -12v-57l8 -12q0 -39 23 -72q26 -38 64 -38q5 0 15.5 3.5t15.5 3.5l18 -15q62 0 63 -38q0 -5 -10 -16t-10 -20q0 -21 20 -31v23q8 18 39 49.5t46 31.5q67 0 148 75q53 49 129 125v33l30 28q0 36 23 55v43l-12 16q0 25 -19.5 77.5 t-19.5 72.5q0 5 3.5 14t3.5 12q-85 74 -86 87q0 25 15 36h36q36 -30 105 -89q72 -66 79 -110q5 -33 15 -68v-84zM988 143q0 -31 -51 -66h-15q-13 15 -28 15q-3 0 -10.5 -3.5t-12.5 -3.5q-15 0 -14 7q-2 2 -2 5q2 2 7 16v18q-2 2 -17 2q-5 3 -6 6v50q2 3 6 11l2 20 q10 13 23 23h3q15 -15 41 -46h36q38 -23 38 -54zM876 1003q0 3 -3 8.5t-3 9t-5 18.5q-3 0 -7 3h-1l-7 -7q0 -5 7 -11q2 -13 9 -28q2 0 4 -2h3l2 2v3q1 2 1 4zM875 968q0 2 -2 3h-3l-4 -3q2 0 4 -1h3zM885 904v3q-7 11 -10 12h-5l-4 -3v-4l9 -9h6q2 1 4 1zM499 459v5h-5z M574 335l-5 5v-5h5zM154 668v3q0 -3 -5 10q-2 2 -8 5q0 -13 8 -21h2zM139 629q0 2 -1 3h-3l-4 -3v-2l4 -3zM158 404v5l-7 6h-5l-7 -6v-9q2 -2 7 -5q9 9 12 9zM158 87q-3 3 -12 8q-3 -2 -10 -6q0 -3 -5 -9q0 -5 7 -5h3l10 5z" />
<glyph unicode="S" horiz-adv-x="787" d="M707 341q0 -97 -153.5 -238t-251.5 -141h-89q-30 0 -110 61q0 10 -2.5 27t-2.5 27q0 28 19 28q8 0 13.5 -15.5t15.5 -15.5l21 -23v-5l-13 -15q0 -8 4 -8q10 0 21 -19.5t21 -19.5l7 14q3 5 13 15v30l6 6h64q61 0 72 20.5t40 20.5l94 94q38 38 62 79q8 13 26 32v35 q13 11 13 18q0 8 -5.5 25.5t-5.5 25.5q0 18 20 31v44q-2 0 -3 2t-2 2q-33 0 -88 42.5t-57 42.5q-48 0 -80 34q-18 18 -43 66q-18 34 -29 34h-2q0 -75 -35 -75q-21 0 -27.5 20.5t-9.5 22.5h-35q-66 107 -65 146q0 84 36 131q66 85 72 100q3 7 44 13q2 0 13.5 24t35.5 24 l20 21h35q36 36 60 39q30 28 41 28q125 0 123 -60h40q13 -11 13 -20q0 -72 -36 -72q-20 0 -20 23q0 7 9 14t9 12q0 18 -10 18q-8 0 -13.5 -15.5t-14.5 -15.5q-5 3 -24 23l-28 1q-8 7 -21 7q-79 0 -172.5 -89.5t-93.5 -168.5q0 -49 41 -91q21 -21 77 -71l10 -2q7 0 15.5 7.5 t15.5 7.5t27.5 -14.5t26.5 -14.5q28 0 52.5 -14t36 -14t44.5 -9q46 -51 76 -106q38 -20 37 -81v-105zM338 602q-2 -5 -2.5 -5.5t-5.5 -4t-7 -5.5h-10q-15 15 -14 15v36q5 8 19 13q0 2 4 2q3 0 9.5 -10t6.5 -13v-28zM589 563q-2 5 -4 10.5t-7 7.5v-2q-2 0 -7 -5v-13 q3 -5 12 -10q6 7 6 12zM450 597v9l-5 3q-3 3 -8 3q0 -16 4 -21h5q1 1 4 6zM205 745q0 2 -2 2l-13 14h-3q0 -2 -1.5 -2.5t-1.5 -1.5v-9q0 -7 6 -13h9q2 2 4 7q2 0 2 3zM240 689v18q0 2 -2 4h-3q-3 -2 -4 -4v-18q2 -3 4 -3h3q2 1 2 3z" />
<glyph unicode="T" horiz-adv-x="1119" d="M1039 1127q0 -28 -15 -34l-146 2q-11 0 -32 7t-30 7q-7 0 -17.5 -9t-17.5 -9q-8 0 -20.5 15.5t-17.5 15.5q-57 0 -104.5 -47.5t-47.5 -104.5v-90l-8 -10v-276l-9 -11v-60l-9 -11q2 -11 -2.5 -28.5t-4.5 -24.5q0 -25 3.5 -75.5t3.5 -74.5l8 -10v-46l-7 -10q0 -25 14 -73.5 t14 -72.5q0 -25 -25.5 -53t-49.5 -28q-94 0 -94 15q0 2 10.5 14t10.5 21q0 128 -13 142q0 46 5 50q11 7 17 23l14 14v7q0 8 -14 15.5t-14 27.5q0 18 11.5 27.5t11.5 13.5q0 3 -11.5 17t-11.5 32t14 22t14 6q0 11 2.5 34t2.5 35q0 10 -14 37.5t-14 40.5v50q3 7 13 6 q7 0 27 -23h5q-13 33 -36 59v84q23 15 23 26q0 10 -16 26.5t-16 27.5q0 56 15 56q3 0 12 -4t13 -4q7 0 6 10q0 10 -5 10q-23 0 -28 1q-13 5 -13 27v1l15 15v8q-36 31 -36 41q0 3 4 13t4 14q-5 -2 -19 -7q-13 -5 -20 0q-8 7 -18 23l-5 8q-11 0 -36 -19.5t-38 -19.5h-46 q-7 0 -16 9.5t-12 9.5q-7 0 -21.5 -13.5t-20.5 -13.5q-18 0 -50.5 29.5t-32.5 47.5q0 15 41 24q33 8 56 9q26 0 77 -8.5t78 -8.5q16 -16 19 -18q11 0 37 6t39 6l5 -7v-38q3 -3 11 -3h10v48q21 31 43 31q3 0 16 -9t16 -6q26 20 35 20q3 0 20.5 -6.5t18.5 -5.5q41 21 54 21 q11 0 20 -6q75 0 107 13h44l7 -5q0 -28 14 -28l4 2q16 62 39 62q11 0 34.5 4t34.5 4q26 0 43.5 -27t17.5 -55z" />
<glyph unicode="U" horiz-adv-x="1114" d="M927 1050l-5 -5h-11q-33 13 -23 13v20q0 2 1.5 3.5t1.5 3.5l5 5q2 0 3.5 1.5t3.5 1.5h4l20 -20v-23zM1035 1113q0 -51 -9.5 -151t-9.5 -151l-10 -10v-130l-8 -10v-90l-7 -10l-3 -51q-8 -118 -125 -300q-125 -194 -221 -194q-23 0 -66 -10.5t-66 -10.5q-46 0 -49 20 q-2 13 -5 13t-20.5 -12.5t-31.5 -12.5q-62 0 -35 -3q-16 2 -16 25q0 3 7.5 13.5t7.5 12.5q-2 3 -5 3t-10 -11.5t-23 -11.5q-13 0 -17 5v35l-4 3q-23 0 -47 15.5t-22 36.5l3 69l-5 4q-3 0 -5 -14t-10 -14q-7 2 -24 13v64q-41 41 -40 90q-15 11 -15 23q0 5 8.5 25.5t6.5 23.5 q-8 7 -16 12q-13 13 -13 37q0 7 5.5 13.5t5.5 9.5t-3 5v43q-25 21 -25 79q0 15 15 24.5t15 13.5q0 7 -11 20.5t-11 21.5q0 16 14 17q8 0 13.5 -8.5t9.5 -8.5q5 0 9 8v25q-8 10 -31 44q-16 25 -16 59q0 8 -7 17v28l17 13v51q7 8 6 19q0 11 -3 12q5 0 -18 -3q-11 -2 -15 5v27 q11 11 12 32q0 3 -7 12t-7 14t5 10l17 16q-2 18 38 33q33 13 54 13l28 -3q31 -28 31 -43v-57q-20 -25 -20 -127q0 -57 8 -171t8 -172q0 -54 -4 -93q16 -23 42 -135q30 -121 49 -159q41 -80 110 -80h2q11 3 54 -5q5 -2 6.5 -11t6.5 -9q7 0 21 14t20 14q61 0 94 39 q36 8 100 109q25 28 66 83v64q10 3 23 7.5t13 22.5q0 46 23.5 78t23.5 37q0 13 -11 23q0 18 10 46t10 37q0 11 -11 30.5t-11 30.5q0 26 6 80.5t6 80.5q-11 16 -12 25q0 21 3.5 64.5t3.5 64.5q36 33 36 53q0 13 -29.5 40t-29.5 34q0 18 39 18q10 0 20 -10t11 -10q13 0 26 6 l14 7q9 0 37 -34zM151 1054v13l-7 6q-5 -3 -11 -8v-26l3 -2h3q7 7 12 17zM172 471v7l-5 4q-8 0 -8 -3l-1 -1q0 -8 9 -9v-1h2v1q1 0 3 2zM187 358v1h-3v-1h3z" />
<glyph unicode="V" horiz-adv-x="1142" d="M1062 1118q0 -5 -98 -212t-104.5 -271t-69.5 -191t-70 -190q-5 -46 -54 -151q-54 -117 -90 -116h-54q-11 8 -12 15l4 3q8 11 8 18q0 3 -5 3q-16 0 -28 -16q-5 -3 -26.5 16.5t-21.5 26.5q0 23 -13 71t-13 83q0 15 2 15q10 0 -22 -4q-16 -2 -18 5q0 16 -23 99t-29 88 q-16 11 -31 23v53q7 10 36 24v2q0 5 -8.5 17.5t-12.5 12.5q-3 0 -11 -8.5t-12 -5.5l-15 9q-5 10 -30 57q-18 34 -18 59v8q20 20 22 23q0 36 -78 128q0 11 -2.5 32t-2.5 32l2 13q2 13 2 22q-2 10 -8 10q-8 0 -17 -4l-6 -1q-5 3 -12 23q-3 11 12 21l14 10q0 7 -14 6 q-36 25 -37 61q0 64 86 64q25 0 31 2q-3 -8 26 -28q5 -120 66 -284q34 -90 103 -274q57 -159 109 -246q8 -15 29 -54q7 -13 10 -22q26 0 51 45q23 38 24 67q36 30 45.5 91t32.5 83v41q23 56 60 128v67q5 8 61 64q0 7 4 19t4 19v5l-13 13v34q2 3 11.5 6t9.5 8q0 26 20 65.5 t20 37.5q0 87 23 126q31 51 111 51q40 1 40 -47zM860 868v3q-2 2 -3 2l-2 -2q0 -2 2 -3h3zM369 437v1q-2 3 -6 7h-10l-8 -8q0 -7 5 -7h13zM545 162v9q-2 3 -3 3h-2q-5 -2 -12 -15q-2 -7 -6 -16q2 0 3 -4h3q3 5 15 19q2 1 2 4z" />
<glyph unicode="W" horiz-adv-x="1591" d="M1511 1085q0 -3 -39 -92q-41 -94 -46 -115l-92 -423q-95 -425 -179 -425q-13 0 -41.5 36t-28.5 49q0 -20 5 27.5t5 60.5q0 39 -15 40l-15 -13q-13 -13 -25 -13q-10 0 -13 6v36l-23 20v30q-10 7 -28 53.5t-18 60.5l5 104l-5 5l-19 -20h-20q-8 36 -19.5 81t-11.5 72l5 28 q3 21 -4 21q-20 0 -29 20q-15 28 -25 37v84l-13 11q-20 0 -36 11.5t-23 11.5h-5q-82 -82 -161 -282q-44 -118 -134 -354q-74 -190 -135 -245h-10q-39 0 -39 23q0 2 3 12q2 8 -1 8q-5 0 -19 -6t-21 -6q-20 0 -19 48q0 26 14 61q-20 20 -19 31q0 11 10.5 36t10.5 38 q0 18 -5 18l-7 -4v-27l-9 -7q-8 0 -10 16v23q-5 11 -18 59q-11 38 -12 58q0 15 13 15q2 0 9.5 -4.5t10.5 -4.5q5 0 5 12l-15 38q-7 51 -16 101q-31 0 -31 43q0 15 15.5 16.5t15.5 23.5q-43 80 -53 90v36q15 13 15 21q0 5 -11.5 16.5t-11.5 22t-3 31t-3 30.5q0 26 -9.5 79 t-9.5 79q0 48 4 49q7 10 59 10l9 15q9 14 32 14q38 0 38 -27l-5 -260l6 -10v-59l8 -11v-59l9 -10q-3 -28 5 -82q10 -66 9 -85l9 -12v-44q8 -10 22.5 -111t31.5 -101q11 0 38 68t27 88q54 36 55 56q2 10 13 77q5 31 46 62l1 4q0 39 31.5 71t31.5 35q0 41 26 79l52 75 q0 31 1 33t14 25h25l1 3q0 66 -3 38q2 25 21 36q26 16 28 15l-12 8q-12 8 -12 23q0 38 24 38q10 0 16 -21l6 -22l8 5v39q21 36 33 36q36 0 88 -111q34 -72 94 -282q54 -194 102 -273q15 -25 30.5 -78t26.5 -73q5 -8 10 -8q10 0 50 61.5t53 69.5v40l22 28q-18 20 -13 42 q8 39 8 86q15 10 36 27q-5 31 -7 96l7 6h24l7 7v56q8 11 8 13t-14.5 6t-14.5 18q0 11 18.5 45t18.5 39q0 7 -11.5 18.5t-11.5 15.5q0 5 18.5 23.5t18.5 29.5q0 10 -4 10q-20 -13 -28 -13q-11 0 -11 18q0 11 3 35.5t3 36.5q5 7 34.5 22.5t36.5 15.5q28 0 65.5 -19.5 t37.5 -44.5zM1413 1062v1q0 8 -12 20q0 2 -2 3.5t-2 3.5h-4q-7 -7 -6 -13q0 -5 19 -22zM894 775v11q-3 3 -11 12h-2q-7 -7 -6 -10q0 -15 11 -20q8 4 8 7zM950 574l-5 5v-8h2q3 0 3 3zM1026 371v11q-3 10 -9 18q-3 3 -8 10h-6q0 -2 -4 -5l15 -14q3 -3 3 -27h5q4 4 4 7z M1122 259v4l-1 1v-8q1 1 1 3zM1145 161l-6 6h-2q-2 0 -3.5 -1.5t-2.5 -1.5l-13 -13v-39q0 -3 3 -4h5l8 9q0 8 3 19q0 2 4 12t4 13zM151 1027v7q-2 0 -3 3h-4q-5 -15 -5 -20h5q2 0 4 2q0 8 3 8zM290 125v39q0 3 -1.5 7.5t-1.5 7.5q0 10 3 13v11q-3 3 -3 9h-3q-20 -20 -20 -40 v-11q3 -5 12 -13q0 11 5 -23q3 0 3 -2h3q1 2 3 2z" />
<glyph unicode="X" horiz-adv-x="1186" d="M389 883q0 -8 -11.5 -15.5t-13.5 -10.5v-22l-8 -6q-7 0 -18 31q-7 16 -59 59q-8 0 -20.5 14t-16.5 15t-39 35q-18 2 -49 28q-2 21 -15 33v8q0 21 12 31q8 0 26 13q2 7 22 26h6q36 0 58 -16q59 -82 64 -90l9 -43q7 -2 22 -10q8 -33 29 -78zM527 771q0 -15 -22 -36 q0 -3 -1 -8v-8q0 -7 3 -17.5t3 -15.5q-2 -5 -13 -21h-6q-30 0 -30 31q-8 16 -23 39q-7 7 -18 20q-2 15 -5 36q-21 34 -21 56q0 11 8 19l5 2h15q5 -3 13 -16q0 -2 21 -15q16 -11 15 -30l3 -3h31q22 -22 22 -33zM1106 117q0 -28 -43.5 -53.5t-74.5 -25.5q-41 0 -81.5 89.5 t-41.5 89.5l-15 14v4q-2 10 -10 11l-8 3q-18 26 -59 74v25q-10 7 -29 56t-25 49q-5 0 -5 -8q0 -3 3 -15t2 -18q-3 -8 -15 -8h-2l-62 67v38l-7 6q-20 8 -42 8q-48 0 -135 -131q-30 -44 -144 -244q-75 -131 -95 -132q-20 0 -71 32q-8 0 -23.5 4t-24.5 4v52q36 0 179 191 q171 226 186 241q46 46 46 56v51q26 26 26 39q0 5 -8 17t-8 17q0 39 42 40q89 0 140 92q28 56 87 167v53q7 7 29 16q16 7 17 31q0 5 -5 18q-2 7 5 17h32q5 8 20 24h67q31 -15 32 -41l-147 -215t-147 -248q0 -36 207.5 -286t207.5 -271zM330 960v3l-3 4h-7q-3 2 -7 1h-6 q-3 -2 -3 -6q0 -7 6 -13h8zM271 973v10h-7v-2q0 -8 7 -8zM709 487v12q-5 7 -12 13h-3l-3 -3v-13l11 -12h4zM899 300h-24l-5 -5q0 -5 -12 -14q-5 0 -13 -9q-3 0 -3 -3q0 -5 3 -5h8q7 2 17 17q0 -5 11 6h7q3 2 5 2q0 -8 5 6zM834 320v8q-2 3 -7 7h-3q-3 -5 -3 -15l-2 -2 q2 -2 3 -6q5 1 12 8zM926 223v8l-5 5q-3 0 -4 -3v-8l5 -5q4 0 4 3zM784 361h-1q-2 0 -2 -2v-1q2 0 2 1zM944 199q0 10 -7 9h-7q-2 -2 -1 -3q-11 -11 -12 -16v-12q2 -2 4 -1h1q20 20 22 23z" />
<glyph unicode="Y" horiz-adv-x="1102" d="M1022 1088q0 3 -201 -287.5t-201 -357.5v-143q0 -15 3.5 -42t3.5 -41l6 -10q0 15 2 -35v-37q0 -118 -84 -119q-66 0 -65 41q0 13 15 23q0 10 10.5 30.5t10.5 32.5q0 7 -7 10v50q-11 10 -11 20q0 8 14 25.5t14 22.5q0 10 -15 21v28q2 7 15 8.5t13 7.5q0 7 -7 10h-24 q-20 16 -20 51q0 5 6.5 37t4.5 34q-2 5 -4 8q-62 0 -63 67q0 2 24 15t24 29l-4 4l-14 -2q-7 -2 -10 -2q-5 0 -7 2q-8 3 -6 15l-12 11h-1q-3 0 -6.5 -8t-7.5 -11h-19q-21 36 -22 31q0 10 2.5 29.5t2.5 29.5q-2 13 -11 13q-5 0 -13 -8h-28l-7 6v38q-2 5 -49 46q-38 33 -39 74 q-3 3 -23 0q-21 -3 -22 13q0 2 11.5 17.5t11.5 25.5q0 11 -16 11q-5 0 -14 -8t-16 -8q-13 0 -13 31q-10 2 -26 13v25q-13 2 -30 15q0 44 22 78q25 41 67 41q7 0 172.5 -251t216.5 -251q16 0 58 49.5t44 67.5l23 26q0 31 21 44q11 5 25 12v49l26 43q28 16 28 23q0 64 6 77 q3 7 50 52v5q0 94 88 94q26 0 51.5 -18t25.5 -43zM848 975q0 2 -2.5 3.5t-2.5 2.5h-3l-11 -11v-8q0 -2 2.5 -3.5t2.5 -3.5l6 7q1 5 8 13zM394 729q0 11 -12 18h-1q-3 0 -4 -4v-8l5 -5q2 0 7 -1h5zM292 845h-6l-7 -6v-4q2 -3 7 -8h3q0 2 1 3v7q2 6 2 8zM543 546l-1 2 q0 3 -4.5 7.5t-4.5 5.5q-3 10 -13 15v-10l18 -20h5zM561 520q0 2 -5 7h-3q-3 2 -5 1v-3q2 -3 3.5 -4.5t4.5 -5.5zM530 404l-5 6v-6h5zM530 56l-2 1q0 2 -1 2h-2v-10z" />
<glyph unicode="Z" horiz-adv-x="1137" d="M1027 1136q0 -16 -154 -171q-56 -56 -318 -437q-267 -387 -268 -420q0 -36 127 -36q13 16 26 17q10 0 16.5 -10t7.5 -10l22 17q21 17 37 17q2 0 20 -9.5t28 -9.5q2 0 7.5 9.5t10.5 13.5l90 19q7 0 16 -3t11 -3q7 3 26 23q10 0 28 2.5t28 2.5q30 0 29 -27v-21q-3 -5 -1 -5 q3 0 26.5 30.5t42.5 30.5q26 0 31 -20q2 -3 1 -41q0 -54 -5 -56h-36q-7 3 -11 25l-3 3q-7 0 -19 -13h-73q-26 -16 -43 -16q-2 0 -34 16l-68 2q-26 -25 -36 -25t-19 11t-12 11q20 0 -22 -14t-60 -14t-59 -12.5t-59 -12.5q-11 0 -12 20q0 -7 4 19q2 13 -5 14 q-10 0 -21.5 -26.5t-21.5 -26.5h-123l-21 20h-2q-8 0 -23 -4.5t-21 -4.5q-13 0 -14 61q0 8 14 19.5t14 16.5q3 39 18 46q23 11 37 33q26 44 37 56q36 5 70.5 68t29.5 63q41 0 76 69q49 97 63 111t65 93l15 14q11 0 21.5 24t15.5 29l179 302h35q8 13 13 41l8 13l3 7 q-8 0 -31.5 -7.5t-35.5 -7.5q-28 0 -28 24q0 2 5 20q2 5 2 8q0 7 -5 7q-8 0 -18 -33.5t-27 -33.5q10 0 -24 4q-11 2 -21 -13q-16 0 -49.5 -4t-49.5 -4q-16 -15 -20 -15q-72 3 -92 -9q-15 0 -41.5 -6t-41.5 -6q-25 0 -71 14t-69 14q-13 0 -18 -7q-74 0 -74 45q0 13 14 32 t27 19q7 0 20 -12l13 -10q15 0 36 22l17 -12q3 -2 13 3q3 2 13 2q18 0 54 -6.5t54 -6.5q7 0 19 10t21 10q10 0 14 -11.5t5 -11.5q3 0 6 11.5t9 11.5q7 0 20 -8.5t21 -8.5l18 17q20 0 23 9.5t8 13.5h30l16 -15q2 -2 17 10.5t38.5 12.5t43.5 11.5t24 11.5q10 0 23.5 -15.5 t16.5 -15.5q8 0 34.5 15.5t37.5 15.5q49 0 28 -2q13 2 25 18q18 0 51.5 2.5t51.5 2.5q21 0 41.5 -18t20.5 -39zM1057 75q0 -15 -22 -42q-13 -5 -42 -10q-5 -7 -12 -7q-21 0 -41 20q0 23 -14 64v12l9 23q5 13 18 13h55l39 -13q0 -2 5 -6t5 -9v-45zM825 1093v5l-4 -5h4z M437 44v7q-3 2 -12 10h-3l-4 -2v-15q2 0 3.5 -2.5t3.5 -2.5h5q4 2 7 5z" />
<glyph unicode="[" horiz-adv-x="425" d="M345 1439q0 -53 -49.5 -84.5t-49.5 -104.5l-8 -11v-236l-8 -10v-345l-8 -10v-513q-7 -5 -7 -25q0 -8 12.5 -38.5t18.5 -30.5l10 5q72 0 72 -57q0 -25 -75.5 -68.5t-104.5 -43.5q-34 0 -40 59q2 -18 2 77q0 10 -12 30q0 2 7 15.5t7 22.5q0 10 -9 14v36l9 12q0 15 7 40.5 t7 34.5q0 31 12 46l11 15q0 13 -11 15q-16 2 -18 5v80l-8 10v44q20 20 19 28q0 13 -9.5 37t-9.5 37q0 18 14.5 36t14.5 25q0 20 -10 59t-10 59q0 48 14 62.5t14 16.5q0 7 -14.5 20.5t-14.5 20.5q0 13 8 18v43q10 3 26 16l4 3q0 16 -46 53q0 8 7 24.5t7 22.5q0 8 -6 17v41 q-7 7 -3 29q5 23 4 35q0 39 -4.5 118.5t-4.5 119.5q18 36 24 36h2q8 -3 21 -13l7 -10q5 0 5 8q0 46 -2 43q2 3 41 41q10 0 27 3t27 3h28q10 0 31.5 -14t21.5 -22zM167 1044v10q0 7 -11 24q0 5 -5 5l-2 2l-3 -4v-8q0 -2 2.5 -6t2.5 -5q0 -18 16 -18zM149 125q0 5 -6 11h-5 q-2 -3 -7 -6v-2q2 -3 7 -8q0 -2 1 -3h7q3 3 3 8z" />
<glyph unicode="\" horiz-adv-x="930" d="M558 553q0 -30 -16 -30h-4q-5 5 -13 22l-6 6q-2 2 -5 -3q0 -10 -4 -20l-5 -5h-27q-16 10 -31 43t-15 54q0 20 6 20h17v31q-2 2 -4 2q-13 0 -24.5 -14t-16.5 -14t-19.5 25.5t-19.5 28.5q3 15 -2 28q-30 26 -29 59q0 7 5 19t5 17q0 10 -20 33l-5 3l-5 -10q-5 -8 -15 -8 q-8 0 -21 20v59l-7 5q-28 0 -31 2q-15 3 -15 23q0 10 10 27t10 27q0 28 -15 28q-8 0 -11 -7v-25l-7 -5h-19q-3 2 -28 47t-25 50q0 16 7 36q-5 8 -38 43h-17v71q8 0 28 3q26 23 45 23q67 0 119 -133q43 -108 43 -187l26 -8q21 -7 22 -20v-51q21 -16 21 -33v-39 q-2 -11 -20 -28v-5q0 -5 11.5 -15.5t15.5 -10.5l5 5q6 6 16 6q20 0 20 -21q0 -8 -8.5 -19t-8.5 -14t32 -22t40 -29q33 -36 33 -59l20 -19v-12zM850 51q0 -46 -46 -46q-18 0 -26 20.5t-12 23.5q2 8 0 17l-5 6h-3l-5 -6v-30l15 -16q0 -15 -18 -15l-16 5l-5 6q0 11 -35.5 62.5 t-35.5 72.5q0 13 7 21v4q-8 7 -15 13q0 11 -23 31v38q-11 5 -26 14v33q-3 7 -15 8q-13 30 -51 79q-41 90 -41 104q0 5 5 11q20 8 24 8h7q30 -21 61 -42q33 -30 31 -64l15 -14l1 -11l7 -7q30 -8 29 -47q0 -11 7.5 -31t7.5 -32q0 -23 -6 -31h3q2 0 12.5 4.5t18.5 4.5h13 q34 -51 115 -168q5 -6 5 -26zM213 1080v16q-2 3 -3 3h-11l-5 -4v-7q5 -13 8 -13h5q2 0 3 2.5t3 2.5zM307 967v4q0 5 -5 5l-2 2q-7 -8 -6 -7l-4 -4q0 -5 -4 -11t-4 -7q0 -5 4 -5h1q2 0 6 8t7.5 10t6.5 5zM330 903q-2 2 -3 1h-4l-1 -1q0 -2 1 -4h4q3 1 3 4zM501 583l-2 1 q-5 7 -10 15q2 7 -28 26q-3 0 -3 2h-3q0 -2 -2 -3q0 -8 8 -17q0 -11 25 -28h11zM645 281v3l-3 5v-8h3zM635 294q-5 13 -15 13q4 -13 15 -13z" />
<glyph unicode="]" horiz-adv-x="420" d="M340 -74q0 -8 -19 -33.5t-26 -25.5h-28q-11 0 -27.5 12.5t-17.5 23.5l-23 23q-84 5 -84 63q0 10 8 9q7 0 17.5 -6.5t15.5 -7.5q18 -2 18 6q0 20 24 63.5t24 67.5q0 8 -9.5 29t-5.5 37q3 15 23.5 43.5t20.5 50.5q0 16 -5 16q-10 0 -13 -8v-25l-7 -5h-23q-7 3 -6 17 q0 25 27 48.5t27 20.5q0 5 -22 13t-22 36q0 18 15 34q0 16 2 47.5t2 47.5q0 7 -13.5 21t-13.5 21q0 21 15.5 68.5t15.5 67.5q0 -5 -17 11v58q-7 8 -6 26v16q2 3 13 9q7 5 6 13q0 25 -13.5 74.5t-13.5 76.5q0 13 11.5 30t11.5 22t-9 17v49q-30 56 -29 98q0 5 6 8h20 q2 -2 5 -10.5t8 -8.5q7 0 7 3q0 13 6.5 36t6.5 33q0 16 -5 16q-8 0 -15.5 -26t-15.5 -26t-13 11q0 39 -17.5 81t-17.5 39q0 -11 3.5 17.5t3.5 35.5q-2 16 -12 16h-6v-56q-3 -5 -10 -5q-39 0 -40 59q0 16 15 35.5t30 19.5h52q36 0 122 -97l16 -1259q0 -15 3.5 -45t3.5 -47 v-105zM266 135v9q-2 3 -8 9v-22l1 -3h4q0 4 3 7zM222 -56v18q-2 0 -4 2h-6l-2 -2v-18q3 -5 5 -5t3.5 2.5t3.5 2.5z" />
<glyph unicode="^" horiz-adv-x="726" d="M647 801q-59 -59 -74 -59q-10 0 -20.5 12t-12.5 12t-8.5 -4t-12.5 -4q-11 0 -28 20v28q18 16 19 13q0 3 -13 8t-15 7q-13 43 -13 31q0 56 15 56q18 0 18 -32q2 -3 5 -4l7 4l3 14q-26 39 -35 46h-24q-7 8 -15 31q-3 7 -28 26q-3 10 -10 31q-10 8 -24 8h-4q-21 -21 -36 -52 q-11 -25 -28 -56q-25 -25 -62 -75q-10 -26 -18 -55q-13 -30 -39 -41h-28l-7 7l-1 10q-8 16 -28 47q-10 2 -27 12q-5 23 -5 28q0 10 7 27t7 25l6 7l8 1q3 10 10 27l18 18q0 13 14 36t14 38q8 -3 21 29q16 8 46 35q10 20 30 55q-2 -3 -5 20q-2 7 -2 12q0 10 7 14l10 2 q8 0 19 -5l10 -5h4l5 7v5q-2 0 -5 23q-2 11 8 19l5 2h59q30 0 51 -102q16 -77 18 -123h16q8 -7 18 -16q2 -5 5 -17q18 -28 51 -67q3 -10 10 -31q7 -8 26 -8q34 -31 58 -59v-38zM558 857v24l-3 4h-2l-3 -4v-24q0 -3 3 -4h2q3 1 3 4zM550 827v2q-11 11 -15 11q-3 0 -10 -15 q-3 -2 -3 -4v-10q5 -3 13 -10h3q3 2 5 6q7 12 7 20zM171 858v43q-2 7 -3.5 8.5t-8.5 7.5h-1l-12 -11v-35q0 -5 13 -18h7q2 0 5 5z" />
<glyph unicode="_" horiz-adv-x="1071" d="M991 -187l-1 -10q-7 -8 -22 -20h-10q-8 0 -18 5l-10 5q-5 -2 -16 -10h-10q-15 0 -23 7h-3q-7 -7 -20 -7q-23 0 -26 32q-48 -3 -59 24h-2q-2 0 -5 -1v-19q7 -7 7 -9v-20q0 -15 -25 -15q-11 0 -28 15h-14q-7 0 -19.5 -3.5t-18.5 -3.5q-16 0 -38 15h-3q-8 0 -23 -11.5 t-30 -11.5q-8 0 -18.5 4t-12.5 4q-7 0 -19 -4t-19 -4q-28 0 -27 17q0 7 7 18t7 19q0 5 -3 12.5t-3 12.5q0 16 24 16q5 0 15 -3t15 -3t12.5 3t12.5 3h1q3 -2 7 -5v-23q10 -3 6 -3h2l33 31h11q49 0 84 -31h3q5 5 41 31h5l12 -11h1q5 0 7 3h43q10 -8 32 -8q3 0 10.5 4t14.5 4 q10 0 18 -6q2 0 6.5 3t6.5 3q34 0 40 -1q13 -8 27 -15q15 -18 15 -33zM463 -218l-5 -7q-7 -2 -10 -1q-5 0 -13 1l-13 12h-4q-11 -11 -26 -12q-34 0 -39 35l-10 8q-2 -2 -5 -2q0 -43 -11 -49q-5 0 -14 -4t-14 -4q-21 0 -40 23l-1 16l-9 8l-8 -1q-2 -5 1.5 -11.5t3.5 -10.5 q0 -16 -20 -16q-11 0 -24 15q-25 2 -20 1h-8l-7 7v10q5 5 18 15q2 10 2 11q0 8 -3 8h-2q-18 -15 -21 -18q-5 -8 -7 -26q-11 -15 -24 -15q-10 0 -21 13t-11 23v28l5 7q7 -2 14 -2q10 0 24.5 9t22.5 9q5 0 12.5 -4t12.5 -4q20 0 33 10h57l11 6q11 5 22 5q7 0 13 -1 q5 -8 16 -20h9q21 0 32 10h43q5 7 16 6q8 0 20 -8q2 -2 2 -6v-74z" />
<glyph unicode="`" horiz-adv-x="443" d="M363 999q0 -30 -20 -42h-7q-33 0 -32 31q-20 36 -68 90q-2 15 -8 43q-13 15 -23.5 28.5t-14.5 40.5q-8 8 -16 29q-18 15 -66 66q-10 11 -10 34q0 8 4.5 24.5t4.5 25.5q11 11 24 31q8 7 12 6q20 0 51 -46v-49q10 -11 24 -13q8 -7 22 -23v-10q0 -8 -7.5 -22t-7.5 -16 q7 -5 15 -14q2 -2 5 -10q11 -3 18 -12v-21q-5 -10 -15 -13q2 -3 6 -3q7 0 21 2.5t20 2.5q7 -3 21.5 -33t14.5 -38q0 -13 -6 -20v-5l18 -21q20 -22 20 -43zM158 1277l-2 1q0 2 -2 5h-3q-3 -2 -3 -3v-5q2 0 3 -3h3q1 2 4 5zM300 1077v8q0 3 -1 6v7q-2 0 -4 3h-6l-2 -3v-12 q0 -6 13 -9z" />
<glyph unicode="a" horiz-adv-x="1117" d="M1037 377q0 -15 -2.5 -41.5t-2.5 -41.5v-41q0 -13 -10 -30v-121l-8 -12q0 -13 3.5 -38.5t3.5 -38.5q0 -48 -97 -47q-26 0 -26 19v61q2 7 13 25q0 33 1 55q-181 -113 -302 -113q-11 0 -33 -3t-33.5 -3t-34 -2.5t-33.5 -2.5q-15 0 -26 9h-58q-3 3 -8 4q-75 0 -75 24 q0 -7 6 22q3 15 -6 14q13 0 -4.5 -18t-30.5 -18q-15 0 -41 25l-36 34q-10 -10 -20 -9q-15 0 -33.5 16t-18.5 31v31q2 3 15 8.5t13 11.5q-2 3 -5 3l-6 -4q-7 -5 -17 -5q-23 0 -23 9v35l19 15v1q0 10 -3 30.5t-3 30.5q7 5 16 13v26q8 7 22 7h13q7 -3 5 -3h3l-3 34 q16 7 22.5 11.5t8 19.5t117.5 64t144 49t79.5 11t77.5 11q16 0 50 2.5t50 2.5q26 0 27 -38q0 -23 -23 -23q-16 0 -50 9t-52 9q-33 0 -75.5 -16.5t-64.5 -17.5q-10 -8 -32 -20q-62 -3 -137 -49q-84 -51 -83 -109v-77q0 -34 73.5 -99t108.5 -65q67 0 90 -8q7 -2 8.5 -11 t6.5 -9l6 4v18q31 7 81 18q25 8 51 16q25 2 77 23q53 44 159 123v25q8 3 21 14q0 5 4 12q-3 11 -2 23l-2 2v36l4 3q-3 28 -4 41q-2 3 -6 7q-20 2 -34 23t-12 21q-21 0 -59 22t-38 40q0 5 4 16.5t4 16.5q10 11 22 12q10 0 37 -20q3 -3 29 -35t27 -32q7 0 7 6q0 5 -9 14t-9 16 q0 11 13 11q8 0 33 -15q23 15 23 12q0 8 -17.5 22t-17.5 58q0 20 -144 164l-15 -1q-26 0 -41 33q-10 26 -21 26l-5 -5q-16 -41 -30 -41h-36q-5 3 -12.5 21t-13.5 18q-20 0 -38 -19.5t-28 -19.5t-15 21.5t-11 21.5h-5q-20 -23 -59 -53q-46 -34 -66 -34q-16 0 -16 11 q0 7 6.5 21t6.5 17q0 7 -7 6q-10 -11 -24 -28q-3 -28 -20 -27q-13 0 -13 14q0 57 37 91t94 34q5 0 22 -15h73l5 -13q5 -11 13 -11l4 6q0 7 6 17h73l6 -7v-23l7 -2q5 0 7 16t7 16h81q5 -2 11 -7q194 -8 251 -241q25 -98 32 -107q-2 -11 2 -28.5t4 -23.5v-50zM929 423v12 q-3 2 -7 6v0q-2 -2 -1 -3v-10q0 -5 8 -5zM944 304v9q5 0 -5 -14zM940 102v1q0 3 -3 4h-3q-2 -2 -2 -4v-1q0 -2 2 -4h3q3 1 3 4zM930 -2q0 13 -9 23h-4q0 -2 -1.5 -4t-1.5 -4q5 -15 15 -15h1zM279 90v5l-8 7q-8 8 -13 8q0 -2 -5 -2l-2 -1v-4q-2 -2 -2 -3q0 -7 12 -15h3z M190 113v4q0 2 -1 1h-4q-3 0 -3 -1v-4h8z" />
<glyph unicode="b" horiz-adv-x="1130" d="M1050 315q0 -103 -144 -205q-133 -94 -240 -94h-44q-7 8 -7 15q0 11 23 37.5t35 26.5q5 0 10.5 -10t12.5 -10h5q41 31 92 78q25 36 80 103q13 8 38 26h1q0 3 -4.5 10.5t-4.5 11.5q0 8 14.5 32.5t14.5 27.5l-6 12q-7 11 -7 19q0 10 2.5 29t2.5 29q0 33 -21 49v7 q0 8 9.5 12t9.5 7q0 13 -10 14q-5 0 -16 -3.5t-18 -3.5q-7 3 -7 14t-4.5 35.5t-4.5 37.5l-20 21h-7v-41q-3 -7 -10 -6h-3q-7 5 -21.5 28.5t-14.5 30.5q0 3 25 28v24l6 7h28q5 -10 38 -33q23 -16 23 -46l3 -3l28 -2q11 -16 36 -44l40 -72q38 -71 37 -123v-76zM773 729 q0 -11 -9 -28.5t-19 -17.5q-16 0 -49 9.5t-48 9.5q-13 0 -21 -6q-128 3 -251 -71q-141 -84 -141 -205q0 -174 134 -308q33 0 39.5 -16.5t13.5 -16.5q11 0 20 12t24 12q28 0 45 -22l17 -22q7 0 24 6.5t26 6.5q16 0 16 -19q0 -8 -10 -26.5t-18 -18.5h-75q-11 0 -25.5 27 t-17.5 27q-5 0 -5 -9q0 -25 -2 -28h-32q-7 0 -18 14h-48l-5 5v36l-16 4q-13 0 -38 5.5t-35 5.5t-9 -15q0 -13 9 -41.5t9 -43.5q26 -26 28 -31q0 -72 -55 -72q-15 0 -36 10q-28 10 -28 23q0 5 7.5 19.5t7.5 19.5q-18 28 -16 56l-12 11q-5 -2 -5 -16q0 -2 4 -17q2 -8 0 -14 q-2 -7 -12 -7q-8 0 -17 14t-9 22q0 41 11 62q7 11 40 48q0 33 -19 75.5t-19 50.5t11.5 20.5t11.5 17.5q0 8 -5 8t-8 -8t-8 -8q-31 69 -32 105q0 15 12.5 46t12.5 48q0 8 -2.5 24.5t-2.5 24.5q-20 13 -20 33q0 11 10 26t10 21q0 5 -10 19t-10 22q0 39 17 48q30 16 28 19 l-13 17v6q0 15 -5 46.5t-5 45.5q38 41 38 48l-28 33v28q2 3 9 5.5t7 5.5q0 13 -13 24.5t-13 28.5l10 69l13 14v36q-11 7 -13 19q-2 8 1.5 23.5t3.5 21.5l-20 20v5q0 51 20 59h27q7 -5 7 -11q0 2 -3 -13q-2 -11 3 -12q7 0 11.5 12.5t26.5 12.5q90 0 44 3q23 -2 35 -28v-36 q-54 -62 -55 -279q0 -34 2 -79l2 -49v-100l6 -5q20 0 48 -15q2 0 16.5 25.5t24.5 25.5q18 0 49 10.5t43 10.5h156q16 13 31 25h36q11 -8 26 -5q11 3 23 7q16 0 47.5 -14t31.5 -27zM154 153q0 -13 -15 -14h-13l-5 5v28l5 7h23l5 -7v-19zM169 561v5h-7q-2 -3 -13 -15 q-11 -2 -11 -3v-10l1 -3v-3q2 0 3.5 -2.5t3.5 -2.5h3q3 3 7.5 11t9.5 13v4l1 1q2 2 2 5zM143 410q-2 5 -4 5l-1 3h-3q0 -8 3 -8v-1h1q4 -1 4 1z" />
<glyph unicode="c" horiz-adv-x="830" d="M725 663q0 -3 -8 -11.5t-11 -8.5h-20q-8 0 -28 15q-13 13 -25 21q-13 3 -39 17v19q3 7 7 12v59l8 5h41q3 -2 6 -5v-15q-13 -8 -13 -23q0 -10 13 -16q5 3 7 6v25l7 7h27q28 -23 28 -32v-75zM750 136q0 -49 -2.5 -55.5t-33.5 -34.5h-105q-7 -8 -49.5 -19t-57.5 -11 t-38.5 -4t-35.5 -4q-13 0 -36 13v28q-2 3 -8 4q-3 0 -14 -11.5t-24 -11.5q-7 0 -19 6.5t-15 6.5q-69 0 -82 32v14q0 21 11.5 27.5t11.5 14.5q0 13 -8 13t-19 -13q0 -23 -11 -23q-5 3 -28 23q-33 5 -33 22v36q8 11 5 14q-44 0 -44 20q0 59 28 77l-5 7q-5 0 -11.5 -10 t-14.5 -10q-11 0 -14 5q0 25 3.5 72.5t3.5 72.5q5 7 16 19q3 25 14 75t31 66h24q18 31 112.5 104.5t122.5 73.5q16 0 36 8t21 8h84q20 0 20 -48v-11q-3 -5 -7 -5q-26 0 -42 -15h-51l-182 -106q-117 -82 -117 -155v-111q7 -8 8 -48q7 -21 22 -49v-43l21 -19q2 -8 5 -9h3 q10 15 18 15q18 0 30.5 -19.5t18.5 -31.5q21 0 40 -16q8 0 23.5 -8.5t23.5 -8.5q20 0 61 4.5t61 4.5q33 0 56 -7q23 30 47 30q3 0 11.5 -3.5t13.5 -3.5q25 28 54 28q31 0 46 -20zM427 80v4q0 11 -17 11q-8 -8 -8 -26v-8q25 -1 25 19zM341 61v3q-2 0 -3 3l-8 2q-10 8 -17 26 q-2 0 -3 2h-3l-2 -2v-1q0 -15 5 -25v-13l2 -2q0 -2 1 -1q3 0 5 1.5t4 1.5q9 0 19 5z" />
<glyph unicode="d" horiz-adv-x="1130" d="M1050 371q0 -56 -5.5 -167.5t-5.5 -167.5q-3 -3 -31 -59q-23 -46 -46 -46h-32q-8 7 -12 30t-7 23q-56 0 -56 14q0 26 31 61t31 38q0 59 -13 59q-23 0 -156 -78t-182 -78h-97l-6 7v21q28 28 31 29q8 0 16.5 -17t22.5 -17q5 0 7 10.5t5 12.5q23 11 80 56q21 21 96 62 t113 76q20 18 62 83q34 53 61 64v23q-26 26 -28 30q-10 13 -10 41q0 18 10.5 26t10.5 10q0 15 -11 25q-16 13 -18 16v20q21 13 21 21t-13 43q-7 0 -16 -22.5t-10 -22.5h-23q-3 3 -21.5 42t-21.5 39q-2 -2 -25 -5q-13 -2 -17 9.5t-7 23.5h-40l-6 5v44q-5 11 -13 11l-5 -5 q0 -57 -21 -57q-136 0 -293 -94q-174 -105 -174 -236q0 -61 43 -172q49 -130 104 -130q11 0 28 -12t21 -12q2 0 9 4t10 4q5 0 5 -10v-10q0 -41 -32 -41q-25 0 -36 18l-10 18q-5 0 -16 -11.5t-21 -11.5q-16 0 -29 20.5t-20 20.5q-13 0 -15.5 13t-5.5 13t-14 -3t-16 -1 q-8 2 -8 11q0 7 6.5 25.5t6.5 28.5q0 15 -13 15q-2 0 -8.5 -20.5t-14.5 -20.5q-23 0 -34 38q-43 43 -43 72q0 8 11.5 19.5t11.5 18.5v5l-15 -15q-5 -3 -10.5 6.5t-5.5 14.5q0 16 -8.5 35t-8.5 26q0 5 15 28v110q2 3 20 13t21 10q7 0 12 -16.5t10 -16.5q15 0 14 8 q0 7 -4 21.5t-4 22.5l-15 13v32q5 8 15 21h28q95 79 133 102q20 13 126 64q41 20 61 19q31 0 51 -13t18 -13l54 48h69q30 0 44.5 -14t12.5 -14q2 0 5.5 9t8.5 11q38 0 42 -14l5 -11q15 0 29 -8t16 -8q8 0 24 16q0 8 6 25.5t6 26.5q0 28 -10 40v44q21 138 21 161l-12 17 q-11 17 -11 52q0 10 10 29.5t10 29.5v3l-46 36q-28 21 -28 45q0 43 41 42q8 0 8 -11l-1 -5q-11 -15 -12 -26q0 -5 5 -5t16.5 23.5t26.5 23.5q98 0 98 -62q0 -16 -6 -21v-112l-9 -11v-37l9 -11v-158l8 -11q0 -46 5.5 -135.5t5.5 -135.5v-236zM939 1239q0 2 -2 3h-3v-3h5z M876 661h-3q0 -2 -1.5 -4t-1.5 -6v-3q1 0 6 13zM942 161v1q0 2 -2 2v0q-2 0 -1 -2v0q1 1 3 -1zM158 394v20q-2 0 -4 1h-3l-2 -1v-23q2 -2 2 -4h3q0 2 2 3.5t2 3.5zM143 331v20q-2 3 -4 3h-1q-3 -2 -3 -3v-20q2 -2 3 -1h1q2 -1 4 1z" />
<glyph unicode="e" horiz-adv-x="889" d="M811 505q-5 -48 -38 -47q-46 0 -53 1q-11 3 -36 28h-5q-7 0 -15.5 -6.5t-13.5 -6.5q-41 0 -97.5 -19.5t-78.5 -19.5q-13 0 -18 6h-42q-7 8 -14 9q0 -2 -19 -15h-7q-8 0 -23 6l-15 9q-34 0 -73 -12q-53 -15 -53 -39v-99q0 -16 24 -70t35 -63q48 0 48 -37q0 -10 -15 -42 t-23 -32q-10 0 -23 20l-13 21q-36 0 -40 5q-16 26 -21 29q-56 49 -67 71q-16 31 -17 110q0 11 5 15h23q0 8 3.5 22.5t3.5 23.5q0 13 -12 19q0 15 6 44.5t6 44.5q0 8 -6.5 23.5t-6.5 23.5l1 10q18 13 20 33q2 11 18 12h30v42q15 10 35.5 52t41.5 53h15q10 0 24 -5l8 2 q0 44 32 46q44 3 60 28q23 2 45.5 15.5t30.5 13.5q11 0 32.5 -6.5t32.5 -6.5q66 0 91 -15q11 -7 25 -40t34 -48q26 -18 75 -54q38 -30 38 -91q0 -75 2 -64zM788 92q0 -20 -48 -59q-3 -3 -39 -14t-43 -11q-5 0 -33 13q-3 0 -18.5 -6.5t-20.5 -6.5q-11 0 -41 17q-5 0 -15 -4.5 t-15 -4.5q-7 0 -17.5 4.5t-15.5 4.5q-3 7 -9 11h-12q-28 -20 -43 -20q-16 0 -26 11.5t-13 11.5q-7 0 -16.5 -4.5t-12.5 -4.5q-10 0 -37 31v28q0 21 25 42q13 3 15 4q10 0 16 -7q0 -5 13 -16q25 -2 49.5 -21t23.5 -19h1l20 23q11 13 56 13q20 0 34 -19h7q11 0 13 14q3 3 23 9 q2 0 12.5 15.5t18.5 15.5q5 0 15.5 -7.5t15.5 -7.5h2l20 15q10 0 29.5 2.5t29.5 2.5q36 0 36 -28v-28zM514 766v4l-4 3h-1l-4 -3v-4l4 -3h1zM691 609l-11 21q-10 20 -12 31q-7 7 -8 25q-10 10 -23 31l-8 3q-3 -2 -14 -8t-18 -6q-10 0 -23 15.5t-16 15.5t-2 -2 q-33 -13 -44 -13h-7q-7 5 -13 12h-18q-34 -11 -92 -45q-54 -54 -119 -151v-11q5 -7 11 -12h10q13 0 21 7h12q7 -7 24 -8q5 -10 12 -20q2 0 5 2q0 18 8 26h7q5 -3 21 -8l6 -7l2 -8l3 -3h2q0 10 3 26q11 13 25 13q10 0 28.5 -6t28.5 -6l15 19q16 20 31 19q-2 0 10 -3 q5 -8 13 -12h10q5 0 14 3.5t12 3.5t9 -3.5t9 -3.5h2q74 50 74 63zM458 496q0 2 -2 3h-3q-3 0 -3 -3q2 -2 3 -2h3zM350 471v5q0 3 -4 3h-1q-3 -2 -10 -8v-3q2 0 3 -2h7zM520 61v3q-2 3 -8 7h-2v-15q2 0 4 -3h3q0 3 3 8zM149 256q-3 5 -11 15l-7 -7l8 -8h10zM210 179v10 q-2 3 -5 7t-8 9q-3 0 -3 2h-4q-2 -2 -5 -7q0 -2 2.5 -6t2.5 -5q2 -10 4 -12l5 -5h6q0 2 2.5 3.5t2.5 3.5z" />
<glyph unicode="f" horiz-adv-x="835" d="M891 1300q0 -51 -34 -51q-18 0 -52.5 47.5t-36.5 47.5q-26 -15 -39 -15q-21 0 -22 31q0 5 4 15q2 10 0 15q-2 7 -12 7q-7 0 -13.5 -15t-7.5 -17q-10 -10 -87 -13q-100 -5 -158 -149q-18 -51 -54 -154v-43l-8 -12v-205q21 -26 34 -26q10 0 32 15t32 15q5 0 12.5 -7.5 t12.5 -7.5q36 36 46 36q16 0 39 -13v-40l5 -3l43 43q43 44 92 44h18q28 -11 28 -39q0 -41 -41 -64q-33 -20 -77 -20q7 0 -37 20q-5 2 -37.5 -9t-35.5 -11q-26 0 -88.5 -22t-77.5 -39v-51l8 -11v-158l8 -11q0 -23 3.5 -70t3.5 -70v-267q0 -7 -15 -21.5t-21 -14.5 q-28 0 -54 11q-34 16 -35 40q0 26 10 76t10 76l-2 5l-5 7q-15 10 -15 8l4 8l13 13l5 92q-15 25 -15 33q0 10 12 10q5 0 8 -10t6 -10q10 0 10 15l-5 26l-15 15v10q0 13 12 17l11 4q0 16 -8 17q-44 0 -36 -2q-18 3 -18 38q0 20 15 28h33l6 5v27l-5 4q-20 -23 -23 -23 q-26 0 -26 21q0 11 18 28l20 18q0 18 -27 47.5t-47 39.5q-13 -8 -33 -15q-3 2 -15.5 12.5t-20.5 10.5q-54 0 -39 -3q-8 2 -9 8q0 59 51 59q108 0 109 84v41q0 41 19.5 106.5t19.5 83.5q0 48 16 51q5 2 5 15q0 5 -19 16v23q8 7 13 7q2 0 11.5 -6.5t12.5 -6.5q5 0 5 8 q0 13 -5.5 32t-5.5 20q0 8 28 42q0 18 46 62q26 25 62 57h33q8 3 46 27q25 15 61 14q153 0 180 -24l61 -4q39 -7 39 -36q0 -11 2.5 -32.5t2.5 -32.5zM297 898v11q-2 3 -7 5q-5 -2 -6.5 -3.5l-4.5 -4.5v-5q5 -7 11 -8q4 2 7 5zM315 706v5h-2v-5h2zM315 118v12h-2l-3 -4 q0 -2 -1 -3v-5h6z" />
<glyph unicode="g" horiz-adv-x="1125" d="M1045 36q0 -7 -4 -24t-2 -28q-16 -105 -63 -251q-28 -43 -88 -81q-84 -53 -95 -62h-76q-7 -8 -23 -8q-18 0 -41 23h-3l-21 -22q-20 0 -46.5 14t-26.5 32q0 31 102 31q16 0 26 -19.5t17 -19.5q-2 0 37 48q23 7 60 24l36 35q11 21 34 55l17 10q16 8 16 12q-3 54 -3 65 q2 21 6 25h25q11 15 11 33q0 8 -9.5 18.5t-9.5 14.5q0 15 4 45t4 45q2 5 13 5h23q0 11 5.5 32.5t5.5 32.5q0 21 -9 22q-7 0 -15 -15v-44q-8 -7 -12 -7q-20 0 -19 20q0 7 5.5 29.5t5.5 34.5q0 31 -25 31q71 0 -87.5 -72t-192.5 -72q-15 0 -30 -10h-80q-21 -15 -33 -15 q26 2 -46 2l-10 -9h-36q-7 3 -6 15v13l3 9q-5 0 -20 -18.5t-24 -18.5q-11 0 -21.5 17.5t-13.5 17.5q-7 0 -14 -9t-10 -11h-4q-23 20 -24 31h-28l-22 33h-18q-92 71 -92 154q0 31 16 40.5t16 15.5q0 5 -14 20t-14 23q0 33 33.5 95t33.5 85q0 31 59 97t90 66q43 0 69 26 q36 36 51 43q21 -2 67 11t56 28q20 0 57.5 2.5t57.5 2.5q8 10 13 10h4l27 -28q3 -2 15 9t17 11q11 0 34 -7.5t38 -7.5q20 -13 19 -67q0 -28 2 -30q56 82 56 95t-12 22q0 59 30 59q21 0 61.5 -22.5t40.5 -40.5l1 -280l9 -12v-123l8 -10q0 -20 3 -57.5t3 -57.5v-231zM542 -387 q0 -8 -14 -22h-47q-39 -23 -48 -23q-3 0 -9.5 3.5t-9.5 3.5q-7 -2 -17 -7q-72 0 -82 -4t-13 -4q-5 0 -28 17q-2 10 -2 11v5q-10 10 -11 20l-7 6h-8q-7 -7 -18 -6h-6l-5 6v84l21 10q10 3 15 3q3 -3 37 -23h46q11 -11 46.5 -24.5t47.5 -29.5h44q3 -2 7 -7q0 -11 8 -16l12 8 q0 8 4 15l17 8h6q13 -7 14 -15v-19zM965 184v16q0 3 -3 3h-2q-7 -7 -8 -13v-9l1 -2h7q5 0 5 5zM949 450q0 51 -22.5 67t-22.5 23q0 13 5 16q0 71 2 56q-2 15 -26 36h-9q0 -7 7.5 -18t7.5 -18q0 -16 -11 -16q-8 0 -29.5 29.5t-21.5 37.5q0 -10 3 15q0 10 -7 10q-34 0 -46 9 q-28 25 -34 28h-36q-3 3 -15.5 24t-14.5 21l-3 -4q-3 -8 -15 -23h-11q-13 0 -21 7h-25q-41 -18 -123 -82q-100 -25 -174 -85q-89 -71 -89 -163v-111q7 -3 8 -38q11 -13 25.5 -51t29.5 -53l5 -46v-21l-17 -28q21 2 35 -11q3 0 5 3l1 33q0 3 -5 15.5t-5 18.5q0 11 17 12h11 q3 -3 34.5 -28.5t31.5 -27.5q0 -18 1 -20h2l20 20h20l9 -7q8 0 24.5 -2.5t25.5 -2.5q8 3 34 28q30 5 59 5q8 0 8 -11q-2 -5 -11 -17v-1q20 0 23 1q0 46 26 46q5 0 15 -7t15 -7l8 24q3 10 39 15q33 51 176 189q2 13 19 50t25 38q17 15 17 22zM182 185v2l-28 28q0 5 -1 10v10 q-2 0 -3.5 2.5t-3.5 2.5h-5q-2 0 -3.5 -2.5t-2.5 -2.5v-12q13 -13 19 -24q2 -2 3 -10t4 -8h20q1 1 1 4zM205 162q-2 2 -3 2h-3l-2 -2q0 -2 -2 -3v-5q10 0 10 8zM241 123v5q0 2 -2.5 3.5t-2.5 3.5h-6q0 7 -5 -14v-9l1 -4h7q0 2 4 5t4 10zM309 -373v5l-15 17h-4l-1 -2v-11 q2 -5 11 -15h2z" />
<glyph unicode="h" horiz-adv-x="1001" d="M921 246q0 -11 -3.5 -34t-3.5 -35l-8 -11v-43q-31 -92 -67 -92q-7 0 -36.5 13t-29.5 18q0 72 11 81q28 0 28 10q0 7 -8 15.5t-8 15.5q0 10 6 18v51q26 21 27 39q0 28 -20 58v182q0 30 -18 56.5t-18 43t-8 36.5t-8 25q0 3 7 19.5t7 22.5q0 5 -5 5l-6 -3h-26l-14 -13v-2 q0 -2 11.5 -9t11.5 -17q0 -11 -9 -12q-3 0 -20.5 24t-17.5 29q0 -8 5 16q2 11 -7 12q-44 0 -52 11q0 2 -2.5 18.5t-7.5 16.5q-2 0 -10 -13.5t-15 -13.5q-15 0 -42.5 3.5t-42.5 3.5l-10 -8q-64 0 -128 -48l-105 -95q-3 -16 -30 -61q-23 -38 -23 -65v-296q0 -33 25.5 -101 t25.5 -84q0 -38 -54 -63q-20 -8 -65.5 38t-45.5 69v53l6 5q31 0 31 26q0 8 -6 10h-31q-5 3 -5 14v5l19 20v5q0 15 -4 44.5t-4 44.5l-5 18q-5 20 -5 32q0 30 27 30q13 0 14 2v28q-5 10 -14 6l-23 21q0 10 -2.5 27.5t-2.5 27.5q0 7 9.5 11.5t9.5 11.5q0 16 -14 27l-14 14v18 q0 -2 7 17t7 35q0 13 -7 41t-7 41q0 49 8.5 151t5.5 156q15 16 14 56q0 3 -14 25t-14 34q0 5 8.5 20.5t8.5 22.5v5q-16 16 -17 27q0 10 18.5 30t27.5 20q3 0 10.5 -3.5t12.5 -1.5l20 19h3q21 0 54 -18t33 -37q0 -16 -25.5 -78t-25.5 -68v-320q0 -11 10 -12q8 0 36 33.5 t33 35.5h36q36 31 41 31q3 0 25 -1q21 -2 34 0q18 2 25 8l76 1q23 23 78 23q8 -7 17 -6q3 0 9.5 4t9.5 2q10 -10 32 -29h41l37 -46v-41l5 -3l41 3q5 -30 23 -67q-7 -56 -6 -82q0 -28 6 -28q3 0 15 23t15 23q16 0 20 -51q36 -66 36 -95v-232zM684 807l-3 2q0 2 -2 2l-1 -2v-5 h3q3 1 3 3zM684 793q-2 3 -3 3h-3v-7h1q2 0 2 2zM860 520v2h-3v-2h3zM871 458v43q-2 3 -6 8q2 0 -10 -33q-5 -10 -10 -15v-11q5 -7 10 -12h5q0 3 3 3zM158 1099v28l-7 7q-2 -2 -5 -3l-7 -5v-31l7 -7zM144 717v2q0 2 -1 1q-2 0 -2 -1v-4h2q1 0 1 2zM133 722q-3 -2 -10 -7 q2 -3 3 -3h4q3 3 3 10z" />
<glyph unicode="i" horiz-adv-x="357" d="M267 1073q0 -5 -2 -13t-2 -11l-37 -36h-44q-16 0 -24 18q-5 13 -12 24q-2 3 -15 10t-13 16q-11 8 -15 9l-5 5v44q7 11 14 11h19q5 -2 15 -11q0 -11 8 -17h13q3 2 7 7v8q-7 5 -7 17v8q2 3 9 11q7 2 9 2q8 0 35 -13q3 0 18 -5q8 -2 18.5 -18.5t10.5 -24.5v-41zM277 75 q0 -28 -43.5 -62t-71.5 -34h-27q-13 0 -14 13v180q7 5 18.5 27.5t11.5 28.5q0 7 -11.5 22.5t-11.5 21.5q0 5 8 15q0 8 2.5 25.5t2.5 25.5q0 5 -5 10v89q-8 10 -8 24q0 8 10 54q8 11 20 18v43q10 5 9 16q0 15 -4 46.5t-4 45.5q5 10 5 15t-5 5q-8 0 -20 -8v-13q0 -7 4 -17 q3 -11 0 -16q-3 -8 -17 -8q-7 0 -16 24q-3 13 -3 20q0 10 7 36t12 30h33l28 44q15 25 39 25q8 0 37 -28v-168l-7 -10v-98l-8 -10v-98l-8 -10v-168q0 -5 4 -18.5t4 -20.5q7 -5 8 -30q3 -3 12 -41t9 -46zM166 473v6l-4 2h-3q-3 -3 -3 -5t5 -7q2 2 5 4zM166 126v33q-2 0 -4 3 h-3q0 -16 -11 -44l3 -3h3q7 4 12 11zM158 31v3q-2 3 -4 9q-2 0 -5 1.5t-5 1.5v-8q0 -3 7 -10h3q1 3 4 3z" />
<glyph unicode="j" horiz-adv-x="415" d="M282 1081q0 -18 -33 -47q-7 -3 -19 -12h-53q-3 2 -6 7l-2 16q-3 5 -7 7h-39l-5 6v20q2 3 5 7l18 1q13 18 13 35q0 5 -2.5 10t-2.5 6v28q5 8 12 8q28 20 39 20q21 0 51.5 -24t30.5 -43v-45zM149 811q-2 -2 -6 -5h-2q-2 0 -3.5 2.5t-2.5 2.5v6q-5 0 6 5h2q3 -2 6 -5v-6z M274 71q0 -13 -3.5 -39.5t-3.5 -39.5l-8 -12v-44q-5 -7 -10 -39q-13 -53 -36 -132q-11 -39 -123 -139q-118 -105 -169 -105h-67q-7 0 -23 7.5t-23 7.5q-10 0 -24.5 -7.5t-24.5 -7.5q-11 0 -25.5 8t-23.5 8q-31 0 -32 15q0 7 11.5 23t11.5 18q-15 26 -21 26q-5 0 -15 -3 t-13 -3q-13 0 -13 28v14q0 13 39 14q15 0 56 -53q11 0 18 3l7 4q7 -3 24 -22h2q10 0 30.5 -4t30.5 -4q57 0 81.5 19.5t51.5 19.5q33 25 70 69q44 53 49 84t19 31q-5 0 19 -3q10 -2 10 8q0 13 -5.5 40t-5.5 42q3 5 11 5q3 -2 13 -6q8 -3 10 1q-2 15 7 39.5t9 36.5v16l-4 3 q-3 -2 -5 -16q-5 -34 -23 -35q-10 0 -12 5q0 23 14 64t14 48t-9 11.5t-11 8.5v36q2 5 28 15l17 -2v31q-5 10 -15 15q-30 -2 -30 13q0 18 10 50t10 47q0 26 -21 59v51q-13 15 -13 39q0 7 9 20t9 20q0 13 -13.5 42.5t-13.5 34.5q0 120 20 128h16q3 2 4 6q0 10 -40 45v36l7 6 h25l6 7v64q3 7 15 6q18 0 34 -19q53 0 53 -40q0 -8 -7 -16v-391l8 -11q0 -28 3.5 -82t3.5 -82v-141zM177 599v8q0 3 -3 3h-3q-2 -2 -2 -3v-8l3 -3l2 1q1 0 3 2zM208 336l-1 2q0 8 -10 18h-3q0 -3 2.5 -10.5t2.5 -10.5l3 -4h3l2 4q1 -1 1 1z" />
<glyph unicode="k" horiz-adv-x="835" d="M154 1090l-3 -7q-8 -15 -12 -16.5t-8 -4.5h-5q-11 11 -11 15v36q3 11 11 11h13q5 0 9.5 -4t5.5 -4v-26zM783 107q0 -26 -34 -47t-61 -21q-23 0 -23 20q0 -8 5 26q3 21 -7 22q-2 -3 -6 -20.5t-27 -17.5q-3 0 -39 33t-43 41q-2 2 -2.5 13t-5.5 11q-2 0 -5 -14t-16 -14 q-18 0 -54.5 28t-49.5 48v44q-7 3 -12.5 -10t-5.5 -21q0 8 5 -18q2 -7 -16 -7q-21 0 -46 35q-16 0 -50 8t-49 8q-11 0 -15 -6q0 -28 10 -84t10 -84q0 -41 -5 -55q-11 -25 -46 -25q-11 0 -45.5 32t-34.5 43q0 7 7.5 24.5t12.5 17.5q16 -2 16 0q0 7 -4 22t-4 23q-18 15 -22 46 v51q0 46 -1 56l15 39q0 20 -20 30v16q0 57 11 66h25q-3 13 -15.5 19.5t-14.5 8.5v28l15 11v45l10 16q0 13 -4 41t-4 43q0 33 3 23v6q-34 0 -34 15q0 7 4 21t4 22q0 5 -4 16.5t-4 16.5q0 8 6 13v67q15 18 18 36h-19q-13 18 -14 18q0 13 20 20.5t20 23.5l-5 2q-26 0 -26 26v13 q16 11 59 60v32q-36 66 -36 77q0 5 13 12.5t13 12.5q2 11 5 25q2 7 16 19q3 2 12 2q56 0 80 -38v-21q0 -30 -17 -89t-19 -88l-8 -12q0 -21 -3.5 -65.5t-3.5 -65.5v-468q0 -11 12 -11q30 0 105 93l95 118q2 31 77.5 113.5t109.5 82.5q23 0 40 -18t17 -41q0 -10 -173.5 -180 t-173.5 -201q0 -15 34 -48q5 -20 15 -19q3 0 22 7t20 6q10 -7 16 -26t7 -19q2 0 10 7.5t13 7.5q26 -18 33 -26q46 0 61 -8q2 -15 23 -41l20 19h5q34 0 105.5 -44t71.5 -75zM149 988q0 2 -1 2v0q-2 0 -2 -2v0q0 -2 2 -3q1 1 1 3zM143 766q0 2 -2.5 3.5t-2.5 3.5h-3 q-2 -2 -5 -7v-5l1 -3h4zM648 115v2l-3 14q-31 31 -36 33q-11 -3 -12 -8v-8q0 -5 7 -12q2 -10 4 -12.5t22 -6.5q13 -2 18 -2zM184 333q0 2 -2 2v0q-2 0 -1 -2v0q0 -2 1 -2v0q2 0 2 2z" />
<glyph unicode="l" horiz-adv-x="339" d="M259 1329q0 -18 -18.5 -46t-18.5 -46q0 -20 8 -24v-205l6 -10v-648l-6 -10v-89l-8 -11v-110q0 -23 -17 -76q-20 -59 -34 -59h-36q-23 0 -23 26q0 8 11.5 24t11.5 17q0 10 -10 10q-23 0 -25 7q3 -20 5 31q3 69 5 77q8 48 10 69l15 15q0 7 6.5 20.5t6.5 15.5q0 18 -6.5 53 t-6.5 54l-15 13v83l6 10v35q-15 16 -14 29v8q13 11 23 28v17q0 15 -11.5 40t-11.5 40q0 18 8 30q3 3 16 8l7 3q-23 25 -23 30v88q-21 33 -22 43q0 13 14 30v34l6 7q-2 0 10 -4q7 0 7 7l-15 26q-13 28 -13 44q2 11 6 53q3 34 -6 46v80q3 3 15.5 5.5t12.5 9.5v2q-10 8 -23 24 q0 41 44 99h25l24 26l12 3q16 0 29 -31t13 -51zM148 819q0 2 -2 2v0h-2v-2h4zM164 681v3q0 11 -20 12v-3q0 -3 2 -4v-3l2 -3q3 -2 6 -5h8q2 1 2 3zM159 569v10l-5 8h-3l-3 -3v-3l3 -5q1 -4 8 -7zM148 199v16q0 2 -2 3h-3q-3 0 -4 -3v-16l4 -4h3q0 2 2 4z" />
<glyph unicode="m" horiz-adv-x="1447" d="M1367 407q0 -72 -3 -215q-8 -161 -77 -161q-98 0 -99 48q0 8 12.5 23t20.5 15l10 -2q3 2 3 11q0 8 -7 18v63q7 5 9 44q7 8 6 20q0 7 -7.5 15t-7.5 16v10l9 11q0 10 3 30.5t3 30.5q0 8 -7.5 24.5t-7.5 26.5q0 23 35 23l2 1l9 37q0 11 -4 11q-23 -13 -30 -13q-11 0 -12 20 q0 21 15 44v2q0 5 -6 11l-2 28q-30 25 -28 41l2 13v5q-5 0 -16.5 -7.5t-16.5 -7.5q-8 0 -28.5 38.5t-30.5 38.5q-11 0 -33 -14h-2l-29 28q-2 0 -9.5 -9.5t-8.5 -9.5q-15 -5 -39 -14.5t-99 -42.5q-57 -25 -92 -59q-13 -13 -24.5 -46.5t-21.5 -45.5v-75l-8 -10v-68l-8 -11 q0 36 5 -44.5t5 -106.5q0 -192 -79 -192h-40q-25 3 -24 23q0 10 10 24t10 15q0 8 -10 9q-18 0 -18 16q0 5 7 16.5t7 17.5q0 13 -14 23q-2 11 6 55t22 44l16 -7q8 -2 8 10q0 28 -13 46q0 33 -4 95.5t-4 91.5l-2 130q-20 16 -31 34l-7 10q-11 0 -31.5 2.5t-32.5 2.5 q-20 16 -19 23q0 72 42 72q10 0 33 -15q2 -2 41 -4q26 -3 76 -45q5 -5 16.5 -34.5t14.5 -29.5l11 25q13 26 35 26q5 0 14 -3t12 -3q11 0 13 24l20 20h3q53 0 107 47q71 0 116 23h28q25 -10 56 -23q13 -7 24 -31t12 -24q11 0 33 -12v-21q2 -3 5 -3t5 3v36l8 5h20 q20 -18 57.5 -83t43.5 -70v-82l7 -10q0 -10 2.5 -30.5t2.5 -31.5zM492 699q0 -5 -7 -15t-12 -10q-18 0 -52.5 -17t-47.5 -22q-171 -57 -171 -176v-119l6 -10q0 -23 3.5 -69t3.5 -69q7 -5 8 -39q15 -15 15 -41q0 -44 -7 -63q-11 -33 -49 -33h-3l-36 37v11q0 7 3 20t3 19 q-13 11 -32 53.5t-19 58.5v67q10 3 20 13v25l-20 20q0 30 14 68t14 42q0 5 -14 34.5t-14 42.5q0 26 23 26q0 -2 12 -7q8 -3 8 9q0 5 -13 16v46q-8 5 -8 16t10 12q3 0 7 -5t7 -5q5 0 5 7l-25 24q-26 25 -26 40l30 23q11 38 18 46q13 11 51 11t41 -5q13 -18 23 -24v-23 q-2 -2 -11.5 -30t-9.5 -31q0 -34 18 -35q5 0 18 20.5t14 22.5q16 3 69 28q46 21 71 21q16 0 36 -8q26 -8 26 -23zM1264 610v20q0 7 -9 7h-1v-2q-8 0 -8 -18q-2 -2 -2 -5v-5h10q7 0 10 3zM1275 519v0q0 2 -2 1v0h-1l1 -1v-2q2 0 2 2zM651 658v3q-2 0 -3 2q-2 0 -3 -2v-3l3 -3 q0 3 3 3zM607 691v3q0 10 -11 10h-2v-3q0 -3 2 -5l5 -5h6zM684 522v39q-8 5 -8 38l-6 7h-5q-7 -7 -7 -12q0 -10 10 -20q2 -13 2 -8q0 -7 -4.5 -19t-4.5 -15v-2q3 -3 9 -15h9q5 5 5 7zM684 458l-5 5q-5 0 -8 -12h8q0 2 2.5 3.5t2.5 3.5zM688 392v3h-7q2 -1 7 -3zM199 597v2 h-4v-2h4zM158 519q-5 7 -12 8q-3 -2 -7 -5v-3q2 0 3.5 -4.5t3.5 -4.5h3zM146 208v4h-3v-4h3z" />
<glyph unicode="n" horiz-adv-x="914" d="M642 663q-8 -8 -13 -12h-12q-3 0 -7 4.5t-8 4.5q-10 10 -29 28q-2 7 -5 18q-5 7 -5 18q0 20 6 19q10 10 27 10q10 0 24 -15q0 -30 5 -36q0 -3 8.5 -13t8.5 -11v-15zM834 84q0 -16 -22.5 -35t-38.5 -19t-39 12t-23 25q0 5 4 17q3 5 -6 19q-15 5 -15 18v7l8 7l10 -4h2 q-2 7 -12 22v28q15 16 15 55q0 7 -3 18.5t-3 16.5q0 7 6.5 18t6.5 18q0 8 -6.5 23.5t-6.5 23.5q0 21 37 64v4q0 8 -5 8q-13 -11 -16 -12q-25 0 -25 20v8q3 7 9 10v74q15 8 14 12q0 11 -23 18q-2 5 -8 11l-1 20l-7 5l-8 1l-8 -1q-20 13 -20 26q3 10 20 44q-28 23 -28 49v15 q3 5 8 5q18 0 38 -28q39 0 44 -1q13 -8 13 -55q15 -10 39 -29q8 -16 20 -36q5 -18 10 -59l8 -12q0 -31 6 -93.5t6 -93.5v-244zM551 709q0 -18 -13 -23t-47 -15q-92 -26 -144 -59t-114 -105q0 -13 -3.5 -39.5t-3.5 -39.5v-228q20 -64 20 -72q0 -62 -1 -69q-7 -51 -43 -51 q-95 0 -95 59q0 13 9.5 34.5t9.5 26.5t-5 11h-9l-5 5q-2 15 3 39.5t5 36.5q8 7 11 6q3 0 8 -1.5t9 -1.5l8 8l2 9l-2 8q-16 15 -16 39q-10 7 -28 22v14q0 16 14 40v5q0 8 -7 27.5t-7 27.5t28 36v7q0 10 -10 16l-10 5q0 7 5 20t5 20q0 11 -10 21v51q0 2 3 10t3 13q-5 7 -16 18 v46q-7 5 -7 16q0 10 46 48l61 49q34 0 44 -5q15 -10 15 -42q0 -13 -10.5 -39.5t-10.5 -38.5q0 -39 26 -39q-2 2 10 16q15 8 43 25h41q7 8 19 23t23 15q5 0 15 -3.5t15 -3.5q16 15 47 45l9 1q5 0 18 -5.5t19 -5.5q20 0 22 -4q-1 -72 1 -29zM693 683v3l-4 2h-3l-2 -2v-3l2 -4 h3zM701 610v2q-2 3 -4 3h-3q-2 -2 -1 -3v-2q0 -2 1 -3h3q4 1 4 3zM753 510q-2 2 -3 2h-2q-2 0 -3 -2v0q0 -3 3 -3h2q3 0 3 3zM753 448q0 3 -3 3h-2q-3 0 -3 -3v-5q2 -3 3 -3h2q3 3 3 8zM761 269v3q-7 11 -9 12h-4q-3 0 -3 -3v-2q0 -2 2.5 -4.5t2.5 -3.5l3 -4h5q3 0 3 2z M182 548v12q-3 7 -11 14q0 5 -9 13q0 2 -2 3.5t-2 3.5h-4q-2 -2 -5 -7v-27q8 -5 22 -17h6z" />
<glyph unicode="o" d="M988 359q0 -94 -163.5 -218.5t-261.5 -124.5q-11 0 -34.5 -4t-35 -4t-33.5 -4t-33 -4q-15 0 -27 15h-59q-3 5 -8 5q-75 0 -75 36l5 28q3 23 -5 23l-9 -27q-8 -25 -26 -24q-15 0 -42 35t-37 48q-10 -15 -19 -14q-16 0 -34.5 25.5t-18.5 41.5v44q2 3 15 11.5t13 16.5 q0 7 -5 7l-7 -7q-6 -8 -16 -8q-23 0 -23 15v49l20 20v1q0 15 -3.5 44.5t-3.5 44.5q7 7 17 18v36q7 11 21 12l13 -2q8 -3 5 -3h3l-3 47q15 10 31 40q2 25 117.5 96t145 71t81.5 15t80 15q16 0 49.5 4t50.5 4q26 0 26 -54q0 -33 -23 -33q-15 0 -49.5 13t-52.5 13 q-36 0 -75 -21q-46 -26 -66 -30q-10 -11 -33 -28q-74 -5 -148.5 -78t-74.5 -145v-110q0 -43 73 -139t111 -96q69 0 92 -11q7 -3 8.5 -15.5t6.5 -12.5l6 5v26q5 7 36 13q38 8 45 12q39 18 52 25q31 3 43 6q18 7 34 25q44 49 161 175v36q8 5 21 20q0 7 4.5 21.5t4.5 21.5 q0 21 -4.5 62t-4.5 62l-6 9q-23 3 -34 33l-12 31q-25 0 -62 32.5t-37 55.5q0 8 4.5 24t4.5 24q11 15 23 15q10 0 37 -28q7 -7 31 -51t25 -44q7 0 7 8t-9 21t-9 21q0 16 13 17q11 0 90 -72q16 -16 30 -55q15 -43 26 -57v-171zM883 602v27q-2 0 -3 -2h-4q-2 -2 -1 -3v-14 q0 -8 8 -8zM922 496v3q-10 10 -13 10q0 -15 3 -22h4q1 4 6 9zM922 427v32l-6 9h-4q-5 -8 -16 -25q-2 -11 -2 -16l-1 -2q0 -5 6 -10q2 0 5 -3h8zM228 128v7q-16 20 -21 19q-2 0 -5 -1l-2 -2q0 -2 -1 -5v-5q0 -10 11 -21h3zM138 161v3q0 2 -2 3h-3q-3 -2 -3 -3v-3l3 -2h3z" />
<glyph unicode="p" horiz-adv-x="1107" d="M1045 496q0 -123 -16 -169q-21 -59 -100 -142q-46 -48 -172.5 -106t-190.5 -58q-21 0 -60.5 -12t-60.5 -12q-34 0 -35 13q0 11 11 35t19 24q7 0 16.5 -12.5t16.5 -12.5h8q44 44 67 45q8 0 17 -4q3 -2 44.5 17t56.5 19q71 0 176 137q102 131 102 206q0 10 -19 35.5 t-19 37.5q0 49 -41 111q-3 5 -23.5 11t-20.5 12q0 3 4 15q3 10 0 18l-19 20q-7 -2 -7.5 -15t-20.5 -13q-26 0 -49 28q-3 5 -32 51h-1l-5 -4v-34q-15 -10 -25 -10q-46 0 -167.5 -51.5t-153.5 -84.5q-25 -25 -112 -150q0 -11 -3.5 -34t-3.5 -34q0 -105 45 -173q28 -43 82 -82 q44 -31 44 -47t-19 -37t-35 -21t-25 7h-41q-15 13 -31 13q-8 0 -11 -7v-277q0 -18 3 -55t3 -55l5 -5q7 -8 25 -58t18 -62q0 -7 -13 -21.5t-18 -14.5q2 0 -23 -1q-46 -3 -50 14q-7 39 -13 40q-3 0 -8 -11t-16 -11q-38 0 -38 48q0 21 8 79q7 49 3 78q8 11 9 22q0 49 -16 145 t-16 145v535q0 90 19 171q26 118 80 118q10 0 27 -3.5t27 -3.5q30 -21 30 -60q0 -18 -19 -55t-19 -55v-33q8 -7 10 -7q46 0 109 51t102 51q26 0 114 31.5t131 31.5q5 0 40 -15t40 -15q80 0 168 -95t88 -177z" />
<glyph unicode="q" horiz-adv-x="1132" d="M1052 643q0 11 -2 -64v-44q-2 -133 -6 -336q-5 -226 -5 -335l-8 -12v-151q0 -16 4 -50.5t4 -50.5q0 -90 -56 -91q-44 0 -56 23v33l-8 5q-2 0 -7 -14t-16 -14q-30 0 -30 26q0 20 30 64v45q41 34 41 42l-3 9q-23 0 -23 24q0 10 14 40.5t14 45.5t-5 43.5t-5 43.5l18 19v41 q-2 3 -15 14.5t-13 20.5v36l16 13v48q0 5 11 15.5t11 11.5q0 10 -35 10q-11 0 -154.5 -70.5t-199.5 -70.5q-36 0 -36 28q0 30 19 30q41 0 77.5 36.5t52.5 36.5q48 0 146.5 73t98.5 118q0 8 -3.5 23.5t-3.5 23.5l20 20l-20 20q0 7 3.5 18t3.5 16q0 25 -19 67.5t-19 67.5 q0 7 2.5 21.5t2.5 20.5h-20q-8 3 -19.5 23t-11.5 28q0 2 3 17q2 8 0 18h-21l-2 -17q0 -3 3 -14q2 -11 0 -17q-3 -8 -14 -8h-2l-66 59q-3 2 -13 -11h-31q-16 13 -21 24q-2 7 -4 7q-16 0 -52 -31h-35q-69 -38 -201 -117q-151 -95 -151 -220q0 -105 21 -152q16 -38 92 -119 q13 0 37 -23.5t37 -23.5q-11 0 15.5 6.5t35.5 6.5q21 0 21 -20q0 -16 -25.5 -34t-41.5 -18q-7 0 -54 13l-46 13q-23 -2 -35 2l-20 19q-11 41 -8 43q-2 0 -15 -10t-23 -10t-31 66.5t-34 66.5q-5 0 -9 -9t-8 -9q-5 2 -9 7l-4 10q0 26 20 65q0 10 -5 10q-2 0 -11 -10.5 t-17 -10.5q-20 0 -20 16q0 8 7 23t7 17q0 13 -3.5 36.5t-3.5 36.5q0 38 23 64q30 49 67 109q51 80 89 83q33 34 61 35q11 0 17 16.5t14 16.5q21 0 59 18.5t84 18.5q7 11 27 33h37q13 13 19 13q7 0 20 -9.5t21 -9.5q5 0 25.5 18t35.5 18q21 0 43 -23h36q7 -3 16.5 -24 t12.5 -21q2 0 9.5 14t17.5 14q2 0 17 -9t25 -9q8 0 13 10v33q-28 25 -28 34q0 72 66 73q7 0 16.5 -14t16.5 -14q87 -1 87 -227zM926 819l-7 6q0 -2 -2.5 -3t-2.5 -3v-2q0 -3 2 -3h6q2 2 2 3zM940 584l-1 3q-2 2 -2 7h-7q0 -7 -8 -23q3 -2 5 -3q13 13 13 16zM748 752 q-3 0 -6 -2l-4 -5v-3q0 -3 4 -8h1q2 0 4 1v8q1 6 1 9zM158 402v30q-2 3 -5 6h-2q-7 -3 -10 -11v-25l7 -7h5q3 2 5 7zM328 84h-8q-5 -2 -7 -4l-3 -3l-1 -2v-6q2 -2 6 -5h3q0 2 2 3q6 9 8 17z" />
<glyph unicode="r" horiz-adv-x="584" d="M556 737q0 -25 -20.5 -50.5t-43.5 -25.5q-21 0 -28 12q-3 3 -11 28q-2 3 -5 3q-51 0 -129.5 -101.5t-78.5 -154.5v-128l-9 -11q0 -15 -2.5 -42t-2.5 -42q0 -33 14 -98.5t14 -57.5q0 -64 -23 -64h-44l-18 15q-49 0 -52 1q-18 7 -19 54q0 10 10 29t10 29q0 7 -5.5 16.5 t-5.5 16.5q0 26 36 26q-23 95 -23 102t3 20t3 19q-5 10 -14 17v31q16 10 37 28q0 80 -5 80q-2 0 -5 -2v-42l-8 -5h-19l-5 5v44q13 7 28 16v18q-23 23 -23 40q0 10 3 31t3 31l-6 13q-5 13 -5 23v12l28 28v1q0 5 -7.5 23t-7.5 28q0 21 10 22q7 0 17.5 -11t16.5 -11l13 21 q13 22 36 22q33 0 33 -23q0 -28 -14 -81.5t-14 -81.5q0 -3 5 -6l43 41q0 7 5 26q23 11 60 40q5 5 15 31q5 15 30 15q5 0 15.5 -2.5t15.5 -2.5q7 0 28 36q7 0 19 4t19 4q8 0 26 -4t28 -4q29 -25 29 -51zM189 523q0 11 -5 19l-7 3q-2 0 -3.5 -2.5t-2.5 -2.5v-3q2 -7 6 -12 q2 -13 5 -13h3q4 3 4 11z" />
<glyph unicode="s" horiz-adv-x="682" d="M550 734q0 -5 -13.5 -18.5t-17.5 -13.5q-16 0 -17 17q0 3 3.5 8t3.5 7q0 5 -7 4l-20 -19h-4q-11 0 -20 8q-2 5 -3 7q0 31 -28 31q-5 0 -13.5 -3.5t-11.5 -3.5q-16 0 -16 15l3 16q5 18 5 25q7 13 28 13h36q7 -3 31 -28q13 11 25 12q5 0 11 -2q15 -16 15 -26l10 -30v-19z M381 804q0 -13 -48 -61q-33 -11 -77 -46q-53 -41 -53 -70v-72q-3 -3 -18 -23v-5q10 -8 30 -28h2q5 0 6 15l12 11q5 2 19 2h12l5 -5q2 -8 1 -12q0 -2 -3 -23h2l3 7q2 0 18.5 12.5t27.5 12.5q20 0 21 -17q3 -25 5 -28q23 -38 25 -42q0 -21 -18 -22q-8 0 -26 12h-12 q-7 -7 -16 -7q-16 0 -42 38t-34 38q-3 0 -5 -4q7 -10 7 -21q0 -13 -30 -16l-1 -2l-55 39q-2 8 -13 24t-11 26t6 18v8q-23 15 -23 39q0 5 10 31.5t13 29.5q5 31 22 43h23l11 -12q2 -2 5 3q0 13 20 45.5t31 32.5h2q16 -15 19 -15q3 2 15 11q2 13 13 28h45q23 20 44 20h3 q7 -5 7 -15zM602 327q0 -177 -192 -293q-62 -38 -74 -37q-16 0 -34 18h-5q-8 -10 -15 -10q-11 0 -19 15q-3 -2 -10 -19t-13 -17q-7 0 -25 13v14q0 25 11 38q3 3 33 22h7q16 -11 23 -12q8 0 34.5 12.5t30.5 18.5q18 11 51 27q8 10 47.5 56.5t39.5 51.5t-4 14.5t-2 16.5 q0 2 6.5 17.5t6.5 16.5v33l-5 7l-16 1q-31 23 -32 55v24q-5 0 -15.5 -9t-16.5 -9l-7 2q-3 3 -36 65q0 57 -2 33q2 16 13 27h4q11 0 21 -15q10 -2 13 -8v-38l5 -3q7 0 15 21t19 21q33 0 114 -93q0 -2 14.5 -34t14.5 -43zM215 51q-2 -3 -5 -7h-11q-7 3 -10 4h-2l-8 -9v-3 q15 -16 15 -20v-13q0 -11 -17 -11q-7 0 -28 19q-7 0 -11 9v28q8 8 11 8q5 13 5 8q0 5 -5 8h-3q-3 0 -7 -2.5t-8 -2.5q-3 0 -8 5v15q5 5 7 5h65q5 0 12.5 -6.5t7.5 -21.5v-13zM514 358v16q-2 5 -4 5q-7 2 -16 8q0 7 -5 12h-3q-3 -2 -4 -4v-1q5 -16 20 -43h7q0 2 2.5 3.5 t2.5 3.5zM151 635q-2 3 -5 7h-7q0 -2 -2 -3.5t-2 -3.5l4 -5h7z" />
<glyph unicode="t" horiz-adv-x="858" d="M840 164q0 -89 -10 -102q-33 -25 -65 -51q-20 0 -58.5 -3t-58.5 -3h-59q-2 0 -8 15q-5 10 -20 10q-5 0 -7.5 -7.5t-5.5 -9.5h-28l-23 18q-10 10 -33 10q-43 0 -87 76q-72 0 -72 44q0 5 7 8h26q3 -2 6.5 -9t5.5 -7q7 0 6 9q0 8 -9 12.5t-25 24.5q-5 13 -9 13 q-2 0 -10 -6.5t-14 -6.5q-7 0 -15 6v28q2 3 11 6.5t9 5.5q0 16 -20 31q-11 7 -21 13q0 -18 3 23t3 52q0 25 -6 25l-10 -7q-10 -7 -15 -1q-11 10 -11 16q0 2 4 8.5t4 11.5q0 7 -7 11q0 15 7.5 39.5t7.5 36.5q0 7 -18 43t-18 55q0 38 13 58q2 3 16.5 8t14.5 8q0 15 -1 15 q-43 0 -43 20q0 3 2.5 8t2.5 8v5h-5l-28 -21q-103 0 -103 21v43q2 5 27 20.5t32 15.5q57 0 74.5 18.5t18.5 77.5q7 8 7 19q0 7 -6 24t-6 28q2 3 11 7.5t9 15.5q0 15 -15 25v36q3 3 10 31q2 10 13.5 13t11.5 7q0 20 -12 21q-18 3 -23 8v44q7 11 27 12q15 0 20.5 -18t8.5 -18 l8 5v34q23 13 31 13q31 0 32 -28v-192q0 -146 -20 -198q-3 -8 8 -8h3q33 31 48 31q13 0 38.5 -6t38.5 -6q5 0 15 10t13 10q31 0 40 -4t14 -29q0 -7 12 -6q5 0 5.5 10.5t7.5 13.5h39q23 33 82 33q21 0 47.5 -18t26.5 -38q0 -43 -39 -55q-20 -7 -66 -7q-30 0 -138 5 q-2 2 -6.5 12.5t-9.5 10.5t-16.5 -14t-18.5 -14q-113 0 -146 -36q0 -16 -3 -47.5t-3 -47.5v-95l6 -10q0 -62 20 -169q25 -135 57 -158v-16l5 -4h27q15 -11 65 -59q26 -2 26 -18q0 -5 -7 -11.5t-7 -11.5l5 -3q20 0 30.5 17t24.5 17q20 0 46 -11q7 8 22 20h31q2 13 13 31h38 q20 23 38 46q25 23 52 23q31 0 31 -20zM267 1068l-1 2q-2 0 -5 -3v-2h2q2 1 4 3zM136 768q-2 3 -1.5 4t-1.5 3h-3q-7 -3 -9 -4h-11q0 -10 7 -16q0 -7 8 -7l1 2q10 0 10 18zM269 443v5h-3v-5h3z" />
<glyph unicode="u" horiz-adv-x="915" d="M835 689q0 -21 -14.5 -67t-14.5 -67v-397q0 -13 9.5 -38.5t9.5 -39.5q0 -20 -38.5 -56.5t-57.5 -36.5h-36l-9 8q-28 0 -28 15q0 54 20 74h21l4 3q-10 5 -15 15q-2 20 -7 19q-3 -2 -13 -9l-28 -2l-9 -7q-38 -2 -122 -44.5t-118 -42.5q-3 2 -43 12l-13 16q-3 3 -3 20v11 l5 7h28q5 -11 18 -26q3 0 5 3q-3 36 21 36q8 0 25.5 4t25.5 4q3 0 8 -1h8l31 28q75 7 120 72q13 18 59 93q2 13 13.5 37t11.5 39q0 10 -7 18q0 -5 2 39q2 39 0 69q-2 38 -10 48v20q8 8 7.5 28.5t2.5 23.5t12 5t9 7q0 8 -8 8q-3 0 -10.5 -7.5t-12.5 -7.5q-16 0 -16 28v15 q13 10 36 32l1 10q0 7 -4 17.5t-4 17.5q0 8 7 15h23l11 -9q87 0 87 -59zM325 92q-2 -8 -10 -36q-10 -13 -23 -13q-3 0 -9 9t-11 9q-3 0 -9.5 -9t-13.5 -9q-26 0 -47 19q-13 0 -21 9v41l-7 8h-31q-7 23 -31 59q-2 23 -14 52q0 21 10 45l10 24q0 5 -10 11t-10 14q0 13 7 18v64 q3 7 8 7q2 0 8.5 -2t9.5 -2q3 2 4 10v2l-15 13v59l-8 11v20l6 5h25q-3 10 -22 43q-15 26 -14 46q0 10 2.5 31t2.5 31q8 5 23 16q8 34 23 35q3 0 8.5 -3.5t10.5 -3.5q20 23 38 23q10 0 27 -13t17 -23q0 -18 -18 -104t-24 -91q0 -13 -3.5 -39.5t-3.5 -39.5v-159 q0 -20 10.5 -61t12.5 -59q2 -2 15 0t13 -11l-2 -9q-10 -5 -18 -13l2 -3q5 0 14.5 -2.5t15.5 -2.5t16 -3t13 -3q23 0 23 -20zM732 446v18q0 2 -2 2l-5 5l-5 -5v-28q2 -2 2 -3h3q7 6 7 11zM166 645v16l-4 4h-3q0 -2 -1 -4v-10q2 -7 1 -6q2 2 7 0zM179 143v3l-2 2q0 2 -1 1v0 q-2 0 -2 -1l-3 -2v-3q2 0 3 -4h3q0 2 2 4z" />
<glyph unicode="v" horiz-adv-x="854" d="M824 761q0 -46 -12.5 -61.5t-40.5 -44.5q-117 -143 -254 -507q-10 -33 -30 -100q-25 -72 -54 -73q-66 0 -79 32q-21 51 -41 65v35q-16 28 -55 83v12q0 11 6 13h25l3 3q0 23 -25 23q-13 0 -22 10q-7 38 -25 48v42q-10 18 -8 33q-26 20 -66.5 82.5t-40.5 89.5q0 -3 2 32 q3 64 -18 72q-31 -5 -40 15q0 85 63 85q10 0 20.5 -6t13.5 -6q49 0 35 2q36 -3 62 -123l26 -148q7 -34 40 -78q48 -66 50 -73q21 -48 78 -131q8 5 83 107q0 31 20 62l20 30q0 34 19.5 69.5t21.5 58.5q5 7 29.5 36t24.5 44l-11 10q-12 10 -12 20t19 33.5t27 23.5 q2 0 7.5 -5.5t10.5 -5.5q10 0 11 4v17q0 31 -23 57v36q8 3 23 9q3 2 7.5 10.5t12.5 8.5q26 0 57 -13q40 -17 40 -38zM94 673v11q-2 2 -4 2h-1q-2 0 -4 -2v-11q0 -3 4 -3h1q4 0 4 3zM181 494v8q0 -2 -20 15h-3l-12 -12l7 -6l9 -3q3 0 10 -5h5q4 1 4 3zM289 310v17q0 7 -13 6 v-8l1 -10q2 -3 7 -8h2q3 1 3 3zM312 263q-2 5 -7 13q0 2 -1 5v5q-3 3 -12 9h-3q-2 -2 -3 -1q10 -18 19 -31h7zM395 176l-6 6l-12 -11v-4q2 -2 7 -5h5q3 4 6 14zM405 79q-2 2 -1 5l-7 6q-8 3 -18 5q-7 0 -10 -3l-10 -2l-3 -3v-5q0 -3 5 -3q3 0 7.5 2.5t7.5 2.5t8 -5 q0 -8 3 -8h8q5 0 10 8zM341 118q0 5 -8 13q0 2 -2 4h-3q-2 -2 -6 -17l6 -6h8q3 1 5 6z" />
<glyph unicode="w" horiz-adv-x="1168" d="M1124 678q-20 -30 -67 -210q-56 -215 -90 -306q-59 -156 -119 -155q-20 0 -19 24q0 15 6 20v75q-2 3 -6 4l-8 -15q-7 -13 -23 -13t-17 23q0 31 -22 49t-24 33q-5 57 -55.5 110.5t-50.5 96.5q0 10 5.5 30t5.5 29l-13 13v51l-7 5l-6 -2v-54l-8 -5h-19l-6 5q0 36 -28 62h-8 q-23 0 -72 -143l-94 -264q-59 -143 -103 -143q-13 0 -41 23q-49 3 -50 32q0 20 14 31l14 10v72l-5 5q-13 0 -13 -13q0 -7 4 -24t3 -27q-2 -5 -12 -5q-26 0 -32 49l-4 72q-10 74 -21 86q0 38 -14 87.5t-14 72.5q0 53 2 56l-30 31v66l13 15q-2 7 -13 6q-25 0 -28 23 q3 -28 4 40q0 5 -2 15.5t-2 15.5q0 13 48 16l10 15q10 0 30.5 6.5t29.5 6.5q16 0 28 -20v-128l8 -11v-89l9 -11q-5 -49 21 -133q30 -89 30 -123v-53l-5 -14q-2 -11 5 -12q13 0 88 153q7 15 67 95q43 56 43 100q0 10 -2.5 29t-2.5 28q5 10 44.5 53.5t39.5 47.5q0 11 -8 11 t-15.5 -19.5t-12.5 -19.5q-15 0 -15 13v37l43 53h14q8 0 23 -4t23 -4q20 -20 98 -207t78 -213v-18q-15 -18 -15 -35q0 -21 12 -21q2 0 8 14t16 14q15 0 29 -40.5t30 -40.5q15 0 48 41q0 54 18 69q13 8 26 18q0 66 58 123v41q11 16 21 33q2 5 2 46q8 26 23 64v41q-2 7 -10 7 q-5 0 -12 -7v-24l-6 -5h-20q-20 20 -20 46q0 10 71 75q7 0 20 -11h36q21 -25 21 -33v-59zM696 389v8q0 5 -7 12v13q-2 7 -1 11h-7l-5 -5q-2 -5 -6 -18v-1q3 -3 3 -7q11 -5 16 -16h4q3 1 3 3zM138 528v25q0 7 -10 7q-2 0 -3 -2q-10 0 -10 -21q3 -5 3 -7q7 -3 12 -8h3q3 3 5 6 zM149 428v2h-3v-2h3zM199 258v28l-5 4l-5 -4v-28l5 -5zM222 185l-4 2q0 2 -1 2v-2q-2 0 -4 -2q2 -3 4 -3h3q2 0 2 3z" />
<glyph unicode="x" horiz-adv-x="843" d="M802 141q0 -28 -46.5 -58t-77.5 -30q-16 0 -33 19l-2 28q-7 5 -10 44q-5 11 -36 9l-6 5v27q-39 46 -58 46q-8 0 -13 12.5t-6 14.5l-2 28q-8 11 -21 14q-7 2 -10 25l-12 11q-5 -3 -5 -6t4 -12q3 -7 -4 -9h-11q-13 0 -44 27h-12q-11 -10 -123 -178q-100 -153 -138 -153 q-5 2 -24 13v26l-5 4h-35q-23 2 -23 19q0 25 18 35t35 19q31 53 103 151q84 112 115 137q0 10 2.5 31t2.5 31t-8 29.5t-17 19.5l-3 -3q0 -2 5 -10t5 -11q0 -8 -17 -9q-31 0 -34 48q-3 7 -13 18v48q-7 8 -17 8q-8 0 -18 -17h-19q-3 3 -8 12q-67 62 -68 72q0 43 12 51h1 q28 0 44.5 19.5t26.5 19.5q46 0 98 -62q25 -30 79 -113q39 -62 56 -63q28 0 54 51q8 18 28 56q10 2 31 10v46q7 5 38 44.5t34 39.5q13 0 37 2t37 2q59 0 59 -39q0 2 -123.5 -119.5t-123.5 -156.5q0 -20 40 -80.5t60 -71.5q36 -5 118.5 -72.5t82.5 -98.5zM555 338q-2 0 -5 -2 h-5l-3 -3v-2l6 -6q7 6 7 13zM376 492v9l-7 6q-3 0 -8 2h-8q-2 -2 -3 -2v-3q8 -11 18 -23q-3 0 8 11zM113 57v12h-3q-2 -2 -2 -3v-5l2 -4h3z" />
<glyph unicode="y" horiz-adv-x="969" d="M796 98l-7 -6h-19l-5 6v37l5 4h19l7 -4v-37zM889 11q0 -7 -4 -24t-2 -28q-5 -5 -33 -109t-67 -154q-66 -80 -182 -85q-8 -7 -12 -6h-80q-5 0 -7.5 15.5t-7.5 15.5l-7 -2v-23l-6 -6h-72q-3 2 -7 16l-3 6q-8 0 -12 -9l-6 -15h-74q-16 -15 -21 -15q-57 0 -94.5 33.5 t-37.5 91.5q0 15 13 15q16 0 20 -28q11 -13 25 -28q7 0 6 6q0 3 -6.5 17.5t-6.5 20.5q0 11 17 12q20 0 65 -35q39 -30 59 -52h5q7 0 12 21t14 21q10 0 28 -19.5t38 -19.5q7 0 14 18t12 21h36q13 0 30 -41l5 -5q10 0 22 25.5t23.5 29.5t16.5 4l15 -1q144 144 144 164 q0 44 17.5 58t17.5 22q0 5 -15.5 15t-15.5 15q0 38 23 38q2 0 11.5 -6t12.5 -6q5 0 5 5q0 7 -6 11v45q-3 15 -8 79t-33 64h-5l-110 -104q-49 -34 -138 -34q-10 -11 -64 -22q-48 -8 -74 -8q-16 0 -16 12v5l1 3q10 11 10 16t-5 5q-13 0 -21 -15q-10 -20 -13 -21h-30 q-15 11 -44 36v54l-7 4l-6 -4v-44q-3 -7 -10 -7t-71 68v24q-13 10 -31 32v36q-13 15 -13 19q2 5 8 32q2 8 -1 8q-21 0 -23 5v36l5 6q15 0 26 20t11 36q0 8 -8 8q-7 0 -14 -13t-12 -13q-16 0 -17 18q0 13 11.5 37.5t11.5 38.5v13l-14 13q0 10 14 13t14 7q0 13 -10 39t-10 36 v36q5 5 14 36t17 31t8 -13q0 2 -5 -26q-3 -21 5 -21q18 0 18 11q0 3 -2.5 10.5t-2.5 11.5q0 7 3.5 19.5t3.5 19.5l-2 13q-21 0 -14 -2q-3 2 -4 18q0 43 81 43h31q11 -5 11 -26q0 -38 -25.5 -110t-25.5 -110v-205q0 -82 30 -118q46 -41 84 -76q2 -2 7.5 -13t10.5 -11 q87 0 65 1q38 -2 63 -18h3l12 12q8 33 45 32q231 212 232 286q0 2 -2 13q-2 10 0 17q2 8 12 8q3 0 10 -4q3 2 3 14q0 11 -11.5 20t-16.5 22q-10 30 -10 99q-13 20 -13 24q0 16 5 50t5 50q0 26 -10 35v57q0 20 26 20q97 0 97 -135q0 -20 -3.5 -60.5t-3.5 -60.5l9 -11v-137 l8 -11q0 -26 3 -80.5t3 -80.5v-263zM783 817h-2q-10 0 -15 -15q0 -2 2 -4t2 -4h3q10 10 10 23zM793 581v2q0 3 -4 3h-3q-2 -2 -2 -3v-2q0 -2 2 -3h3q4 0 4 3zM320 75q-3 10 -10 23h-3v-8q3 -3 8 -15h5z" />
<glyph unicode="z" horiz-adv-x="866" d="M525 732q-10 -15 -21 -15q-5 0 -13.5 3.5t-12.5 3.5h-9q-16 -8 -19 -15h-23q-7 7 -13 11h-2q-34 0 -26 -1q-10 -5 -32 -18h-19q-7 7 -17 6h-5q-11 -3 -39 -14q-20 -11 -59 -30q-11 0 -33 -3q-33 -11 -33 -12q-30 0 -29 30q0 2 3 18q13 8 20 8l6 5q2 8 9 15v1q-2 3 -5 4 h-2l-13 -12q-2 2 -7 8l-3 9q0 11 10.5 26t12.5 23l5 6q5 7 11 7q5 0 13.5 -4t13.5 -4l13 -12q23 11 34 12q20 0 56 -11t53 -12l27 -25l9 20q8 5 19 15h28q5 -7 22 -7q7 0 19 5.5t18 5.5q16 0 25 -11q0 -5 4 -15t4 -15v-6zM748 768q0 -18 -10 -28q-57 -57 -139 -187 q-85 -135 -136 -189q-15 -16 -176 -234q0 -23 12 -28h42q5 -7 36.5 -19t31.5 -19q0 -28 -36 -28q-20 0 -32.5 -7.5t-17.5 -7.5t-14.5 3.5t-14.5 3.5l-15 -17h-57q-8 -7 -15 -6q-10 0 -29 7.5t-19 15.5v41q7 8 5 34l-6 2q-11 0 -12 -25q-5 -10 -15 -14l15 -28q5 -8 -16 -8 q-31 0 -32 36v36q8 18 20 36q21 0 31 11q0 15 5 35q82 80 220 231q26 49 97 141q13 7 36 23v33q67 79 67 99q0 3 -22 21t-22 34q0 11 7 13h52q3 -2 6.5 -10.5t10.5 -8.5q2 0 12.5 14t19.5 14q2 0 9.5 -5t8.5 -4q3 7 14 17h47q31 -3 31 -28zM786 72q-7 -13 -13 -31 q-20 -20 -39 -20q-26 0 -48 28v4q0 8 7 13v3q-3 5 -7 8h-2q-3 -3 -6 -20l-5 -4h-28q-15 0 -36 19q-5 -3 -12 -6h-31q-11 15 -11 23v19l6 5h20l10 -19q36 36 47 36q5 0 14 -6.5t14 -6.5q8 0 20 11q5 2 11 3q5 -2 12 -3q16 -16 16 -20q0 8 -1 -13q5 0 6 -1l7 6q7 21 26 21 q23 0 23 -13v-36zM546 66q0 -7 -4 -7h-51q-5 -2 -22.5 -12.5t-22.5 -10.5q-15 3 -31 12v5q2 5 5 13.5t31 25.5q5 3 13 8h17q7 -3 10 -6h3q8 7 11 6h22l8 -6l10 -10q2 -3 1 -7v-11z" />
<glyph unicode="{" horiz-adv-x="659" d="M579 -18q0 -20 -36 -45.5t-57 -25.5q-10 0 -34.5 8.5t-37.5 8.5q-8 0 -23 -4t-23 -4q-3 2 -6.5 10.5t-7.5 8.5q-3 0 -6 -9.5t-8 -9.5q-23 0 -27 31q-38 0 -46 44q-10 56 -44 77v28q3 7 12 7q26 0 31 11q2 7 0 49l-3 81l4 6l15 -3v26q-28 -3 -28 28q0 49 15 49 q5 0 12.5 -7t8.5 -7l5 5v134q0 31 -33.5 54t-33.5 41q0 8 2 9q-18 0 -33.5 9.5t-27.5 9.5l-10 -1q-8 11 -21 28q-39 21 -40 26q0 5 17.5 17t22.5 12t8 -8t7 -8l6 3h15q2 10 57 71.5t55 64.5q-5 5 -33 22v47q-25 25 -25 33q0 7 10.5 19t10.5 19q0 -13 -13 13t-13 34t7.5 21.5 t7.5 18.5q0 3 -7.5 6.5t-7.5 11.5t12.5 12t15.5 8v31q-15 11 -15 18q0 11 10 11q2 0 10 -1q7 -2 10 0q5 3 5 10l-2 8h-18q-13 10 -13 37q0 56 43 56q11 0 15 32t29 32q8 0 26 -15q30 -3 94 -31q71 -31 70 -49q0 -31 -33 -31q-16 0 -42 5q-25 5 -49 0q-25 -21 -25 -33v-376 q0 -13 2.5 -38.5t2.5 -38.5q0 -28 -36 -62q-33 -7 -40 -27q-7 -25 -13 -49l4 -6q85 0 85 -84v-299v-10q-2 -10 -2 -19v-40q0 -156 87 -156q8 0 35.5 30t30.5 30h36q21 -12 21 -25zM286 435l-7 -7h-20l-5 7v52q0 7 12 7q8 0 11 -7l9 -16v-36zM246 135l-6 -7h-10l-7 7v13 q2 2 7 5q0 2 3 1h3q3 0 4 -1q7 0 6 -4v-14z" />
<glyph unicode="|" horiz-adv-x="320" d="M240 968q0 -31 -3.5 -93.5t-3.5 -93.5l-8 -10v-95l-8 -11q0 -33 -2.5 -98.5t-2.5 -98.5l-9 -12v-152l7 -10q3 -57 0 -143l-8 -12q0 -36 -18 -90q-23 -67 -53 -67q-7 0 -20 8t-13 15q0 41 23 61v32q-10 3 -23 15v26q2 3 12.5 8.5t10.5 14.5q0 10 -23 33v7l14 13 q-5 13 -5 23t14 27t14 34q0 10 -10 35t-10 39q0 18 20 42v241q0 8 -10 32t-10 36q0 15 6 21q7 43 17 90q2 5 11.5 15t9.5 16l-23 23v35l-13 13q0 38 28 103v5q-30 30 -30 36q0 3 5 16.5t5 23.5q0 5 2 13t2 13q-2 7 -12 15v28l7 6q13 0 13 7q0 5 -5 6h-17q-15 7 -14 20 q0 5 4 16.5t4 16.5q0 20 12 52.5t12 45.5q0 5 -8 16.5t-8 18.5q0 5 12.5 14t18.5 9h4l13 -15q3 2 8 10q2 3 -4 7t-6 9q0 28 30 28q15 0 26 -28v-119q15 -16 15 -51v-291zM166 1124v10q-2 3 -4 3h-3q-3 -3 -3 -8t3 -8h3q4 1 4 3zM182 816l-3 1h-3l-2 -1q0 -2 2 -4h3q3 2 3 4z M166 768v11l-4 2h-3q0 -10 -11 -33v-3q2 0 3.5 -2.5t2.5 -2.5h5q0 5 3.5 14t3.5 14z" />
<glyph unicode="}" horiz-adv-x="598" d="M519 651q0 -30 -40 -44q-62 -23 -74 -31q-39 -30 -39 -89v-244q0 -15 14 -48.5t14 -46.5v-76q-16 -39 -38 -85q-34 -75 -82 -76q-11 0 -28 23q-23 -23 -36 -23q-16 0 -16 25t57 90q11 98 12 146q0 11 3 33.5t3 34.5q0 3 -7.5 9.5t-7.5 9.5q0 16 12 25q0 30 -6 87t-6 87 q0 -21 25.5 22t25.5 58l-1 18q-2 15 0 25q2 13 11 13q-10 0 16 -5q11 -3 12 12q0 16 -33 44h-36q-20 16 -20 38v36q2 3 12.5 6.5t10.5 11.5q-2 0 -16 10v59q-7 5 -7 24v15q11 8 23 15q20 15 20 26l-3 3q-10 -10 -20 -9q-7 0 -11 6q0 44 -2 35q3 21 20 21q-5 0 11 -3q7 0 7 8 v8q0 21 -18 41t-18 21q0 56 14 56l15 -5q3 -2 5 -1q5 0 5 6q0 8 -31 40q2 30 -17 80h-16q-131 0 -131 20q0 3 28.5 18t38.5 21h41q7 18 28 48h54q5 8 20 8q30 0 51 -49q18 -39 18 -74l-2 -323q0 -156 21 -156q114 -1 114 -55zM185 -53l-6 -4h-5q-10 2 -7 1v18q2 0 3.5 2.5 t3.5 2.5h5q2 0 3.5 -2.5t2.5 -2.5v-15zM162 -66q0 -15 -13 -14h-19q-5 0 -20 18q-2 3 -8 13q-3 2 -4 5v14q7 8 14 20h19l8 -6v-25q10 -10 23 -16v-9zM290 1218v8q-2 3 -3 3h-1q-8 -8 -9 -21h5l4 3q1 2 4 7zM313 1137v13l-11 12q-2 0 -5 1v-22l10 -10zM374 663v3q-2 3 -3 4 h-2q-3 -2 -3 -4v-3q2 -2 3 -2v-1h2v1q1 0 3 2z" />
<glyph unicode="~" horiz-adv-x="974" d="M894 1126q-3 -7 -13 -28l-28 -64q-7 -15 -52.5 -57.5t-58.5 -42.5h-59q-3 2 -6.5 9t-5.5 7q-3 0 -6.5 -8t-6.5 -8h-28l-5 5l-1 8q0 5 29 34l2 9q13 15 64 16l46 44q7 28 28 45l5 18q0 8 -2 24q-3 26 0 35q3 18 13 18q3 0 8 -5l2 -12l11 -11h2q5 2 5 5l-6 12t-6 22 q0 25 12 33q3 26 26 26h10q21 -33 21 -37v-97zM633 1003q0 -13 -11.5 -33.5t-12.5 -30.5l-7 -5h-13q-28 0 -28 19q0 5 5 15q2 7 -5 17h-15q-5 -3 -6 -7v-21q-2 -3 -7 -7h-6q-7 0 -20 20t-18 23v52q0 5 -34.5 48t-35.5 55t-12 38l-2 27q-3 3 -6 5q-5 -3 -28 -22 q-28 -8 -76 -31q-23 -28 -72 -80l-6 -81q-11 -54 -50 -54q-18 0 -29 35q-39 25 -40 52v8q5 10 14 13q0 67 -2 45q2 13 16 31q0 34 25 62l8 2q5 0 13.5 -2.5t12.5 -2.5q13 8 14 30l4 6q7 2 25 12.5t28 10.5q3 0 9 -1.5t9 -1.5q8 7 21 20q20 5 23 4q75 0 92 -36q8 2 20.5 -3 t19.5 -5q18 -10 51 -33q18 -18 43 -68.5t25 -73.5v-15q-8 -5 -8 -12q0 -5 8 -10q3 0 9 12l13 13h1q13 0 27 -13t14 -26zM471 1132v10l-16 15h-2q-3 -2 -3 -3v-5q0 -8 11 -15q2 0 5 -2h5zM179 1134v8q-2 3 -5 7h-8l-12 -12v-1q0 -3 5 -14q2 0 2.5 -10.5t4.5 -10.5h1q3 2 4 8z " />
<glyph unicode="&#xa1;" horiz-adv-x="388" d="M309 719q0 -13 -26.5 -24.5t-42.5 -11.5h-4q-23 15 -64 47q-10 10 -24 22q-2 7 -9 14h-1q-8 -7 -40 -8v63q3 2 40 36q0 13 13 19h67q7 -3 19 -11t34 -22q7 -7 16 -18q5 -18 17 -50q3 -5 5 -12v-44zM309 -295q0 -8 -15 -26.5t-22 -18.5h-18q-13 0 -46 28v40q-11 2 -31 13 v44l-15 25q0 51 14 51h3l16 -10q5 -3 7 10q0 10 -23 26v67q2 5 6 5q5 0 7.5 -6.5t6.5 -6.5q10 0 16 8l-15 48q0 3 1.5 8t1.5 6v7h-3q-11 -11 -18 -12q-20 0 -20 27q0 20 14 29h19q5 -3 7.5 -13.5t5.5 -10.5q2 0 2 1l10 38q0 5 -5 8h-31l-5 5q0 20 -8.5 51t-8.5 38t7 15v57 q8 7 13 7q13 0 13 -27h5q10 0 20 23q2 3 -7 13v45q-2 3 -5 3q-2 0 -13 -23h-19q-7 7 -7 18q0 10 3.5 31.5t3.5 30.5q0 2 -7 17.5t-7 17.5q0 11 5 44q3 28 2 45q8 5 10 4q5 0 11.5 -11.5t12.5 -11.5q2 0 11 20t22 20h15q7 -10 21 -28v-44l9 -12v-110l8 -11q0 -56 2.5 -167.5 t2.5 -167.5l8 -12v-144l7 -10v-111zM220 350v8q0 7 -5 6q-5 0 -5 -6q-2 0 -2 -4q0 -3 4 -6h6zM210 -212v7q-2 0 -3 -2h-4l-8 -8v-11q2 -2 4 -2v-2h3q2 0 2.5 1t0.5 4l3 7q2 4 2 6z" />
<glyph unicode="&#xa2;" horiz-adv-x="853" d="M773 885q0 -18 -38.5 -89t-38.5 -79q0 -16 19 -34q23 -25 27 -32v-67q-21 -28 -36 -28q-23 0 -59 36h-32q-33 -28 -156.5 -254t-123.5 -261q0 -11 8 -16q20 -13 43 -45q0 -79 -17 -78q-8 0 -19.5 15.5t-14.5 15.5q-5 0 -14 -8.5t-17 -8.5q-34 0 -62.5 -50t-56.5 -50 q-18 0 -34 20h-3q5 0 -18 -3q-10 -2 -15 6v13q0 36 40 79t40 48q0 31 -48.5 97.5t-48.5 104.5q0 31 23 36q0 18 -3 53t-3 53l13 22q15 21 15 36q0 38 8 49.5t43 25.5q-2 7 -2 13q0 30 28 51.5t59 24.5l11 11q0 16 52.5 44.5t72.5 28.5q20 18 41 23q5 0 51 1q21 30 56 31 q8 7 58 98t50 98l20 19h6q38 0 73 -31zM763 5q0 -8 -22 -26t-30 -18t-14 6h-37q-2 -3 -41.5 -13t-47.5 -10q-3 0 -7 2.5t-8 2.5q-5 0 -13 -6h-44q-25 -21 -36 -22h-4q-5 5 -28.5 8.5t-28.5 14.5v72q5 7 7 7q3 0 7 -9t6 -9q8 -2 24 -12h4q8 13 18 28q59 0 92 18h46q3 5 9 9 h12q11 -10 16 -10l17 16q10 7 31 23q31 0 43 -2q2 -3 18 -14q11 -10 11 -20v-36zM558 617v3h-3v-3h3zM522 542q-3 3 -15 11v15q0 7 3.5 19t3.5 19v11l-7 7h-3q-11 0 -100 -48t-103 -59.5t-56 -65.5t-42 -62v-136q0 -18 15 -52.5t15 -52.5q0 -10 -7 -18h-24l-7 -9v-29 q3 -5 12 -12h3q16 13 37.5 50t34.5 51q3 5 18 17t22 19q5 13 9 47q20 30 68 89v1q0 7 -2.5 18.5t-2.5 16.5q0 13 29 16l9 7v39q31 18 50 56q15 30 33 30zM151 192v33q0 3 -5 8h-3l-4 -2v-36l7 -6h3zM171 156q0 3 -4 5l-5 6h-3v-3l8 -8h4zM179 -69v7q0 3 -3 3h-2q-2 0 -3 -2 v-10q2 -2 3 -1h2q3 1 3 3z" />
<glyph unicode="&#xa3;" horiz-adv-x="1086" d="M1006 -3l-2 -20q-49 -46 -67 -46q-15 0 -41 9t-31 9t-15.5 -10t-19.5 -10q-57 0 -60 35q0 3 -5 3t-63.5 -23t-74.5 -23q-10 0 -22.5 9t-13.5 9q-15 0 -44.5 -9t-44.5 -9q-20 0 -57.5 -6.5t-57.5 -6.5q-34 0 -69 17q-43 20 -42 49q0 11 16 23v59q8 10 10 29.5t4.5 24.5 t13 9t10.5 6l-2 14h-21q-3 2 -13 23.5t-10 26.5q0 10 9 32t9 32q0 3 -9 8.5t-9 12.5q0 8 10.5 14t10.5 11q0 20 -9 60.5t-9 62.5q0 11 3.5 35.5t3.5 38.5q-2 21 -10 27v43q-38 44 -62 44q-15 -23 -30 -23q-13 0 -23 10l-8 10q-2 0 -6 -10t-16 -10q-13 0 -41 28v28 q13 28 58 28q21 0 23 -13h20q30 11 65 39q49 38 49 68l-4 5q-26 0 -30 3q-11 8 -12 48q0 16 15 22h25l6 7v28q-7 5 -17 27t-10 30v4l14 13v39q30 33 30 48q0 11 -3 21l-2 12q5 5 33 14q11 8 29 61q23 59 43 87q49 67 77 67q18 0 70.5 20.5t87.5 20.5q69 0 50 2q34 -3 35 -25 v-21q2 0 15 20.5t24 20.5q23 0 73 -21.5t50 -39.5q0 -10 2 -28.5t2 -28.5q0 -59 -40 -59q-10 0 -23 16q-11 11 -21 25v56l-21 6l-7 -3v-25q-3 -7 -8 -6q-5 0 -9 13t-8 13q-59 0 -59 34q0 11 -9 12q-10 0 -14 -14t-18 -14q-153 0 -221 -151q-28 -80 -54 -162q2 -11 -2.5 -33 t-4.5 -30v-188q0 -26 28 -27q11 0 35 7.5t37 7.5q31 28 120 28q66 0 66 10q3 31 51 31q56 0 55 -46q0 -39 -32.5 -63t-73.5 -24q-28 0 -38 13q-11 0 -32 5t-30 5q-3 0 -15.5 -11.5t-19.5 -13.5q-16 -2 -68 -19t-65 -17l-8 -8q-5 -7 -5 -11q0 -89 7.5 -267t7.5 -267l21 -19h2 q8 0 24.5 3t24.5 3q31 -20 57 -21q38 -2 50.5 -6t9.5 -4q7 0 19.5 11.5t19.5 11.5q25 0 31.5 -27t12.5 -27q11 0 12 16q0 7 -2.5 16.5t-2.5 13.5q0 8 49 8q11 16 28 16q16 0 27 -25t12 -25q8 0 12.5 13t5.5 14q56 39 86 40q26 0 59 -17t31 -42zM354 624v8q-8 -5 -32 -30v-1 q0 -5 1 -10l4 -7q2 -2 4 -1h2q5 7 21 41zM215 633v7q0 2 -2 3v4q-2 0 -3 1q-3 -2 -7 -5v-11q2 -2 4 -5h6q0 1 2 6zM161 624q0 8 -7 14h-3q0 -2 -1.5 -3.5t-1.5 -4.5v-5q0 -3 6 -10h4q3 7 3 9zM569 -16q-2 0 -3 2.5t-3 2.5h-2q-2 0 -3 -2v-3q0 -3 3 -4h5q3 1 3 4zM333 -43v7 q-13 13 -10 13v2h-1v-2q-2 0 -4 -2v-8l9 -8q1 -2 6 -2z" />
<glyph unicode="&#xa4;" horiz-adv-x="720" d="M640 351q0 -23 -36 -59h-2q-2 0 -29 10.5t-28 12.5v33l-7 6l-18 2l-5 7v13q0 -13 2 17t2 35q-2 18 -10 18q-11 0 -15 -39l-7 -7h-13l-16 15h-7q-3 0 -32.5 -22t-45 -22t-39.5 -4t-34 -4q-5 0 -18 7t-21 7q-38 0 -73 -45t-50 -45h-12l-28 28v13q11 10 20 41q7 26 12 26 q3 0 7 -5.5t7 -5.5q7 0 7 18q0 11 -26.5 43.5t-26.5 59.5q0 10 4.5 27.5t4.5 27.5q2 3 15 8.5t13 12.5q0 8 -14 28t-14 28q0 20 19 19q5 0 12 -6l6 -5q13 0 14 16q0 8 -10 15t-10 15q0 15 18 37t20 40l19 25v8q0 -7 -8 39q0 3 -3 3h-2q-11 -18 -24 -18q-39 0 -40 94 q0 56 40 56q18 0 18 -15q0 -13 -5 -37.5t-5 -37.5q0 -11 5 -12l6 12q7 11 18 11q31 0 31 -67l5 -5h48l18 18q3 2 34 3q5 2 27.5 20t23.5 18q8 0 22 -10.5t16 -10.5t9.5 6.5t13.5 6.5l12 -4l13 -14h1q2 3 10 18q18 31 51 65q3 20 21 51h36q23 -20 23 -31v-67q-62 -66 -62 -82 v-10q7 -21 25 -56v-44l6 -10q0 -15 -5 -58q-3 -36 -1 -57q-11 -13 -28.5 -51t-29.5 -61v-1q0 -7 4 -7q20 0 70.5 -43.5t50.5 -61.5zM435 829q0 7 -5 11v3q-2 3 -7 9h-3l-2 -4v-16q5 -8 12 -8zM478 650q0 5 -10 6l-5 7v10q0 8 7.5 20.5t7.5 13.5q0 16 -12 17q-8 0 -11 -15 l-7 -5h-8q-16 0 -25 11v15q0 7 4 21t4 20q-8 3 -24 12l-20 10h-36q-20 0 -39 -33q-3 -84 -66 -89q-28 -26 -28 -42v-58q8 -20 21 -43h17q5 3 11 7h28q5 0 16.5 -13t11.5 -18v-49q0 -3 -3 -12.5t-3 -14.5q0 -15 3 -16h18l13 15l15 1q18 13 49 45q0 31 2 34q13 10 34 36 q10 15 13 43t7 34zM174 455v18q-3 7 -8 18v5l-4 3h-3l-5 -3q-3 0 -3 -5q0 -3 3 -9l2 -6q0 -3 2 -5q0 -8 8 -16q0 -2 1 -4h4q3 2 3 4z" />
<glyph unicode="&#xa5;" horiz-adv-x="1109" d="M1029 1017q0 -31 -2 -41q-33 -26 -177 -236t-144 -231q0 -15 39 -28q33 -11 51 -12q2 0 7.5 18t20.5 18q10 0 33 -14h1q44 0 49 -2q28 -7 28 -39q0 -23 -29.5 -47t-52.5 -24q-66 0 -89 19l-24 20q-23 -31 -36 -31q-7 0 -23 4t-28 3q-16 -15 -16 -20v-97q10 -18 18 -18 q3 0 44 7q25 3 51 0q8 -2 29 -23q7 0 12 13t10 16h67q7 8 17 9q20 0 35 -16.5t15 -36.5q0 -26 -30 -50t-58 -24q-16 0 -54 8q-10 11 -23 23q-7 0 -17 -11.5t-16 -11.5q-10 0 -43 4q-26 3 -41 1q-16 -11 -16 -24q0 -8 6 -17q0 -15 2 -42.5t2 -42.5q0 -110 -79 -110 q-102 0 -46 -2q-28 0 -28 17q0 11 14 41.5t14 45.5q0 28 15.5 69t15.5 51q0 8 -3 14q-15 -20 -38 -19q-10 0 -14 17t-7 17q-34 -20 -41 -20h-45q-7 5 -13 5q-10 0 -33 -9.5t-36 -9.5q-25 0 -24 13q0 3 3 12t3 12v28q-7 7 -6 15q0 16 17 19.5t35 7t23 3.5q15 0 45.5 -10 t39.5 -10q30 0 40.5 39.5t14.5 45.5v35q-13 20 -22 19q-3 0 -8 -3t-10 -3l-13 15h-13q-10 0 -29 -3.5t-28 -3.5q-2 2 -7 2q-13 0 -47.5 -11.5t-44.5 -11.5q-18 0 -40 12t-22 29q0 59 39 59q13 0 18 -10t7 -10q3 0 16 18t30 18q5 0 13 -2.5t13 -2.5q30 30 31 33v51 q-10 3 -26 13q-8 28 -17 56q-21 -11 -29 -12q-18 0 -18 27l10 12t10 22q0 18 -9 18q-5 0 -9 -8q-5 -13 -7 -15h-20q-34 25 -39 76q-2 7 -73.5 84.5t-71.5 85.5q0 57 28 64q15 3 32 5q2 11 24 27h36q21 -20 45 -78q23 -62 39 -78q3 -3 144 -186q121 -158 135 -157 q48 0 143 195q103 212 119 225q5 33 10 33q18 0 18 5q0 72 30 72h11q18 0 28 15q23 0 51 -9q38 -12 38 -28zM286 159l-9 -8q-3 0 -6 -3h-10l-7 6q-2 8 -18 18q-7 5 -6 13v28l5 5h23q5 -3 5 -16q0 11 18 -25q5 -10 5 -15v-3zM832 834v6l-3 2q-5 0 -5 -5v-3l1 -2h4zM174 904v5 l-7 7h-5q0 -2 -3 -4q0 -2 1.5 -5.5t1.5 -5.5l4 -3h1q4 1 7 6zM205 852v18q0 5 -11 8v-7q0 -5 1 -9v-10l4 -4h3q3 2 3 4zM281 786q-5 -3 -7 -10v-5q5 5 7 15zM415 596q0 13 -5 13h-1q-3 -2 -4 -3v-5q0 -5 10 -5zM589 185v2q0 3 -3 3h-13q-2 0 -3.5 -2.5t-3.5 -2.5q2 -3 3 -3 h17q3 0 3 3z" />
<glyph unicode="&#xa7;" horiz-adv-x="687" d="M607 533q0 -92 -80 -257q0 38 37.5 -50t37.5 -106v-115q-26 -62 -85 -184q-94 -177 -207 -177h-75q-7 0 -12.5 13t-9.5 15l-19 -20h-5q-33 0 -51 25q-2 3 -26 51l-5 52q0 20 18 20q7 0 36 -22.5t29 -25.5q0 -5 -18 -18t-18 -23q0 -20 12 -20l16 27q15 26 43 26 q21 0 31 -30.5t18 -30.5q13 0 13 15q0 43 30 54q49 20 62 33q31 43 95 112q0 18 11.5 52.5t11.5 50.5q0 10 -5.5 31.5t-5.5 32.5l19 20v1q0 36 -78 86q-71 44 -102 44q-5 0 -11.5 -3.5t-9.5 -3.5q-5 0 -14 15q-2 3 10.5 15.5t12.5 14.5v8q-10 0 -24.5 -19.5t-25.5 -19.5 q-10 0 -17.5 19.5t-10.5 19.5h-7q0 -21 -23 -21q-38 0 -38 23q0 2 6 14t6 18q0 11 -3 12q-3 0 -6.5 -6.5t-7.5 -8.5h-27q-5 15 -15 39q-8 15 -8 25l14 61h-23q-5 3 -5 15q0 36 20 90q21 61 49 69v21q7 7 43 39.5t36 44.5q0 5 -6.5 7.5t-8 5.5t-6.5 11q-3 3 -8 4 q-44 0 -63 14l-42 46v32q15 11 14 23l-3 11q-15 0 -16 5q0 16 5.5 48t5.5 49q0 62 -1 54q5 38 32 38q5 0 12.5 -6t9.5 -6q3 0 5 3v42q8 18 77 70.5t84.5 52.5t42.5 2.5t42 2.5q8 10 21 9q112 0 112 -67q0 -95 -45 -95q-10 0 -13 5v42l-11 12q-2 0 -7.5 -10t-17.5 -10 q-25 0 -35.5 20t-13.5 20q-57 0 -133.5 -61.5t-76.5 -117.5v-87l13 -13q-2 -21 -2 -36q0 -36 12 -37q10 0 33 12.5t36 12.5q10 0 23 -10t16 -10q141 0 205 -52q69 -60 69 -199zM174 1021q-2 3 -3 3h-4v-8zM546 565v6h-4v-6h4zM195 752q0 13 -13 13v-8l8 -9h4zM538 492v5 l-23 -10h-1l-7 5v15q0 5 1.5 12.5t1.5 12.5q-15 10 -33 49t-42 54q-5 3 -5 5l-3 20l-4 3h-1q-15 -11 -43 -16q-33 -7 -44 -12q-107 -53 -128 -128q-13 -46 -13 -34v-50q0 -2 2.5 -5.5t2.5 -5.5v-44q0 -2 -2.5 -7t-2.5 -7q0 -15 11 -14h2l11 8h31q7 -8 42.5 -22t46.5 -14 q3 0 7.5 2.5t7.5 2.5h5q3 -2 5 -2q13 11 18 12q5 0 13 -3.5t13 -3.5q16 0 45.5 25.5t29.5 41.5q0 3 -2 7.5t-2 7.5q0 2 10.5 21.5t10.5 27.5q7 7 13 7l10 -2q16 31 16 36zM277 300v4h-3v-4h3zM527 31v8q-2 2 -4 2v2q-2 0 -3 -2l-1 -2v-8q0 -3 3 -3h1q4 0 4 3z" />
<glyph unicode="&#xa8;" horiz-adv-x="620" d="M546 1044q0 -3 -24 -68q-10 -16 -28 -16h-20q-2 0 -14 10t-14 10h-8q-10 -11 -16 -12h-2q-31 20 -31 31q-11 7 -28 22v42q7 7 8 25q7 3 20 13q0 7 8 15h20q5 -2 11 -7h2l7 7q0 8 9 28q2 2 7 1h20q3 -2 9 -4h15q5 -2 20 -5l28 -28q2 -2 1 -7v-57zM284 1044q0 -3 -25 -68 q-10 -16 -28 -16h-19q-2 0 -14.5 10t-13.5 10h-8q-10 -11 -17 -12h-1q-31 20 -32 31q-11 7 -28 22v42q7 7 9 25q7 3 19 13q0 7 9 15h19q5 -2 12 -7h1l7 7q0 8 10 28q2 2 6 1h20q3 -2 10 -4h15q5 -2 19 -5l28 -28q2 -2 2 -7v-57zM428 1024v48q-5 3 -13 11l-1 -2q-3 -2 -12 -9 v-35q2 0 6 -10.5t9 -10.5q3 1 11 8zM166 1024v48q-5 3 -13 11l-2 -2q-3 -2 -12 -9v-35q2 0 6 -10.5t9 -10.5q4 1 12 8z" />
<glyph unicode="&#xa9;" horiz-adv-x="1261" d="M834 711q-3 -7 -28 -32h-13q-7 3 -32 17q-7 3 -6 11v10q2 8 11 26q5 8 12 9h28q8 0 24 -17q3 -2 4 -5v-19zM1182 502q0 -59 -50 -152q-44 -85 -92 -133q-53 -53 -175.5 -113.5t-144.5 -82.5h-42q-18 -13 -28 -13q-15 0 -42 -4t-42 -4q-11 0 -32.5 12.5t-32.5 12.5 q-2 0 -8.5 -12.5t-14.5 -12.5t-17 11l-8 12q-7 0 -12 -10h-27q-7 2 -7 38q7 7 7 11q0 5 -7 13q0 33 7 33h19q3 -2 7.5 -10.5t9.5 -8.5l31 3q7 0 13.5 -14t7.5 -14q8 0 22 -4t18 -4q3 0 4.5 5.5t6.5 7.5h38q11 18 18 18q5 0 12.5 -5t11.5 -5q10 0 20 10q49 0 82 19.5t36 19.5 q66 0 176 121.5t110 190.5q0 30 7.5 86.5t7.5 85.5q0 8 -11 15t-11 22q0 18 18 46q0 57 -24 57q-51 0 -115 144l-10 -1v-15q-2 -3 -15 -3q-26 0 -47 16q-23 10 -66 41l-5 2q-3 0 -14.5 -7.5t-19.5 -7.5q-11 0 -17 18t-13 18l-5 -3q-49 -44 -178 -94.5t-178 -99.5 q-151 -151 -151 -276v-82q3 -3 15.5 -77.5t12.5 -87.5q0 -16 -7 -50q-7 -39 -8 -46.5t-11 -7.5q-13 0 -33 29.5t-20 44.5q0 44 -5 54q-2 3 -33 40q0 10 8.5 29.5t8.5 29.5q0 7 -5 13q-34 0 -35 16q0 5 11.5 16.5t11.5 16.5q0 3 -7 7.5t-7 9.5v37l13 13v43q5 3 16 25v44 q11 26 36 66l17 6q16 7 16 12q0 34 54 98t87 66q26 31 71 31q3 2 26 36q16 2 57.5 20.5t45.5 18.5q7 -2 32 -14q2 2 51 34q36 25 65 25q13 0 37 -15.5t34 -15.5l9 15q10 16 20 16q5 0 15 -15.5t15 -15.5q3 0 13 8t16 8q5 0 25 -10.5t31 -10.5q36 0 100 -40.5t64 -75t28 -51 t28 -40.5q0 -16 20.5 -66.5t32.5 -66.5v-120zM748 778q0 -41 -11 -51h-23l-20 20q-5 -5 -29 -25q-36 -16 -107 -62q-21 -20 -46.5 -67.5t-40.5 -62.5q0 -13 -6.5 -37.5t-6.5 -37.5v-9q11 -21 11 -28q0 -28 2.5 -29.5t35.5 -31.5t66 -39q23 -11 16 -11q13 0 34.5 -9t24.5 -9 q5 0 15.5 3t17.5 3q10 -8 25 -16q5 -7 11 -12h3q-8 0 12 4q10 0 10 -7q-2 -7 -5 -8q-3 0 -10 2q-5 2 -7 0q-3 -3 -3 -13q-18 -13 -38 -14q-10 0 -21 7.5t-13 7.5q-5 0 -14 -7.5t-14 -7.5q-11 0 -18 25l-7 26q-8 0 -18 -11l-1 -8q-11 -15 -27 -15q-7 0 -16.5 18t-12.5 18 q-5 0 -12 -3q-7 -2 -11 0q-10 13 -12 46q-25 30 -24 44l-5 5l-7 -2q0 -7 4.5 -19t4.5 -19v-5l-5 -4h-20q-23 11 -23 27v37q20 13 20 29v3q-7 5 -20 14q3 18 -6.5 32.5t-9.5 24.5q0 5 31 54q0 15 15.5 48.5t26.5 45.5q31 8 33 24q2 11 7 15q20 20 62 46l67 41q20 13 20 15h89 zM842 245q0 -2 -2 -5q-10 -5 -15 -15q-11 -5 -13 -8h-51q-15 10 -14 18q0 8 7 17t7 14t9 21q10 7 14 8h37q3 -2 8 -8l10 -10q3 -2 3 -5v-27zM394 112q0 -3 -9 -24t-8 -35v-9l-6 -5h-28l-28 28l-10 2q-18 18 -28 38l-19 1q-20 13 -20 45v19q0 5 6.5 22.5t6.5 25.5q7 7 13 6 q10 0 58 -47q8 -33 8 -23l-2 -10q5 0 7 -2l11 4q5 0 16.5 -4.5t16.5 -4.5q15 -7 15 -27zM998 858v4h-2v-4h2zM1101 650v8q-2 2 -3 2h-2q-3 -2 -3 -7v-3q0 -3 3 -3h2q3 0 3 3zM1101 540v0q0 3 -3 3h-2q-3 0 -3 -3q2 -2 3 -2h2q1 0 3 2z" />
<glyph unicode="&#xaa;" horiz-adv-x="795" d="M615 967q-2 -3 -5 -7h-4q-5 2 -7 7v27l5 5h6l5 -5v-27zM715 532q-31 -36 -44 -36q-41 0 -51 3q-21 7 -21 36v11l7 5h24l3 5q0 5 -3 16.5t-3 18.5l-5 5q-25 0 -67 -41q-15 -13 -52 -27t-48 -24h-20q-8 7 -28 6l-13 -14h-8q-13 0 -21.5 7t-10.5 7q-8 0 -8 -14l-6 -5h-36 l-5 5v8q0 33 31 39q8 2 56 2q26 8 65 26q56 41 123 117q0 -10 13 42l19 17l1 24q5 10 15 17q0 15 2.5 42.5t2.5 42.5v18l-12 15q0 11 6 35t6 35q0 34 -18 35q-7 0 -17.5 -1.5t-17.5 -1.5q-20 15 -19 37q0 8 6.5 24.5t6.5 25.5q11 8 18 8q20 21 65 59h10q54 0 54 -168v-159 q0 -11 -4.5 -35.5t-4.5 -36.5v-85q0 -15 4.5 -42t4.5 -42v-62zM538 1111q0 -38 -23 -36l-13 -15h-20q-8 7 -23 20h-3q-15 0 -106 -55t-105.5 -71.5t-32.5 -61t-18 -68.5v-89q0 -13 11.5 -38.5t11.5 -36.5q0 -15 -18 -18q-13 -8 -28 -20q0 -10 -9 -18h-4l-7 6q-2 11 -15 22 l-24 18v6q0 3 14 18v20l-14 12q0 7 -4.5 18t-4.5 18q0 5 4.5 18t2.5 18q-11 39 -12 36q0 10 5 28q8 7 17 16v36q8 7 15 13q5 20 21 35t20 28q15 11 46 62q18 30 72 31q79 67 100 68q10 0 28 4t26 4q7 0 16 -6t15 -6q5 0 16.5 6t18.5 6q24 0 24 -28z" />
<glyph unicode="&#xab;" horiz-adv-x="651" d="M571 189q0 -44 -36 -81h-28q-5 0 -17 15t-12 21q2 3 3 35q2 31 0 51q-3 25 -17 24q-5 0 -12 -7t-12 -7q-41 0 -41 39q0 3 3 8t3 8l-11 20l-20 2q-11 7 -11 14t1.5 20t1.5 20l-30 21v51q-3 3 -21 49v36l7 7l19 2q16 11 17 14q0 39 18 53v46q3 33 24 33q8 0 14 -5t8 -5h1 l7 6q0 33 44.5 137.5t65.5 104.5l6 -2q5 -10 15 -15l2 -5v-138q-5 -10 -18 -34q-2 -3 -18 -28q-28 -33 -74 -102q-7 -21 -25 -60q-8 -13 -18 -25v-67q23 -21 58 -63q11 -39 37 -106q7 -10 40 -28q26 -15 26 -59zM354 203q0 -54 -1 -60q-7 -25 -38 -43q-3 -2 -8 5 q0 13 -12 34q-2 3 -10.5 7.5t-8.5 7.5l13 18q13 20 15 28q-7 11 -15 12q-3 0 -11.5 -17.5t-21.5 -17.5q-5 0 -10 7q0 16 -9 32.5t-9 18.5l5 18q2 3 2 8t-5 8h-35l-5 7q0 20 -7 34.5t-9 20.5l-15 14v3l11 16q12 15 12 25v6q-13 13 -36 43h-25l-8 7v44l-15 18v30q2 7 14 6 q8 0 13 -9t6 -9q8 0 13 10v38q10 11 15 56l7 6q41 7 41 56q3 5 23 8v46q3 7 16 15v38q3 7 20 23l1 16l7 8h25l6 7v47l8 5h28q13 -11 13 -19v-122q0 -15 -79.5 -129.5t-79.5 -139.5q0 -26 37 -86t37 -80q0 -3 -1.5 -9.5t-1.5 -9.5q13 -21 34.5 -32t22.5 -13q3 -10 4 -19 q27 -31 27 -42zM162 368q0 -3 -3 -7h-16q0 2 -2.5 3.5t-2.5 3.5q-8 8 -8 16q-2 2 -2 3l2 2q0 7 5 6h14q13 -18 13 -22v-5zM451 300v4l-1 1q0 2 -2 2h-2v-2l-3 -1v-4q2 0 3 -3h4q-1 1 1 3zM258 309v8q-2 2 -7 3h-2q-2 0 -3 -2.5t-3 -2.5v-3l6 -7h2q2 2 7 4z" />
<glyph unicode="&#xac;" horiz-adv-x="861" d="M781 376q-5 -10 -18 -58q-11 -39 -38 -39h-10l-13 13q0 67 -24 84v28q10 15 10 19l-10 15v56q-41 44 -59 44q-23 0 -65 10t-62 10q-5 3 -11.5 19.5t-9.5 16.5t-5 -3l-2 -28q-5 -5 -14 -13h-9q-10 0 -17 16.5t-9 16.5q-7 -11 -18 -27h-44q-16 -15 -51 -14q-36 0 -57 11 q-34 18 -46 21q-5 3 -10 12v36l-7 5l-8 2l-8 -2l-7 6v5q0 7 7 12q8 0 18.5 4t14.5 4q7 0 14 -8h50l6 -5l2 -20q3 -7 6 -6h2q11 13 25 26q7 5 39 5h15l15 -12q8 0 23.5 -2.5t23.5 -2.5q3 0 13 6t12 6h52q7 -7 18 -20q3 -7 7 -15q30 0 44 -24l3 -3l5 1l2 15q-10 11 -10 21 q0 30 59 30q8 0 17 -4l9 -4q5 0 17.5 8t15.5 8h40q10 -8 33.5 -41t23.5 -43v-198zM146 578l-7 -7h-4q-13 7 -33 26q-3 2 -4 5v28q0 -2 9 12q2 0 5 3h11l7 -7q0 -5 1 -13q0 -2 7.5 -12.5t7.5 -13.5v-21zM706 535v23l-5 5l-12 -10v-28q10 0 17 10zM715 415v17l-6 6q-5 0 -5 -5 v-13q2 -3 2.5 -4t4.5 -4q1 1 4 3z" />
<glyph unicode="&#xad;" horiz-adv-x="850" d="M770 602q0 -20 -35.5 -43.5t-56.5 -23.5q-8 0 -20.5 17t-15.5 19h-9q-3 -2 -8 -12.5t-16 -10.5q-7 0 -35 12q-11 5 -29 1q-20 -3 -30 -3t-25.5 -5t-23.5 -5q-7 0 -17.5 3.5t-16.5 3.5q-8 0 -20 -4q-5 -2 -10 -1q-5 0 -11.5 4t-13.5 12q-7 5 -8 -11q-11 -11 -23 -12h-49 q-7 3 -10 23h-5q-23 -31 -36 -31q-36 0 -47 5l-2 2q-2 0 -2 -2l-24 -13h-61q-11 7 -12 16q0 7 14 17q8 8 18 14q2 16 19 50h41q20 20 36 19q36 0 43 -1q25 -34 25 -51q3 -7 8 -7q3 2 8 7v16q0 49 -1 23q0 15 16 15q-7 0 13 -3q7 -10 23 -27q28 28 33 30q3 0 15 -3 q7 -10 16 -18h10q7 5 11 9l12 2q8 0 15.5 -5.5t10.5 -5.5l18 14q18 15 33 15q8 0 57 -23q5 -2 30.5 17t30.5 19q30 0 95 -16q21 -20 22 -28v-20z" />
<glyph unicode="&#xae;" horiz-adv-x="1255" d="M858 267q-21 -28 -39 -27h-12q-5 10 -19 27l-2 12q-7 -2 -11 -2q-15 0 -25 13l-12 2q-20 16 -19 33v10q5 5 5 13l-22 -2q-7 -7 -26 -6q-11 0 -64.5 23t-76.5 23t-23 -22v-57l15 -17v-62q-20 -20 -26 -20h-2l-21 20v43q-13 8 -22 16l-1 5v99l1 4q18 11 51 45v5 q0 31 -16 31q-5 0 -10 -5v-33l-8 -6h-7q-26 0 -26 14v36q15 23 15 64q0 59 16 105q-10 25 -10 33l3 22q8 5 18 21q5 8 27 8q20 0 29 -13h5q26 26 54 33q13 3 61 5q5 2 14 12.5t16 10.5q25 0 44 -23q41 -2 79.5 -39t38.5 -78v-67q0 -71 -151 -166q10 -8 28 -26q-2 -10 8 -28 q31 7 77 -19.5t46 -57.5v-12zM1175 507q0 -144 -176.5 -319t-320.5 -175q-11 0 -30 -6.5t-29 -6.5q-18 0 -18 28q0 11 31 59h34q10 -15 25 -15q20 0 38.5 18t33.5 18q33 18 143.5 115t110.5 115q0 28 16 80.5t16 85.5q3 3 13 17t13 14q8 0 11 -14l4 -14q5 0 5 15 q0 36 -14 36q-23 0 -23 20q0 8 7 16v44q21 13 21 22q0 10 -13 13l-26 6q-5 16 -30 45v28q-3 8 -23 16q-13 5 -16 38l-20 19q-23 3 -39 38t-36 40q-11 -15 -25 -15q-13 0 -47.5 15.5t-44.5 25.5q0 3 -9 14.5t-14 11.5l-3 -2q0 -34 -16 -34t-30 23q-41 -36 -185.5 -101.5 t-204.5 -121.5q-100 -94 -101 -228v-91q11 -39 35 -118q34 -115 67 -115q57 0 58 -47q0 -10 -15 -36v-31q-2 -5 -8 -5q-31 0 -81.5 40t-50.5 71q0 8 7.5 11.5t7.5 5.5q0 56 -16 55q-3 0 -13 -26t-17 -26q-18 0 -34 20v41l-13 13v42q-31 25 -32 41q0 5 7 18.5t7 21.5 q0 18 -3.5 53t-3.5 53q8 7 8 15t-8 18q0 57 33 81v34l38 28q23 0 23 15v28q2 15 24 21v38q3 13 74 60.5t87 49.5q7 3 16.5 19.5t22 16.5t29 8t19.5 8q25 0 36.5 11.5t17.5 11.5q30 0 84 26.5t84 26.5q8 0 39 -28h2l12 14q11 14 20 14q5 0 11.5 -15.5t15.5 -15.5h3 q25 25 31 24q-2 0 24.5 -16.5t53.5 -16.5t32 -3q13 -13 26 -25q21 0 58 -25t37 -45q0 -11 -12 -24l-11 -14q0 -28 25 -28q62 0 62 -52q0 -15 -11 -15q-8 0 -39 25l-5 -2q0 -7 9.5 -12.5t9.5 -7.5q16 -21 20 -23q7 0 17.5 6t15.5 6q15 -15 21.5 -50.5t14.5 -46.5v-115z M602 59q0 -11 -14 -28.5t-17 -25.5l-5 -5h-1q-2 0 -6 1.5t-6 1.5t-5 -1.5t-5 -1.5h-36q-8 0 -36 23h-7l-1 -10q-3 -5 -12 -13h-3q-2 0 -25 23h-39l-5 5v23l2 10l1 1l-1 2q-3 23 -4 33q0 5 2 15l5 5q7 2 8 1q23 0 26 -16v-35q3 -3 7 -3q5 0 7 23l5 5h19q8 -5 8 -23h7 q5 3 13 10h12q8 -7 8 -18l6 -5h5q0 10 8 13h32q26 16 24 18q8 0 23 -23v-5zM973 868q-5 -2 -11 -6l5 -7q6 3 6 13zM1106 635v5h-7l-13 -13v-3q2 -2 4 -2v-2h1v2zM771 658q0 71 -100 56q-11 -2 -35 -17.5t-37 -15.5q-7 0 -20 2.5t-19 2.5q-15 0 -15 -13q0 -8 10 -28 q-5 -3 -20 -25q-26 -39 0 -82q16 -7 38 -33q-2 -11 3 -31q8 -10 20 -10q8 0 28.5 7t25.5 8q21 -2 64 12q25 13 32 45.5t12 62.5q13 70 13 59zM770 320q-2 2 -4 7h-3q0 -2 -3 -4v-5q2 -3 3 -3h3q2 2 2 3zM494 535v5q0 3 -1.5 4t-1.5 2h-4q-2 2 -3 2q-2 0 -5 -2h-6l-2 -3 q0 -8 23 -8zM515 492v20q-5 10 -11 11h-3q-2 -2 -2 -3v-11q0 -11 5 -22h6zM558 643q0 -7 -3 2q1 1 3 -2z" />
<glyph unicode="&#xb0;" horiz-adv-x="595" d="M515 921q0 -7 -4 -25t-2 -30q-5 -16 -18 -44q-26 -34 -79 -72q-59 -44 -94 -44h-14q-13 10 -14 29v7q3 3 27 21l28 21q10 7 44 43q30 30 29 49q0 2 -5.5 12.5t-5.5 18.5q0 5 5.5 12t5.5 11v64q0 7 -5.5 17.5t-5.5 17.5v5q28 21 28 34v5q-3 7 -12 12h-5l-8 -7h-15 q-13 10 -29 8q-10 5 -15 15h-3q-36 0 -67 -29l-58 -55l-21 -52v-51q0 -15 22 -59t34 -53l13 -1q20 -11 19 -35v-8l-4 -5l-10 -1q-25 0 -33 13l-7 13q-3 0 -5.5 -8.5t-8.5 -8.5q-5 0 -17.5 4.5t-17.5 4.5l-13 13q-10 -2 -32 21t-22 33v41l-22 20v5q0 28 7 47q5 11 36 76 q21 43 61 47q3 3 21 33q11 18 31 20q28 2 34 5t30 26h61q5 -11 20 -30h42q16 -13 37 -37q5 -5 21 -53.5t16 -55.5v-60zM474 1022l-6 7h-2q-8 -7 -8 -12v-8l1 -3h4q4 6 11 16zM443 930l-5 7q-3 -2 -3 -3v-4h8zM187 822v15l-5 5h-6l-5 -5q2 -7 11 -16q0 -2 2 -2t1 2z" />
<glyph unicode="&#xb1;" horiz-adv-x="851" d="M771 612q0 -90 -65 -90h-15q-10 5 -36 34h-2q-3 0 -21 -17t-25 -17h-1l-9 6v28l-5 4q-3 0 -1 -2q-7 -5 -33 -23q-7 -5 -51 -5l-20 -21v-95q2 -18 15 -50q0 -62 -18 -88q-10 -16 -66 -54h-3q-8 0 -28 19q-25 23 -28 25v28q10 5 15 15q0 7 4 19t4 17v49q-10 16 -14 20v27 q5 7 21 12q10 5 10 23q0 7 -14 7.5t-17 5.5q-16 39 -22 39q-5 0 -14.5 -13t-13.5 -14h-115q-8 0 -25 -5t-25 -5l-10 1l-15 11q-16 11 -16 17q0 8 6 12h21q3 3 4 10q0 33 8 41.5t41 8.5q10 0 31 -14h3q-5 0 32 23q2 0 19.5 -8.5t24.5 -8.5q34 0 29 2q39 33 37 95q7 7 13 7 l6 -2l17 -16h3l7 6v5q-23 30 -23 59v10q11 10 23 21q0 10 -10 10q-5 0 -17 -11h-13l-6 6v2q0 15 9.5 38.5t21.5 23.5q10 0 22 -15.5t14 -15.5h3l12 12v1q0 2 -2 6t-2 6q11 23 35 23q21 0 21 -23v-36l-6 -10v-43l-9 -11v-97q0 -7 11 -17t17 -10q7 0 21 7.5t15 7.5h68 q7 0 25.5 -7.5t26.5 -7.5q5 0 24 11t37 11h18q21 -22 21 -20zM763 136l-2 -6q-69 -64 -108 -64h-15q-51 31 -111 31q-85 0 -102 -7q-3 -2 -13 -9t-17 -7t-17 9t-15 9q-28 -16 -33 -18h-3q-8 7 -17 6q-15 0 -31 -14h-2q5 0 -14 8q-5 15 -10 15q-8 0 -35 -23q-59 -5 -54 -5 q18 0 -52 5q0 2 -7 6.5t-7 7.5v20q0 20 20 36.5t40 16.5q2 0 6.5 -2t6.5 -2q5 7 11 12h5q8 0 23.5 4t24.5 4q11 0 34 -3.5t35 -3.5q8 0 25 7t25 7q11 0 25 -10h2q5 0 14.5 1.5t14.5 1.5q5 -3 6.5 -15.5t5.5 -12.5h1q3 8 12 21h52q25 21 40 22h5q10 -7 26 -8q5 -3 8 -23l5 -5 q67 53 122 52q20 0 45 -14t25 -30v-20zM427 512v5q0 7 -10 6v-6q2 -7 1 -8l4 -4h1q4 4 4 7zM543 121q-2 3 -5 7h-6q-2 -3 -5 -7v-1q2 -2 5 -7q4 1 11 8zM179 120v10q0 8 -3 8v1q-2 0 -4 -1l-1 -2q0 -8 -4 -8q0 -5 -9 -15q0 -5 4 -5h9q8 5 8 12z" />
<glyph unicode="&#xb2;" horiz-adv-x="679" d="M578 975q-3 -5 -53 -102q-21 -41 -100 -110l-118 -102l-18 -11q-10 -7 -10 -17q3 -5 26 -19l2 -8q0 -10 -13 -23h-10q-16 0 -43.5 -12.5t-43.5 -12.5q-13 0 -28.5 7.5t-17.5 7.5q-46 0 -33 -2q-20 3 -20 30q0 8 15 26t23 18l8 -5q8 -3 15 -2q5 10 18 27q28 18 81 54l1 6 q15 7 40 22q44 34 108 108q82 95 82 139q0 8 -5 25.5t-5 25.5q-18 21 -36 45q-23 23 -48 24q-7 7 -13 15l-3 -3l-2 -20q-16 -5 -55 -16q-15 -5 -66 -35q-41 -25 -66 -24q-28 0 -39 14v10q0 20 21.5 37t40.5 17q13 0 22 -6h16l7 6l1 17l8 11q62 16 69 17q7 0 19.5 -4.5 t17.5 -4.5t17 4.5t17 4.5q7 0 17.5 -2.5t16.5 -2.5q33 -7 84 -31q3 -11 13 -23q13 -2 20 -12q10 -16 11 -18q5 -11 9 -23v-67zM599 627q0 -20 -21 -41q-2 -2 -7 -3h-13q-3 0 -13 5.5t-12 5.5q-10 0 -26 8v23l5 10q2 3 3 12l7 6h16q11 2 17 2q7 7 11 6h23q10 -26 10 -21v-13z M491 619q0 -23 -18 -23q-10 0 -14 8t-8 15v19q3 3 15 12l8 3h5l7 -8q5 -3 5 -5v-21zM438 610q0 -23 -20 -23q-13 0 -27 15q-2 7 -9 17v6q7 5 17 17q3 0 6 3h10q11 0 23 -15v-20zM359 594l-5 -5q-7 -2 -8 -2q-25 0 -24 15v15l13 13h19l5 -5v-31zM530 1065v10q0 2 -2.5 3.5 t-2.5 2.5q-5 2 -11 5h-4l-8 -8v-1q0 -2 4 -10.5t4 -12.5q0 7 5 -12q2 -11 4 -25q0 -2 3 -3h3q5 8 5 51z" />
<glyph unicode="&#xb3;" horiz-adv-x="628" d="M371 1104l-5 -5h-3q-5 0 -12.5 3.5t-12.5 3.5h-5q-8 -7 -23 -15q-13 0 -39 -6l-4 -2l-60 -59q-16 -16 -33 -16q-11 0 -16 6q-28 2 -43 21l24 51q3 5 12 13h15q11 -8 11 -24l-1 -7q3 -2 3 -5q5 2 11 9v6q0 13 -6 18v15q5 5 16 5q3 0 10.5 -2.5t11.5 -2.5h1l7 5q0 18 1 21 q2 10 12 18q8 0 24.5 4t22.5 4h28q7 0 18.5 -13t11.5 -19l3 -4q8 0 20 -8v-15zM548 779q0 -69 -20 -88q-85 -85 -124 -85h-45l-5 4v10l2 18q59 48 103 128v2q0 13 -36 51v11q0 10 12 30l-2 2q-7 0 -23 -11.5t-23 -11.5h-36q-7 5 -13 11h-5q-7 0 -20 -5.5t-19 -5.5 q-21 0 -26 16t-7 16l-8 -9q-8 -10 -18 -10q-20 0 -20 16q0 15 41 41q51 33 56 38q51 8 65 23q21 31 43 61v29q-7 7 -13 15v6q0 3 2.5 10.5t2.5 11.5q-10 8 -28 28v5q0 20 25 19h9q25 -11 53 -28q-2 -15 14.5 -37.5t16.5 -35.5v-10q-16 -49 -64 -130v-2q0 -11 9 -28.5 t19 -17.5q16 0 23 -8q15 -21 21 -26l2 -8q36 -35 36 -45zM341 604q0 -5 -6 -13h-36l-5 6q-2 2 -2 4v11q0 3 2 3v4l1 1q10 10 12 10h20q5 -2 5.5 -3.5t4.5 -5.5t4 -17zM271 587l-5 -4q-16 -2 -10 -2q-11 0 -25 13h-1q-7 -7 -15 -16q-2 -3 -5 -4h-11q-5 0 -8.5 6.5t-6.5 6.5 v28l15 15h11q5 0 13 -11h3q5 0 9 1l3 2h28l5 -7v-28zM171 597l-5 -6h-31l-9 8q-2 5 -5 13q-10 5 -23 15v20q0 7 12 6l20 -3q8 -3 36 -3l5 -5v-45z" />
<glyph unicode="&#xb4;" horiz-adv-x="425" d="M345 1057q0 -16 -69 -102q-5 -8 -30 -75q-10 -25 -34 -61q-31 -46 -38 -58q2 -11 -21 -47q-8 -8 -23 -8q-23 0 -32 13v98l5 5h10q3 0 10.5 -1.5t11.5 -1.5l8 8q0 7 4 21t4 20q0 7 -2.5 17.5t-2.5 13.5q0 13 30 17l6 6q3 36 38 74q2 18 3 23q2 13 12 20l11 1q5 3 7 7v61 q8 15 51 52h6q10 0 22.5 -9t12.5 -19v-75z" />
<glyph unicode="&#xb5;" horiz-adv-x="899" d="M819 243q0 -54 -37 -116.5t-85 -93.5q41 5 35 5q5 -3 20.5 -33.5t15.5 -37.5q0 -13 -7 -20v-4l19 -23q19 -22 19 -41q0 -30 -20 -43h-6q-33 0 -33 31q-20 34 -67 90q-2 15 -8 43q-5 7 -12 13q-11 -2 -21 -2t-17 2l-13 15h-5q-10 0 -11 -12q-16 -13 -31 -13q-39 0 -40 31 q0 26 28 55h3q3 0 10 -4.5t12 -4.5q10 0 74 69t64 82q0 64 16 84h5q3 -2 18 -39q8 -3 8 11q0 -10 -15 49q-36 36 -36 73q0 18 28 50v9q0 15 -14 42.5t-14 45.5v15l5 5h22l1 8q-11 31 -23 36h-3q-39 0 -28 -1q-13 2 -13 28v9l15 17q3 13 3 6q0 2 -5 9.5t-5 13.5v9l13 16 q7 8 30 10l3 1l2 -1q64 -5 93 -49q0 -39 3.5 -120t3.5 -120v-205zM502 77q-3 11 -3 -21q0 -26 2 -20q-2 -8 -20 -8q-8 0 -18 8t-12 8t-7.5 -1.5t-8.5 -1.5q-39 43 -62 43h-4l-11 -12q-13 0 -38 14t-39 14q-23 0 -25 -15q0 -21 -8 -26q0 -28 -3.5 -81t-3.5 -81v-150 q0 -10 11 -36t11 -39q0 -48 -41 -48q-18 0 -23 15q-7 23 -9 25h-39q-5 3 -29 31.5t-24 33.5v54q26 26 27 76q0 13 -2.5 38.5t-2.5 38.5q2 2 8 20q3 11 15 11q8 0 13.5 -7.5t9.5 -7.5q8 0 8 9q-15 21 -23 28q-36 0 -36 14q0 13 2.5 40.5t2.5 40.5l6 5q23 0 23 14q0 38 -42 53 v13q0 21 12 62t12 63q0 13 -12 37.5t-12 36.5q0 16 6 21v90q16 25 17 38q0 3 -11.5 18t-11.5 26q0 16 37 40q0 16 2.5 46.5t2.5 46.5q-2 8 -5 8q-7 0 -6 -19q-11 -23 -12 -18l4 -53l-7 -5q-20 0 -25 13q0 82 5 91q20 23 40 44q11 -3 88 -18q15 -16 15 -18q0 -110 -15 -127 q0 -7 -2.5 -19t-2.5 -18q0 -92 5 -274q15 -23 73 -96q61 -77 69 -77q7 0 9 4q66 0 99 -33l1 -2h20zM761 361l-1 2q0 3 -2 5h-3q-3 0 -3 -4v-5q2 0 3 -3h3q0 2 3 5zM683 164q-7 -3 -7 -6zM737 -44v8q0 3 -2 6v7q-2 0 -3 3h-7l-1 -3v-11q0 -7 13 -10zM166 443v8q-3 2 -5 4 q-5 -5 -5 -9q2 -5 3 -6h3q4 1 4 3zM158 407v16l-4 2q0 2 -1 2h-2v-2l-2 -2q-2 0 -1 -3v-6q0 -7 3 -10h3q4 1 4 3zM187 151v7q0 8 -5 18q-2 0 -3 3h-5l-3 -3v-4q2 -7 4 -9t3 -8.5t4 -6.5h3q2 1 2 3zM149 -284v12q-2 10 -10 21h-1q-2 0 -3.5 -2.5t-3.5 -2.5v-5q11 -11 7 -11 v-7q2 -3 2.5 -4t2.5 -4h3q0 3 3 3z" />
<glyph unicode="&#xb6;" horiz-adv-x="974" d="M894 1167q0 -16 -18 -40t-18 -28v-67l7 -10v-438l8 -11v-214l-8 -11v-189l-8 -11v-89l-9 -11v-107q0 -23 -16 -72q-20 -56 -34 -56q-72 0 -73 51q0 56 14 167.5t14 167.5q0 13 -6 21v36q8 7 13 7q11 0 18 -19l8 -19l7 6v33q-5 5 -7.5 25t-6.5 20q-2 0 -9 -4.5t-12 -4.5 q-10 0 -20 12q0 31 2 34q2 10 21 25l4 49q0 10 -10 17v36q0 3 4 8t2 10q-10 5 -23 16v20l7 5h25q5 2 5 8q0 18 -28 85q0 -2 9.5 8t9.5 32q0 13 -9.5 37.5t-9.5 37.5t11.5 19t11.5 7q0 5 -22.5 21.5t-22.5 44.5q0 23 6 67.5t6 67.5q-2 3 -26 27q-5 2 -17.5 -10.5t-12.5 -16.5 v-1065q21 -30 21 -86q0 -112 -93 -111q-8 0 -15 8t-8 8q-3 0 -5 -3q-31 0 -35 6q0 38 18.5 81.5t18.5 51.5l-2 20q-18 0 -20 3q-7 72 -6 58q0 18 34 87l2 3v47h-25q-11 7 -11 23q0 20 18 30l18 11q0 3 -11 16.5t-11 25.5q0 13 14 34q3 23 3 48t-18 172q-2 20 -10 20 q-20 0 -60 -11.5t-60 -11.5q-10 0 -22 19.5t-16 19.5q-13 0 -36.5 -4t-36.5 -4q-7 5 -7 13l3 15q2 8 -5 8l-11 -10q-11 -10 -31 -10q-46 0 -81 112q-5 0 -14 -2t-14 -2q-16 0 -16 33l5 13q2 10 -3 10q-11 0 -15 4q2 13 -19 55.5t-21 60.5v80q5 7 9 7q3 0 11 -3.5t12 -3.5 q10 0 9 23q0 11 -8 12l-10 -8q-10 -8 -14 -8q-5 0 -9 6v36q11 3 30 15q0 64 21 77h33q8 5 36 84q36 0 84 31q57 38 84 48h1q31 -31 38 -32q8 0 27 20t29 20q23 0 34.5 -25.5t14.5 -25.5t10.5 12.5t9 14t33.5 13t37 11.5q57 0 58 -54q0 -5 -5 -32q-3 -20 0 -21q8 0 77 71 q-3 5 -3 13q7 10 22 14.5t15 9.5q-2 3 -14 18q0 15 22 41.5t37 26.5q26 0 45.5 -29.5t19.5 -57.5zM793 507q-2 3 -12 13h-3q-3 -2 -3 -3v-16q2 -2 6 -5zM793 167v2l-4 3h-6q-5 -5 -5 -14v-10h3q4 6 12 19zM166 763v12q-7 7 -13 6q0 -21 5 -21h4q4 1 4 3zM218 624v32 q0 3 -3 4h-2q-3 0 -3 -4v-32l3 -4h2zM249 579q-3 0 -3 4h-3q0 -2 -2 -4q0 -2 2 -3h3zM597 -259v3l-3 5q0 2 -2.5 3.5t-2.5 2.5h-3l-5 -3q-2 -3 -2 -5v-3q0 -3 2 -3q2 -8 5 -8h8q0 3 3 8z" />
<glyph unicode="&#xb7;" horiz-adv-x="420" d="M340 560q0 -21 -29.5 -59t-49.5 -38q-10 0 -28 7.5t-23 8.5h-51q-18 11 -36 17q-25 33 -25 42v28q0 5 20.5 15t22.5 16.5t5 14.5q3 3 15 12l15 21q8 13 18 13h1q8 -7 17 -7q7 0 17.5 6t16.5 6q8 0 21 -12q30 0 71 -41q2 -2 2 -6v-44z" />
<glyph unicode="&#xb8;" horiz-adv-x="472" d="M284 -8q0 -8 -5 -8q-11 0 -26 -4l-15 -5q-5 0 -26 17q-3 2 -9 5q-13 13 -13 31v11l5 10q-2 7 15 23q7 3 8 3h13q3 -3 7 -3q5 -5 8 -5q15 -10 31 -46l2 -16q5 -10 5 -13zM392 -205q0 -31 -35 -75.5t-65 -44.5h-36l-8 5l-5 18l-5 5h-12l-16 -15h-15q-10 3 -28 15 q-15 21 -32 39l-23 2q-5 3 -14 11v32l5 5h12q25 0 33 -20q2 0 6.5 -1.5t9.5 -1.5t13 3t13 3h4l5 -5q0 -15 6 -15h2q2 3 24 5q25 23 50 45q41 43 41 64q0 2 -7.5 15t-7.5 22q0 26 11 35l2 15l7 5h4q3 -2 5 -5v-40q7 0 18 -8l2 -11q8 -8 26 -22q10 -39 10 -44v-36z" />
<glyph unicode="&#xb9;" horiz-adv-x="479" d="M399 1137q0 -10 -8 -21l-12 -21q-7 -38 -25 -112l-4 -10v-277q11 -16 11 -54v-23q-23 -28 -59 -28h-51q-13 5 -29 13v82q13 10 28.5 21.5t15.5 19.5q0 10 -7 16q0 7 -6.5 18.5t-6.5 13.5q0 20 -4 59t-4 59q0 7 6.5 24.5t6.5 24.5q7 7 13 7l10 -2l15 31q-3 5 -13 15 q-20 -15 -23 -15h-2q-2 15 -36 44q-7 3 -38 -16.5t-33 -19.5q-11 0 -28.5 11t-17.5 20q0 5 14 20l9 2q43 0 35 -2q15 3 23 28q25 20 84 46q16 13 19 26q3 2 5 5q15 7 26 7q2 0 22 -4q3 0 39 20h3q22 -10 22 -28zM287 822v61l-1 3l-7 -6q0 -2 -2 -7v-7q-7 -7 -6 -11v-12 q3 -10 6 -9v-5q2 -5 2 -7l3 -3h4z" />
<glyph unicode="&#xba;" horiz-adv-x="474" d="M394 245q0 -20 -8 -25v-59q-10 -34 -35 -84q-26 -25 -80 -77h-59q-13 0 -13 23q0 11 9.5 24.5t11.5 19.5q23 13 34 13l23 23q11 11 15 30q7 13 26 36q5 11 9 23v33l-12 13v2q0 3 5 8h10q-10 0 15 -3q7 0 6 8v5l-15 16q-2 25 -21 56q3 26 -31 52q-11 31 -18 32 q-31 0 -67.5 -50.5t-36.5 -82.5v-68q0 -2 3.5 -9t3.5 -12q0 -7 -6.5 -19t-6.5 -15t2 -2l4 -7l9 -1q28 -33 28 -56q0 -8 -4.5 -23.5t-4.5 -24.5l-6 -5h-5q-10 0 -36 36q-23 2 -23 30l3 20l20 16q-16 25 -17 48q-3 7 -13 6l-10 -1l-5 6v66q0 2 4.5 9t4.5 9v38q0 15 19 28 q2 44 20 44q5 0 13 -8h2q5 0 5 32l8 7q10 0 45 28t68 28q28 0 48.5 -33t20.5 -62v-9q10 -20 30 -49v-59q8 -6 8 -24z" />
<glyph unicode="&#xbb;" horiz-adv-x="661" d="M581 589q0 -49 -86 -231t-116 -182h-36q-18 8 -21 64q-7 8 -7 23v9q7 10 16 18v37q3 5 12 4q20 0 20 -29q0 16 -5 -23q-2 -18 8 -18q2 2 5 11q2 3 11 20q8 11 9 20v5q-15 26 -15 34q0 7 3 20l21 20v44l14 13q36 0 36 10q0 3 -2 11.5t-2 11.5q28 34 28 95q0 33 -28 61 l-5 23l-1 3q0 5 2.5 13t2.5 12q0 10 -31 13q-26 36 -83 106v28q2 3 12.5 7.5t10.5 9.5q-2 8 -3 8q-5 0 -10 -2t-8 0t-10 10q0 56 25 81h-5q0 2 -2.5 3t-2.5 3v5q7 7 8 7h2q3 -3 6 -7v-7q7 5 17 5l13 -19q10 -7 28 -27v-37q3 -5 25 -18q13 -10 13 -32q0 -2 -5 -11.5t-2 -12.5 q138 -207 138 -212zM371 586q0 -64 -77 -215q-74 -141 -128 -195h-8q-33 0 -37 52q-21 23 -23 23q0 36 4 41q5 11 37 12q15 7 15 39q20 23 54 84q31 56 58 82v5q0 11 4 33t4 34q0 18 -7 26v40q-5 3 -16 27q-8 20 -29 20l-9 -1q-3 3 -21 31v39l-7 7h-34q-36 61 -36 70 q0 5 3 15.5t3 15.5q-5 10 -14 14v14q0 21 9.5 25.5t19.5 7.5v43q3 5 13 5q5 0 13 -5q2 -8 12.5 -27t10.5 -37q0 -33 4 -35q66 0 65 -111q0 -3 -5.5 -15t-5.5 -15t5 -3q2 0 5 7.5t6 8.5h10q16 0 25 -13l1 -28q20 -23 20 -75v-8q-5 -8 -11 -15q-2 -2 6 -11t12 -9 q2 0 11.5 10.5t12.5 10.5q5 0 15 -9.5t10 -14.5zM402 784v4h-3v-4h3zM161 848q-3 7 -12 15h-5q-3 2 -5 2v-22l5 -6h4q5 2 11 10zM195 807v4l-1 1h-4l-3 -1v-4l3 -3h4zM151 253q0 2 -2 3h-3l-7 -11l4 -2h3z" />
<glyph unicode="&#xbc;" horiz-adv-x="1058" d="M399 1134q0 -16 -28 -46q-2 -20 -16 -63.5t-14 -67.5v-268q0 -8 6 -27t6 -29q0 -23 -20 -42q-15 -2 -23 -8q-10 0 -27 -4.5t-27 -4.5h-7q-38 41 -37 53q0 23 16 39v59q13 15 13 68q0 8 -5.5 22.5t-5.5 21.5v49l5 7q28 0 31 1q5 13 5 30q0 13 -4 13q-3 0 -4 -3 q0 -10 -4 -20l-5 -5h-19l-5 5l-2 8q0 5 3.5 13.5t3.5 9.5v48q-8 8 -30 23v-2q-21 -8 -51 -28h-28q-3 5 -11 4q-13 -3 -12 -4q-3 3 -5 8v2l5 5h2q8 0 20.5 19t36.5 22q5 10 17 23q23 0 80 67l10 4q8 0 30 -23q10 15 20.5 29.5t30.5 14.5h36q13 0 13 -23zM978 100 q0 -53 -61 -52q-5 0 -12 3t-11 3h-55q-11 0 -12 -23q0 -5 3.5 -13t3.5 -11q0 -59 -32 -60q-13 0 -29 15q-10 0 -15 5l-11 12v11q7 8 6 25v15q-36 38 -36 67q0 10 2 16q26 36 75 82l2 5l-18 18q-10 15 -31 45v23q3 3 17.5 31t21.5 28q15 0 31 -15q2 -5 8 -15l9 -2 q7 -10 14 -19v-45l-8 -11v-107q0 -7 -7.5 -14t-7.5 -14v-1q5 2 12 8l2 8q18 16 32 17q3 0 12.5 -4.5t14.5 -4.5q21 0 42 9q15 5 26.5 -7t11.5 -28zM857 1090q0 -11 -237 -445l-269 -494q-56 -128 -113 -240l-36 -32h-15q-25 0 -29 24q-11 15 -20 15l-12 -5q-10 -5 -14 -5 q-8 0 -9 10q0 5 7 8h16q7 5 7 10q0 2 -6.5 12.5t-6.5 15.5q0 10 16 10q11 0 17 -7q3 -5 13 3q3 77 64 163q34 46 101 139q7 41 20 91q3 13 23 36q2 2 11 3.5t9 6.5q0 84 36 83l16 -3q10 -3 12 2q8 75 18 88l52 66v41l7 7h28q10 10 10 11q0 3 -10 10.5t-10 14.5q0 13 33 28 l28 36v5q0 8 -5 8q-7 0 -9.5 -10t-5.5 -12h-20q-5 2 -5 12q0 5 24 32t27 34v50l7 5h28q3 2 3 10q0 98 25 107l14 15q30 2 33 72q20 20 72 20q36 0 55 -37v-14zM865 501q0 -10 -138 -186.5t-138 -216.5v-8q7 -3 3 -3h2q8 8 12 8h36q15 -7 14 -21q0 -11 -23.5 -21t-38.5 -10 h-97q-15 20 -15 26q0 13 7 18l2 20l6 6l20 2q18 39 66 110q13 8 39 33q5 16 23 47l5 2q7 15 24 36l43 30q13 13 13 52q0 2 8.5 18t8.5 26q3 2 13 20q8 13 21 13q39 28 33 28q30 0 33 -2q10 -5 18 -11v-16zM266 1017v7q-2 0 -3.5 2.5t-3.5 2.5l-5 -5v-7l5 -4q4 1 7 4z M793 279v7q-2 0 -3.5 2t-3.5 2h-2q-5 0 -5 -18q5 0 9 4z" />
<glyph unicode="&#xbd;" horiz-adv-x="1178" d="M958 492l-5 -5q-5 -2 -8 -1q-11 0 -60 37h-2q-3 -2 -13 -6q-7 2 -17 3q-5 -2 -96 -41q-5 -2 -21 -16.5t-30 -14.5h-33q-5 0 -22.5 15t-17.5 18q0 21 14 31q8 0 26 7.5t28 7.5q5 -2 16 -12v-1q8 0 30 37q10 2 42 16t40 14q7 0 15 -8t14 -8q3 0 10.5 13t17.5 13 q8 0 21.5 -11t19 -12.5t17.5 -2.5q15 -7 14 -12v-61zM410 1141q0 -5 -17 -40.5t-19 -45.5q-15 -72 -15 -184l-8 -11v-125q2 -2 11 -33t9 -34q0 -38 -2 -48q-23 -25 -34 -24h-97l-7 1q-3 5 -8 12v20l8 11q0 31 14 69q16 44 37 59v5q0 7 -5 10h-23l-5 5l-1 11q0 13 7.5 38.5 t7.5 38.5q8 5 8 17q0 15 -8.5 43.5t-8.5 43.5q0 8 4.5 23.5t4.5 23.5v7l-17 1q-13 0 -44 -18t-48 -18q-36 -26 -49 -26h-7v66h20q3 -2 20 -15h3q7 5 30 34q21 5 77 47t65 42h9q10 -7 11 -6h2q38 30 44 29q31 1 31 -29zM1098 66q0 -57 -41 -58q-18 0 -31 11.5t-22.5 11.5 t-15 6.5t-7.5 6.5q-8 0 -28 -19h-8q-16 0 -47.5 -4.5t-47.5 -4.5q-3 0 -13 4.5t-15 4.5q-2 0 -11 -8.5t-13 -8.5q-3 0 -8.5 2.5t-8.5 2.5q-23 -5 -57 -18q-23 -10 -18 -10h-73q-44 0 -44 40q0 20 17.5 40t36.5 20q16 0 23 -10l7 -9l16 23q8 15 50 49t59 39q3 10 13 28 q30 26 88 77q79 69 79 105q0 64 28 64h3q5 -3 7.5 -14.5t4.5 -11.5q3 0 5 3v28q-51 41 -51 59q0 21 11 36h8q5 0 14 -4t14 -4q13 -10 34 -40t21 -44q0 -87 -76 -183q-44 -57 -139 -141q-75 -67 -76 -76q0 -3 11.5 -10.5t14.5 -7.5q2 0 7.5 15.5t14.5 15.5h5q15 -10 29 -6 q15 3 25 6l19 -15h9q33 34 73 35q15 0 32 -8l18 -7h1q16 16 32 17h11q10 -8 10 -28zM866 1075q0 -10 -27 -43q-15 -39 -53 -115q-87 -131 -202 -351q-148 -284 -190 -358q-53 -113 -87 -187q-66 -136 -113 -136q-15 0 -32 20l-3 11q-38 0 -49 13v28l5 7h23q2 16 79 131 t77 141q57 56 57 66q0 39 51 90l3 5q0 48 40.5 98.5t40.5 47.5q0 13 -4 25q-2 7 0 11q3 7 17 27h26q7 20 23 50v51q3 5 13 5q3 0 14.5 -3t16.5 -2q8 2 9 12l-4 113q5 10 24 11.5t23 5t4 31.5q0 5 -3 15.5t-3 13.5q0 11 31 12q3 10 15 28v59q7 8 6 13q0 48 -1 37q3 20 32 20 q11 0 12 2q0 36 10 61h34l13 11l15 2q57 0 57 -30v-49zM290 1060v3q-2 3 -8 7q-8 -3 -8 -7v-3l5 -5h7zM665 16v9q-2 5 -10 13q-2 3 -5 6h-3q0 -2 -2.5 -3.5t-2.5 -2.5l-4 -5v-15l9 -8h11z" />
<glyph unicode="&#xbe;" horiz-adv-x="1101" d="M338 1113q0 -15 -26 -15q-10 0 -18 6h-4q-18 -15 -47 -23q-26 -31 -76 -72q-2 -3 -18 -11h-23l-14 23v18q3 5 3 10q0 7 -3 9v2q0 10 14 25h5l7 -7l1 -11q2 0 5 -2h2q11 8 20 20l1 24q8 13 46 25q18 20 25 20q3 0 11.5 -3.5t13.5 -3.5q8 0 19.5 7.5t16.5 7.5q3 0 12 -5 t22 -3l5 -5v-36zM525 734q0 -43 -65.5 -90.5t-109.5 -47.5h-15l-13 19q0 5 36.5 37t43.5 54q31 25 31 34q0 20 -26 53q-23 28 -44 41h-58l-8 -4q-7 -3 -13 -3h-10l-20 15h-19q-2 -7 -12 -15q-5 -3 -10.5 6t-5.5 14q0 28 15 28h13q-5 13 -5 21q0 18 23 18h10q3 -2 8 -13l6 -7 l7 7v21q11 13 38 17q10 8 44 45.5t34 42.5t-4.5 14t-4.5 14v22h-25q-7 3 -12 13v28q3 5 12 14q13 5 23 5q5 0 15 -2.5t14 -2.5l7 -6v-4q-2 -5 -15 -29l7 -7l16 -1q15 -15 13 -15q7 0 9 3v28q3 5 8 5h1q13 -11 14 -20v-57q0 -20 -25.5 -64t-42.5 -56v-10q0 -20 10 -19 q31 0 72 -41q10 0 21.5 -15t11.5 -25v-65zM888 1083q0 -43 -209 -397q-222 -376 -246 -458q-23 -74 -95 -203q-87 -156 -131 -156h-12q-8 18 -24 39h-20q-5 2 -5 13q0 69 48 72l11 12q3 23 23 39v36q84 113 140 204v28q8 3 23 15v24q28 56 101 159q5 5 7 38q0 28 15 31 q62 11 54 104l6 6h28q13 8 13 18q0 8 -4.5 47.5t-1.5 51.5q11 21 24 21h22q13 3 13 26q0 38 2 40q21 8 32 18q0 21 3.5 63.5t3.5 64.5q11 15 28 15q8 0 12 -10t8 -10q8 0 8 13q0 2 -8.5 16.5t-8.5 24.5q0 13 13 36h37q15 13 32 13q33 0 58 -36v-18zM1021 100q0 8 -10 -31 q-28 -23 -48 -21q-8 0 -49 3q-31 2 -49 -3l-5 -7q-2 -10 1.5 -33t3.5 -29q0 -41 -40 -41q-39 0 -39 55q0 7 3.5 17.5t3.5 17.5v13q-13 7 -33 18h-46q-5 3 -5 15v6l3 5q25 11 61 35q13 8 28.5 32.5t22.5 31.5v19q-15 16 -15 20q0 23 11.5 50t11.5 29q0 5 -7 13v2q0 23 18 23 q2 0 9.5 -3.5t15.5 -1.5q20 -13 20 -23v-49q0 -8 -6 -25.5t-6 -25.5v-59q10 -25 17 -25h6q5 0 15 3q10 2 15 0q2 0 15 -5.5t14 -5.5q15 7 22 11h28q13 -13 13 -31zM904 492q0 -7 -138.5 -183t-138.5 -201q0 -15 18 -16h31q20 -2 20 -15q0 -11 -16.5 -25t-29.5 -14 q-5 0 -17 3q-5 7 -11 12h-5l-15 -14h-65q-20 10 -20 35q0 23 11 31l2 15q16 11 21 11t18 -3q5 2 15 8q3 41 25 67q7 10 52 50q21 34 63 92q2 21 26 50l26 30q0 5 -1.5 13t-1.5 13q10 8 16 8q11 11 43 51l2 20l6 5h13q16 0 33.5 -13.5t17.5 -29.5zM294 602l-23 -23h-20 q-2 2 -5 4q-8 0 -8 11v13q7 8 13 12h21q5 -2 13.5 -5.5t8.5 -6.5v-5zM215 586q0 -15 -21 -15h-12l-24 8l-7 7v5l3 5v8l-16 15h-3q3 -5 3 -12v-21q0 -7 -7 -7h-13q-18 18 -20 23v41q5 3 14 12q3 0 6 3h3q7 0 18 -15h23q2 0 6 -2.5t6 -2.5q13 -2 41 -16v-36zM661 798 q-2 5 -6 11h-2v-2q-2 0 -3 -1l6 -12h2q3 2 3 4z" />
<glyph unicode="&#xbf;" horiz-adv-x="1024" d="M696 967q0 -25 -34.5 -63t-59.5 -38h-41q-5 3 -11 7h-25q-25 2 -31 13v23q3 5 11 13q-11 20 -11 28v43l5 5h8q18 0 23 -4q-3 43 15 43h36q2 0 11 -5.5t17 -5.5q5 0 12.5 1.5t11.5 1.5q63 0 63 -62zM686 594q0 -31 -23 -80.5t-46 -70.5q-3 -3 -20 -3q-105 -10 -262 -140 q-117 -95 -117 -161q0 -126 69 -211q36 -36 36 -33v-76q-5 -7 -11 -6q-31 0 -56 33l-25 34q-64 0 -64 48q0 11 12 11q10 0 13 -14t7 -14l4 5v20q-11 10 -36 31q2 11 -1 67q-7 5 -10 5q-7 0 -17.5 -3t-15.5 -3q-11 0 -11 54q-13 7 -14 20q0 62 14 69q0 38 16 59q5 5 46 41 q0 41 59 77q53 34 97 34q10 18 46 40.5t56 22.5q2 0 7.5 -3.5t10.5 -3.5q48 30 80 51q56 36 56 75q0 20 -20 81.5t-29.5 61.5t-11.5 5v26l5 9h43q8 5 22 21t25 16q25 0 45.5 -32t20.5 -58v-105zM944 41q0 -48 -109 -113q-28 -16 -152 -77q-7 -3 -43 -20.5t-43 -17.5h-52 l-12 -8q-2 0 -6 1.5t-5 1.5q-3 0 -8 -1.5t-9 -1.5q-5 3 -11 14v4q0 5 5 16q8 7 51 17l19 19q15 0 37 25q0 23 16 23q8 0 26 -3.5t26 -3.5h7q25 23 41 46q18 3 82 62.5t95 59.5q45 0 45 -43zM486 -197q0 -2 -2.5 -3.5t-2.5 -2.5h-7q-7 7 -6 13q0 7 6 13h7q0 -2 2.5 -3.5 t2.5 -3.5v-13zM455 -169l-14 -26q-15 -2 -23 -8q-7 0 -19 -2l-10 -3h-15q-15 0 -21 6q-2 2 -7 2q-8 8 -8 15q0 5 4 9.5t4 8.5q0 5 -4 9.5t-4 8.5v13q0 11 20 11q16 0 49 -33q3 0 5 -1q3 0 5 1l5 2h19q14 0 14 -13zM606 642v5q-2 3 -4 3h-1q-2 0 -3.5 -1.5t-3.5 -1.5l-3 -4 v-1q7 -7 10 -7q2 2 5 7zM414 -177l-4 1h-3v-8zM286 -125v12h-4l-3 -4v-4q2 -3 3 -4h4z" />
<glyph unicode="&#xc0;" horiz-adv-x="1452" d="M993 1303q0 -16 -25 -25h-8q-43 0 -43 18q-25 20 -85 51q-2 8 -10 25q-15 7 -29.5 15t-19.5 23q-10 5 -21 16q-23 10 -84 38q-11 7 -12 19q0 5 5 14t5 14q15 7 31 17q10 5 15 5q26 0 66 -27v-27q11 -7 31 -7q10 -5 28 -13v-7l-20 -21q8 -2 20 -7q2 -3 5 -6q15 -2 23 -7 v-11q-5 -7 -18 -8q3 -2 8 -2q8 0 26 1.5t26 1.5q7 -2 26.5 -18t19.5 -23t-8 -10v-3l25 -11q23 -14 23 -25zM1372 131q0 -102 -99 -93l-60 5q-5 0 -13 49q-8 43 -9 51q0 11 2.5 33.5t2.5 33.5q-2 18 -11 25v39q-25 18 -49 71q-26 61 -41 77q-31 36 -89 36q-7 0 -16 -10 t-14 -10q-21 0 -26 36q-2 20 -5 20q-2 0 -9 -22t-12 -26h-107q-7 8 -18 9q-8 0 -26 -8.5t-25 -8.5q-13 0 -24 12l-10 11q-16 0 -46.5 -15.5t-47.5 -15.5q-8 0 -23 2q-13 2 -21 0q-11 -2 -23 -12h-75q-26 -10 -115 -244q-85 -225 -133 -225h-8l-20 19h-3q-5 0 -15 -3 q-10 -2 -17 0t-12.5 21t-6.5 19q-2 0 -22 -4q-11 -2 -28 0v56q23 8 43.5 33.5t20.5 48.5q36 48 130 141v43q46 39 61 61q20 28 28 78q5 31 26 32l10 -2q2 3 1 21q2 30 38 58v29q3 3 18 7.5t15 7.5q0 51 156 289l198 302h46q30 -51 73 -169q30 -82 115 -271q2 -23 39 -84 q41 -67 47 -87q34 -112 156 -354q53 -105 53 -112zM914 1346v5q0 3 -2 4v4q-3 0 -5 1h-8l-1 -1v-7q1 -4 16 -6zM732 1459l-3 2l-2 1h-5q-3 0 -3 -1v-2q2 0 3 -2h5zM1183 386v8q0 5 -6 5q0 2 -4 1h-3q0 -15 7 -19q3 2 6 5zM1044 569v9q-10 5 -15 14v10q7 8 15 15v16 q-2 3 -7 4q-5 0 -13 -7h-11l-5 7v21l5 7h6l10 -7q7 3 6 13v7l-6 6l-25 2q-11 3 -28 15v41l5 6h9q5 0 13 -1.5t13 -1.5q0 18 -10 31t-10 20l-5 5h-5q-18 0 -23 -13q7 -7 13 -15v-5q0 -11 -8 -11q-13 0 -31 13v9q0 10 7.5 32.5t7.5 33.5v3q-8 7 -10 7q-5 0 -10 -7q5 -11 5 -16 l-5 -7h-3q-8 0 -19 20t-22 20l-7 6q-3 33 -65 100h-12q-20 -18 -46 -64q-30 -51 -43 -65q-5 -7 -11 -25q-26 -23 -67 -108q-48 -98 -63 -120v-36l12 -11q13 0 30 -7.5t21 -7.5q10 0 19 11h50q23 0 23 -29v-17l-2 -6h2q11 10 13 34q15 13 28 13q75 0 111 23h28l36 -28 q21 11 28 12q16 0 20 -26q2 0 2.5 -2t3.5 -2t5 4q12 17 40 55zM1214 302q0 7 -11 15h-5q-2 2 -3 1q-3 -2 -7 -5v-8q3 -7 8 -15q2 0 3 -1.5t4 -1.5q2 0 2 2q8 0 8 8q1 2 1 5zM1244 199v3l-3 3h-2l-3 -3v-3l3 -4h2z" />
<glyph unicode="&#xc1;" horiz-adv-x="1452" d="M990 1459q0 -8 -83 -62q-7 -5 -36 -46q-33 -25 -88 -73q3 -7 -25 -29q-10 -5 -28 -5q-28 0 -37 8v61l4 3h12q5 0 14 -1.5t12 -1.5l10 5q0 5 5 14t5 12t-3 10l-2 8q0 8 36 12l7 3q5 23 46 46q2 10 4 15.5t14 10.5h14q5 2 9 5v36q10 10 60 33h9q41 0 41 -17v-47zM1372 131 q0 -102 -99 -93l-60 5q-5 0 -13 49q-8 43 -9 51q0 11 2.5 33.5t2.5 33.5q-2 18 -11 25v39q-25 18 -49 71q-26 61 -41 77q-31 36 -89 36q-7 0 -16 -10t-14 -10q-21 0 -26 36q-2 20 -5 20q-2 0 -9 -22t-12 -26h-107q-7 8 -18 9q-8 0 -26 -8.5t-25 -8.5q-13 0 -24 12l-10 11 q-16 0 -46.5 -15.5t-47.5 -15.5q-8 0 -23 2q-13 2 -21 0q-11 -2 -23 -12h-75q-26 -10 -115 -244q-85 -225 -133 -225h-8l-20 19h-3q-5 0 -15 -3q-10 -2 -17 0t-12.5 21t-6.5 19q-2 0 -22 -4q-11 -2 -28 0v56q23 8 43.5 33.5t20.5 48.5q36 48 130 141v43q46 39 61 61 q20 28 28 78q5 31 26 32l10 -2q2 3 1 21q2 30 38 58v29q3 3 18 7.5t15 7.5q0 51 156 289l198 302h46q30 -51 73 -169q30 -82 115 -271q2 -23 39 -84q41 -67 47 -87q34 -112 156 -354q53 -105 53 -112zM1183 386v8q0 5 -6 5q0 2 -4 1h-3q0 -15 7 -19q3 2 6 5zM1044 569v9 q-10 5 -15 14v10q7 8 15 15v16q-2 3 -7 4q-5 0 -13 -7h-11l-5 7v21l5 7h6l10 -7q7 3 6 13v7l-6 6l-25 2q-11 3 -28 15v41l5 6h9q5 0 13 -1.5t13 -1.5q0 18 -10 31t-10 20l-5 5h-5q-18 0 -23 -13q7 -7 13 -15v-5q0 -11 -8 -11q-13 0 -31 13v9q0 10 7.5 32.5t7.5 33.5v3 q-8 7 -10 7q-5 0 -10 -7q5 -11 5 -16l-5 -7h-3q-8 0 -19 20t-22 20l-7 6q-3 33 -65 100h-12q-20 -18 -46 -64q-30 -51 -43 -65q-5 -7 -11 -25q-26 -23 -67 -108q-48 -98 -63 -120v-36l12 -11q13 0 30 -7.5t21 -7.5q10 0 19 11h50q23 0 23 -29v-17l-2 -6h2q11 10 13 34 q15 13 28 13q75 0 111 23h28l36 -28q21 11 28 12q16 0 20 -26q2 0 2.5 -2t3.5 -2t5 4q12 17 40 55zM1214 302q0 7 -11 15h-5q-2 2 -3 1q-3 -2 -7 -5v-8q3 -7 8 -15q2 0 3 -1.5t4 -1.5q2 0 2 2q8 0 8 8q1 2 1 5zM1244 199v3l-3 3h-2l-3 -3v-3l3 -4h2z" />
<glyph unicode="&#xc2;" horiz-adv-x="1452" d="M1193 1295q-64 -31 -80 -31q-10 0 -21.5 6.5t-14.5 6.5q-2 0 -10.5 -2.5t-12.5 -2.5q-13 0 -32 10v14q21 8 23 7q0 2 -14.5 4.5t-14.5 3.5q-16 21 -17 15q0 28 17 28q20 0 19 -15q3 -2 5 -3l9 3l3 7q-30 20 -38 23h-26q-8 3 -17 14q-5 3 -31 14q-3 5 -11 16q-10 3 -26 3 h-4q-23 -18 -70 -54q-26 -11 -68 -38q-11 -13 -19 -26q-15 -16 -45 -21h-29l-8 3l-2 5q-8 8 -29 25q-11 0 -30 4q-5 11 -5 15q0 3 6.5 12.5t6.5 13.5l8 4h9q5 5 11 13q18 8 19 12t16.5 15.5t15.5 18.5q8 -2 23 15q18 5 49 18q11 10 33 28q-2 0 -5 9q-2 3 -2 5q0 7 7 9h11 q5 0 16 -2.5t16 -2.5h5l4 3v3q-2 0 -4 12q-3 5 8 10h5h65q31 0 56 -51q18 -38 20 -61h18q8 -3 20 -8q2 -3 4 -8q20 -15 56 -35q3 -5 10.5 -12.5t29.5 -7.5q38 -15 62 -29v-18zM1372 131q0 -102 -99 -93l-60 5q-5 0 -13 49q-8 43 -9 51q0 11 2.5 33.5t2.5 33.5q-2 18 -11 25 v39q-25 18 -49 71q-26 61 -41 77q-31 36 -89 36q-7 0 -16 -10t-14 -10q-21 0 -26 36q-2 20 -5 20q-2 0 -9 -22t-12 -26h-107q-7 8 -18 9q-8 0 -26 -8.5t-25 -8.5q-13 0 -24 12l-10 11q-16 0 -46.5 -15.5t-47.5 -15.5q-8 0 -23 2q-13 2 -21 0q-11 -2 -23 -12h-75 q-26 -10 -115 -244q-85 -225 -133 -225h-8l-20 19h-3q-5 0 -15 -3q-10 -2 -17 0t-12.5 21t-6.5 19q-2 0 -22 -4q-11 -2 -28 0v56q23 8 43.5 33.5t20.5 48.5q36 48 130 141v43q46 39 61 61q20 28 28 78q5 31 26 32l10 -2q2 3 1 21q2 30 38 58v29q3 3 18 7.5t15 7.5 q0 51 156 289l198 302h46q30 -51 73 -169q30 -82 115 -271q2 -23 39 -84q41 -67 47 -87q34 -112 156 -354q53 -105 53 -112zM1096 1323v11l-3 2h-2l-3 -2v-11q0 -2 3 -2h2q3 0 3 2zM1088 1308v0q-11 5 -16 6q-5 0 -12 -8q-3 0 -3 -1v-5q7 -2 15 -5h3q3 0 7 3t6 10zM673 1323 v21q-2 3 -3.5 4t-9.5 4h-2l-13 -5v-18q3 -3 15 -8h8q2 0 5 2zM1183 386v8q0 5 -6 5q0 2 -4 1h-3q0 -15 7 -19q3 2 6 5zM1044 569v9q-10 5 -15 14v10q7 8 15 15v16q-2 3 -7 4q-5 0 -13 -7h-11l-5 7v21l5 7h6l10 -7q7 3 6 13v7l-6 6l-25 2q-11 3 -28 15v41l5 6h9q5 0 13 -1.5 t13 -1.5q0 18 -10 31t-10 20l-5 5h-5q-18 0 -23 -13q7 -7 13 -15v-5q0 -11 -8 -11q-13 0 -31 13v9q0 10 7.5 32.5t7.5 33.5v3q-8 7 -10 7q-5 0 -10 -7q5 -11 5 -16l-5 -7h-3q-8 0 -19 20t-22 20l-7 6q-3 33 -65 100h-12q-20 -18 -46 -64q-30 -51 -43 -65q-5 -7 -11 -25 q-26 -23 -67 -108q-48 -98 -63 -120v-36l12 -11q13 0 30 -7.5t21 -7.5q10 0 19 11h50q23 0 23 -29v-17l-2 -6h2q11 10 13 34q15 13 28 13q75 0 111 23h28l36 -28q21 11 28 12q16 0 20 -26q2 0 2.5 -2t3.5 -2t5 4q12 17 40 55zM1214 302q0 7 -11 15h-5q-2 2 -3 1q-3 -2 -7 -5 v-8q3 -7 8 -15q2 0 3 -1.5t4 -1.5q2 0 2 2q8 0 8 8q1 2 1 5zM1244 199v3l-3 3h-2l-3 -3v-3l3 -4h2z" />
<glyph unicode="&#xc3;" horiz-adv-x="1452" d="M1201 1423q-5 -5 -8 -10l-5 -10q-26 -43 -31 -48q-10 -10 -44 -32q-44 -31 -59 -32h-56q-7 3 -10 9q-5 -8 -12 -9h-27l-9 7l-3 10q0 8 28 28l2 5q16 13 62 14l38 27q8 18 26 29l3 8v2q-2 34 -1 38q5 16 19 16q5 0 15 -5l2 -8l8 -6l-5 1v0q0 -3 -2 -5q-11 16 -11 23 q0 18 11 27q7 20 31 19h14q21 -23 24 -33v-65zM962 1346q0 -10 -11 -25t-12 -23l-12 -7h-13q-34 0 -34 22q2 5 5 13h-9v-13q-3 -7 -11 -10h-8q-8 0 -21.5 14t-21.5 16v41q-30 25 -66 64q2 10 -10 24v13q-28 -15 -55 -21q-39 -8 -66 -35q-20 -18 -30 -24l-6 -51 q-11 -41 -53 -41q-21 0 -32 25q-38 18 -38 41v6q5 8 11 12v24v2q8 2 10 -7q0 5 5 4l-16 3q2 10 14 21q2 25 28 46l10 2q5 0 12.5 -1.5t10.5 -1.5q5 3 5 14l10 9q7 0 24 7t27 7q-2 0 15 -1q7 3 18 11q21 5 24 5q67 0 89 -25q5 0 16.5 -2t16.5 -2q18 -7 49 -23 q18 -13 42.5 -47.5t24.5 -53.5v-4l8 6h5q45 0 45 -34zM1372 131q0 -102 -99 -93l-60 5q-5 0 -13 49q-8 43 -9 51q0 11 2.5 33.5t2.5 33.5q-2 18 -11 25v39q-25 18 -49 71q-26 61 -41 77q-31 36 -89 36q-7 0 -16 -10t-14 -10q-21 0 -26 36q-2 20 -5 20q-2 0 -9 -22t-12 -26 h-107q-7 8 -18 9q-8 0 -26 -8.5t-25 -8.5q-13 0 -24 12l-10 11q-16 0 -46.5 -15.5t-47.5 -15.5q-8 0 -23 2q-13 2 -21 0q-11 -2 -23 -12h-75q-26 -10 -115 -244q-85 -225 -133 -225h-8l-20 19h-3q-5 0 -15 -3q-10 -2 -17 0t-12.5 21t-6.5 19q-2 0 -22 -4q-11 -2 -28 0v56 q23 8 43.5 33.5t20.5 48.5q36 48 130 141v43q46 39 61 61q20 28 28 78q5 31 26 32l10 -2q2 3 1 21q2 30 38 58v29q3 3 18 7.5t15 7.5q0 51 156 289l198 302h46q30 -51 73 -169q30 -82 115 -271q2 -23 39 -84q41 -67 47 -87q34 -112 156 -354q53 -105 53 -112zM530 1433h-2 l-1 -2l1 -2v-1zM532 1418q-2 7 -4 10l-6 -13q2 0 3 3h2q0 -2 5 0zM1183 386v8q0 5 -6 5q0 2 -4 1h-3q0 -15 7 -19q3 2 6 5zM1044 569v9q-10 5 -15 14v10q7 8 15 15v16q-2 3 -7 4q-5 0 -13 -7h-11l-5 7v21l5 7h6l10 -7q7 3 6 13v7l-6 6l-25 2q-11 3 -28 15v41l5 6h9 q5 0 13 -1.5t13 -1.5q0 18 -10 31t-10 20l-5 5h-5q-18 0 -23 -13q7 -7 13 -15v-5q0 -11 -8 -11q-13 0 -31 13v9q0 10 7.5 32.5t7.5 33.5v3q-8 7 -10 7q-5 0 -10 -7q5 -11 5 -16l-5 -7h-3q-8 0 -19 20t-22 20l-7 6q-3 33 -65 100h-12q-20 -18 -46 -64q-30 -51 -43 -65 q-5 -7 -11 -25q-26 -23 -67 -108q-48 -98 -63 -120v-36l12 -11q13 0 30 -7.5t21 -7.5q10 0 19 11h50q23 0 23 -29v-17l-2 -6h2q11 10 13 34q15 13 28 13q75 0 111 23h28l36 -28q21 11 28 12q16 0 20 -26q2 0 2.5 -2t3.5 -2t5 4q12 17 40 55zM1214 302q0 7 -11 15h-5 q-2 2 -3 1q-3 -2 -7 -5v-8q3 -7 8 -15q2 0 3 -1.5t4 -1.5q2 0 2 2q8 0 8 8q1 2 1 5zM1244 199v3l-3 3h-2l-3 -3v-3l3 -4h2z" />
<glyph unicode="&#xc4;" horiz-adv-x="1452" d="M1060 1410q0 -3 -25 -68q-10 -16 -27 -16h-20q-2 0 -14 10t-14 10h-8q-10 -11 -17 -12h-1q-31 20 -31 31q-11 7 -28 22v42q7 7 8 25q7 3 20 13q0 7 8 15h19q3 -2 12 -7h2l6 7q0 8 10 28q2 2 7 1h19q2 -3 10 -5h15q5 -2 20 -4l27 -28q2 -3 2 -7v-57zM798 1410 q0 -3 -25 -68q-10 -16 -28 -16h-20q-2 0 -14 10t-14 10h-8q-10 -11 -16 -12h-2q-31 20 -31 31q-11 7 -28 22v42q7 7 8 25q7 3 20 13q0 7 8 15h20q3 -2 11 -7h2l7 7q0 8 9 28q2 2 7 1h20q2 -3 10 -5h14q5 -2 20 -4l28 -28q2 -3 2 -7v-57zM1372 131q0 -102 -99 -93l-60 5 q-5 0 -13 49q-8 43 -9 51q0 11 2.5 33.5t2.5 33.5q-2 18 -11 25v39q-25 18 -49 71q-26 61 -41 77q-31 36 -89 36q-7 0 -16 -10t-14 -10q-21 0 -26 36q-2 20 -5 20q-2 0 -9 -22t-12 -26h-107q-7 8 -18 9q-8 0 -26 -8.5t-25 -8.5q-13 0 -24 12l-10 11q-16 0 -46.5 -15.5 t-47.5 -15.5q-8 0 -23 2q-13 2 -21 0q-11 -2 -23 -12h-75q-26 -10 -115 -244q-85 -225 -133 -225h-8l-20 19h-3q-5 0 -15 -3q-10 -2 -17 0t-12.5 21t-6.5 19q-2 0 -22 -4q-11 -2 -28 0v56q23 8 43.5 33.5t20.5 48.5q36 48 130 141v43q46 39 61 61q20 28 28 78q5 31 26 32 l10 -2q2 3 1 21q2 30 38 58v29q3 3 18 7.5t15 7.5q0 51 156 289l198 302h46q30 -51 73 -169q30 -82 115 -271q2 -23 39 -84q41 -67 47 -87q34 -112 156 -354q53 -105 53 -112zM942 1390v48q-5 3 -13 11l-2 -2q-3 -2 -11 -9v-35l5 -11q5 -10 9 -10q4 1 12 8zM679 1390v48 q-5 3 -13 11l-1 -2q-3 -2 -12 -9v-35l5 -11q5 -10 10 -10q3 1 11 8zM1183 386v8q0 5 -6 5q0 2 -4 1h-3q0 -15 7 -19q3 2 6 5zM1044 569v9q-10 5 -15 14v10q7 8 15 15v16q-2 3 -7 4q-5 0 -13 -7h-11l-5 7v21l5 7h6l10 -7q7 3 6 13v7l-6 6l-25 2q-11 3 -28 15v41l5 6h9 q5 0 13 -1.5t13 -1.5q0 18 -10 31t-10 20l-5 5h-5q-18 0 -23 -13q7 -7 13 -15v-5q0 -11 -8 -11q-13 0 -31 13v9q0 10 7.5 32.5t7.5 33.5v3q-8 7 -10 7q-5 0 -10 -7q5 -11 5 -16l-5 -7h-3q-8 0 -19 20t-22 20l-7 6q-3 33 -65 100h-12q-20 -18 -46 -64q-30 -51 -43 -65 q-5 -7 -11 -25q-26 -23 -67 -108q-48 -98 -63 -120v-36l12 -11q13 0 30 -7.5t21 -7.5q10 0 19 11h50q23 0 23 -29v-17l-2 -6h2q11 10 13 34q15 13 28 13q75 0 111 23h28l36 -28q21 11 28 12q16 0 20 -26q2 0 2.5 -2t3.5 -2t5 4q12 17 40 55zM1214 302q0 7 -11 15h-5 q-2 2 -3 1q-3 -2 -7 -5v-8q3 -7 8 -15q2 0 3 -1.5t4 -1.5q2 0 2 2q8 0 8 8q1 2 1 5zM1244 199v3l-3 3h-2l-3 -3v-3l3 -4h2z" />
<glyph unicode="&#xc5;" horiz-adv-x="1452" d="M1372 131q0 -102 -99 -93l-60 5q-5 0 -13 49q-8 43 -9 51q0 11 2.5 33.5t2.5 33.5q-2 18 -11 25v39q-25 18 -49 71q-26 61 -41 77q-31 36 -89 36q-7 0 -16 -10t-14 -10q-21 0 -26 36q-2 20 -5 20q-2 0 -9 -22t-12 -26h-107q-7 8 -18 9q-8 0 -26 -8.5t-25 -8.5 q-13 0 -24 12l-10 11q-16 0 -46.5 -15.5t-47.5 -15.5q-8 0 -23 2q-13 2 -21 0q-11 -2 -23 -12h-75q-26 -10 -115 -244q-85 -225 -133 -225h-8l-20 19h-3q-5 0 -15 -3q-10 -2 -17 0t-12.5 21t-6.5 19q-2 0 -22 -4q-11 -2 -28 0v56q23 8 43.5 33.5t20.5 48.5q36 48 130 141v43 q46 39 61 61q20 28 28 78q5 31 26 32l10 -2q2 3 1 21q2 30 38 58v29q3 3 18 7.5t15 7.5q0 51 156 289l169 266q3 2 10 6l28 8l18 22q8 7 44 38q30 25 30 41q0 2 -6 10.5t-6 15.5q0 5 6 10.5t6 9.5v55q0 5 -6 15t-6 15v3q28 18 28 30v5q-3 5 -11 9h-5l-9 -6h-14q-13 10 -30 8 q-10 3 -15 12h-3q-38 0 -67 -25l-59 -46l-22 -46v-43q0 -13 22.5 -50.5t33.5 -44.5l13 -1q25 -11 25 -27q0 -3 -5 -3l-21 -2l16 -9l-10 -2q-25 0 -31 11l-8 12q-3 0 -5.5 -7.5t-9.5 -7.5t-18.5 4t-15.5 4l-14 10q-10 0 -32.5 19t-22.5 29v34l-22 17v5q0 23 9 41q5 10 34 64 q21 36 62 41q3 3 22 27q11 16 31 17q28 2 33.5 5t30.5 23h62q5 -10 20 -26h43q16 -11 36 -33q5 -3 22 -44.5t17 -47.5v-53q0 -5 -4 -20.5t-3 -25.5q-5 -13 -19 -37q-36 -39 -104 -78q21 -48 50 -124q30 -82 115 -271q2 -23 39 -84q41 -67 47 -87q34 -112 156 -354 q53 -105 53 -112zM999 1411l-6 7h-2q-8 -7 -8 -10v-7l2 -3h3q4 5 11 13zM968 1333l-5 6q-3 -2 -3 -3v-3h8zM711 1241v13l-5 3h-7l-5 -3q2 -7 12 -15q0 -2 1 -2q2 0 2 2zM1183 386v8q0 5 -6 5q0 2 -4 1h-3q0 -15 7 -19q3 2 6 5zM1044 569v9q-10 5 -15 14v10q7 8 15 15v16 q-2 3 -7 4q-5 0 -13 -7h-11l-5 7v21l5 7h6l10 -7q7 3 6 13v7l-6 6l-25 2q-11 3 -28 15v41l5 6h9q5 0 13 -1.5t13 -1.5q0 18 -10 31t-10 20l-5 5h-5q-18 0 -23 -13q7 -7 13 -15v-5q0 -11 -8 -11q-13 0 -31 13v9q0 10 7.5 32.5t7.5 33.5v3q-8 7 -10 7q-5 0 -10 -7q5 -11 5 -16 l-5 -7h-3q-8 0 -19 20t-22 20l-7 6q-3 33 -65 100h-12q-20 -18 -46 -64q-30 -51 -43 -65q-5 -7 -11 -25q-26 -23 -67 -108q-48 -98 -63 -120v-36l12 -11q13 0 30 -7.5t21 -7.5q10 0 19 11h50q23 0 23 -29v-17l-2 -6h2q11 10 13 34q15 13 28 13q75 0 111 23h28l36 -28l12 7 q10 5 16 5q16 0 20 -26q2 0 2.5 -2t3.5 -2t5 4q12 17 40 55zM1214 302q0 7 -6 11l-5 4h-5q-2 2 -3 1q-3 -2 -7 -5v-8q3 -7 8 -15q2 0 3 -1.5t4 -1.5q2 0 2 2q8 0 8 8q1 2 1 5zM1244 199v3l-3 3h-2l-3 -3v-3l3 -4h2z" />
<glyph unicode="&#xc6;" horiz-adv-x="1936" d="M1748 653q-5 -15 -10 -43l-26 -26q-13 -3 -41 -6q-7 0 -31.5 8t-49.5 10q-3 2 -6 6l-2 7q0 13 15 33l-7 6h-5q-2 -13 -16 -34q-8 -2 -28.5 -16t-34.5 -14q-8 0 -27.5 22.5t-19.5 30.5q2 2 11 16q15 3 40 18l83 -3q16 16 30 15q36 -3 39 -2q2 0 12.5 6t12.5 6l36 -2 q18 -13 25 -23v-15zM1881 117l-4 -15q-2 -15 -10 -40q-5 -5 -14 -18q-8 -3 -27 -8q-5 -7 -11 -6l-28 1q-13 0 -23 17q-2 25 -6 24h-2l-3 -3q0 -21 -7 -21l-28 1l-5 5l-1 23l27 26q0 5 2 12l7 5q13 2 46 21q16 -2 44 7l21 -2q22 -19 22 -29zM1712 102l-14 -40q-7 -5 -21 -18 h-20l-6 9l-2 32q0 5 10 23q3 3 13 12q2 3 5 3l20 -2l15 -14v-5zM1634 66q-8 -10 -19 -18h-25q-7 -3 -15 -7l-46 2l-9 -9q-13 -3 -30 -6l-28 2l-6 4v28q15 26 21 30q5 -2 31 13h5q10 -8 16 -11l20 -2q7 0 12 3h32q7 15 22 15q18 -2 18 -16zM1869 1077q0 -23 -28 -51l-28 1 q-16 8 -37 22q-36 38 -37 39l-4 -2q-2 -8 -15 -16q-11 2 -35 16.5t-36 14.5q-8 -8 -33 -10q-8 16 -21 31q-8 2 -13 -17.5t-16 -19.5q-49 3 -137 -23q-95 -26 -123 -58q0 -21 -13 -67t-13 -71q3 -97 11 -131q20 -79 86 -82q15 -18 16 -20l45 2q15 -20 16 -28q-20 -15 -46 -28 q-108 5 -128 -52q-3 -87 8 -243l3 -5l2 -43l8 -10l2 -67q8 -21 23 -62q2 -7 8 -7q3 0 12 6.5t14 6.5l58 -1l23 -22q2 -30 -1.5 -44.5t-11.5 -12.5q-21 0 -61 5q-49 7 -48 5l-29 1q-33 -66 -99 -54l-49 9q-2 0 5.5 48t8.5 51.5t12 29.5l5 15q-2 5 -6 8q3 31 5 95 q-13 13 -13 31q0 15 18 27v1l-2 15q-13 15 -13 23q0 7 8 18l2 2q-3 13 -5 20q-15 38 -63 39q-11 -8 -31 -17q-18 0 -10 37q3 20 2 19q-2 0 -12.5 -19.5t-20.5 -26.5l-90 7q-3 8 -12 8q-20 -7 -49 -13q-10 0 -15 13l-6 12q-13 2 -43.5 -12.5t-43.5 -14.5q-46 3 -38 5 q-10 -2 -23 -11l-62 5q-25 -8 -176 -237q-144 -220 -185 -216h-7l-10 21h-3q-3 -2 -13 -3q-13 -2 -16 3q-2 5 0 18v20q-2 0 -20 -2q-10 -2 -23 2l18 56q61 18 80 77q46 46 155 134l13 41q53 38 70 58q26 28 50 77q3 8 14.5 18.5t17.5 10.5l7 -1q3 3 10 21q10 28 49 54l10 30 q15 3 33 13q16 51 223 279l264 289l39 -2q2 -8 2 -20h23l10 -6l43 -2q15 -20 32 -19q23 -2 78 19.5t75 21.5l95 -5q15 0 43.5 -5t43.5 -5q5 0 12 6l46 -3l11 -18q59 -3 67 -5q38 -9 38 -47zM1196 699q-3 20 -19 43q2 -7 5 -15l-2 -5q-3 -11 -10 -10q-11 0 -23 15l3 10 q11 20 33 59l-15 6q2 -10 0 -13l-6 -6h-3q-7 0 -9.5 20.5t-12.5 20.5l-3 6q3 13 3 27q0 18 -26 77h-8q-25 -18 -61 -61q-38 -48 -56 -62q-7 -7 -18 -25q-30 -21 -92 -103q-71 -95 -90 -117l-13 -36l6 -11q15 -8 38 -18q8 0 20 11l41 -3q20 -2 10 -31l-5 -17l-3 -5h1 q13 8 22 33q16 11 27 12q64 -3 102 16l23 -2l22 -29l11 6q10 3 15 4q15 0 8 -27q0 -2 5 -3q0 -2 51 51v6q3 3 8 7q-7 5 -8 15l3 10l5 5q-2 10 -2 19v4l-8 1l-2 7l7 21l7 7l5 -2l6 -7l2 2q-2 11 1 25l-14 3q-8 3 -18 16l13 41l6 5h7q3 0 10 -1z" />
<glyph unicode="&#xc7;" horiz-adv-x="1148" d="M1052 1081q0 -31 -29 -63t-60 -32q-26 0 -47.5 31.5t-24.5 31.5q-23 -8 -33 -9q-25 0 -24 33q0 5 19 25l2 8q0 26 -36 26q-7 0 -7 -24q-8 -21 -33 -22q-15 0 -19 9h-43q-8 8 -26 8q-71 0 -199 -115q-102 -92 -164 -177q-94 -128 -93 -222v-115q0 -56 55.5 -152t57.5 -84 q-2 -8 -7 -23q-5 -16 0 -16q5 2 20 16h10q13 0 16.5 -14t4.5 -14q10 0 30.5 -11.5t28.5 -11.5q18 0 22 -2v-27l-7 -7q-18 0 -31 -30.5t-30 -30.5q-15 0 -21 12v28l-5 1q-53 0 -44 -1q-23 3 -38 18q0 23 -10 47q-13 31 -33 31q-5 0 -5 -4q0 -3 4 -14q2 -8 0 -11q-3 -7 -15 -7 q-15 0 -39 28q0 5 -4.5 15t-4.5 15q0 13 15 19.5t17 9.5v30l-5 6l-2 4q-5 0 -16.5 -24.5t-13.5 -24.5q-3 2 -8 6q0 34 -31 76q0 8 -39 85v38q5 5 5 13q0 10 -7 27t-7 24q0 43 31.5 98.5t31.5 52.5q-7 3 -15 9q0 54 26 96q8 13 27 41l14 14q2 21 22 40q53 48 156 141 q154 138 229 138q23 30 64 29q15 0 45.5 11.5t40.5 11.5h55q18 -3 46 -21h45l33 -21q31 -2 64 -22q39 -23 39 -51zM1068 16q0 -3 -5 -9.5t-5 -9.5q-34 -25 -41 -25t-19.5 6t-19.5 6q5 0 -16 -4q-10 -2 -15 7h-46q-18 13 -28 13q-33 0 -28 -2q-13 3 -13 25q0 2 -5 2l-10 -12 q-10 -10 -24 -10q-8 0 -15 6l-8 6q-21 0 -25 1q-11 8 -25 17h-1q-31 0 -48 -10v-2l2 -16q5 -10 5 -13q0 -8 -5 -8q-10 0 -25 -4.5t-16 -4.5q-5 0 -26 17q-3 2 -9 5q-13 13 -13 31h-23q-11 5 -28 11q-15 0 -32 2q-3 2 -22 26h-1q-8 -8 -14 -8l-9 2l-9 11v7q2 5 12 28 q13 5 34 18q7 21 31 21q8 0 29.5 -11.5t34.5 -11.5q48 0 58 -3q16 -18 34 -36q3 0 11.5 14.5t10.5 16.5h3q5 0 21 -15q13 0 39.5 -4t39.5 -4q5 0 15 6q7 0 25.5 -7t26.5 -7q20 0 30 14h36q16 16 21 17h2q8 -7 18 -7h7q11 11 31 12q20 0 36 -15.5t16 -35.5v-53zM786 -205 q0 -31 -34.5 -75.5t-65.5 -44.5h-36l-8 5q-3 18 -5 18l-5 5h-12l-16 -15h-15q-10 3 -28 15q-15 21 -33 39l-23 2q-5 3 -13 11v32l5 5h12q25 0 33 -20q3 0 8 -1.5t8 -1.5q5 0 14 3t12 3h3l5 -5q0 -15 7 -15h2q2 3 24 5q25 23 49 45q41 43 41 64q0 2 -7 15t-7 22q0 26 11 35 l2 15l6 5h5q3 -2 5 -5v-40q7 0 18 -8l2 -11q8 -8 26 -22q10 -39 10 -44v-36zM907 1126q0 3 -3 3q-2 0 -3 -3q0 -2 2 -2h3q1 0 1 2zM812 64v3h-3v-3h3zM171 681v2h-4v-2h4zM779 33v11q-7 7 -14 17q-2 3 -4 3h-4q0 -10 1 -13l3 -8q3 -5 9 -18h3q8 8 6 8zM670 56v3l-5 5h-4 q-7 -5 -8 -7h-2l10 -9l5 1q4 2 4 7zM542 92v3q-3 3 -7 3q-2 0 -5 -1l-5 -3q-2 0 -5 -5h-1v-2h1q3 -2 10 -8q3 2 8 8q4 0 4 5zM195 331q0 2 -1 4h-4l-3 -4q3 0 3 -3h4q-1 1 1 3zM382 136v7l-5 5h-4q-3 0 -4 -4v-1q3 -7 8 -8l2 -2z" />
<glyph unicode="&#xc8;" horiz-adv-x="907" d="M622 1303q0 -16 -25 -25h-8q-43 0 -43 18q-25 20 -85 51q-2 8 -10 25q-15 7 -29.5 15t-19.5 23q-10 5 -21 16q-23 10 -84 38q-11 7 -11 19q0 5 4.5 14t4.5 14q15 7 32 17q10 5 14 5q26 0 66 -27v-27q11 -7 31 -7q10 -5 28 -13v-7l-20 -21q8 -2 20 -7q2 -3 5 -6 q15 -2 23 -7v-11q-5 -7 -18 -8q3 -2 8 -2q8 0 26 1.5t27 1.5q7 -2 26.5 -18t19.5 -23t-9 -10v-3l25 -11q23 -14 23 -25zM696 647q0 -5 -5 -21t-5 -22l-28 -28q-7 0 -20.5 -4t-20.5 -4t-30.5 7.5t-49.5 7.5q-3 2 -7 6v7q0 13 15 33l-7 6h-5q-2 -13 -16 -34q-8 -3 -29.5 -18 t-34.5 -15q-8 0 -27 21t-19 30q2 2 11 16q15 3 40 20h84q16 16 31 16q36 -2 39 0q2 0 12.5 6.5t12.5 6.5h36q16 -11 23 -23v-14zM827 1077q0 -23 -29 -53h-28q-16 8 -38 20q-34 36 -35 37l-4 -1q0 -16 -15 -17q-11 0 -35 14t-36 14q-2 0 -12.5 -7t-20.5 -4q-3 2 -10.5 16.5 t-10.5 14.5q-7 0 -13.5 -19.5t-16.5 -19.5q-49 0 -137 -30q-95 -31 -123 -62q-2 -21 -16 -67.5t-14 -72.5q0 -97 8 -131q18 -77 84 -77q15 -20 16 -20l45 3q15 -20 14 -28q0 -5 -19.5 -17t-26.5 -12q-67 0 -96 -18q-39 -23 -40 -87v-141q0 -8 2.5 -24t2.5 -24l8 -11v-43 l9 -10v-67q0 -13 10.5 -33t12 -27t8.5 -7q3 0 11 7t15 7h57l23 -19q0 -59 -14 -59q-21 0 -61 3q-49 5 -48 3h-49q-8 -7 -18 -6q-10 0 -33 8t-36 8q-15 10 -15 56q8 10 9 20q0 8 -9 16q5 31 7 95q-11 13 -12 31q0 15 12.5 23t12.5 12v1q-20 18 -20 30q0 7 7.5 17.5t7.5 16.5 q0 7 -6 14q0 26 14.5 36.5t14.5 30.5q0 8 -5 8l-11 -7q-10 -7 -17 -6q-10 0 -10 16q0 8 7.5 24t7.5 24l-1 16q8 7 9 7q30 0 35 2q13 7 13 42q0 8 -8 8q-5 0 -10 -18.5t-13 -18.5q-18 0 -18 34q0 21 18 25q-3 15 2.5 41t5.5 36q0 33 -13 52.5t-13 21.5q0 10 10 22l9 12 q0 3 -13.5 10t-13.5 15v57q0 8 18 19t19 12v36q-38 51 -37 79q0 5 13.5 16.5t13.5 21.5q0 5 -8 8t-10 7q0 39 14 51q21 15 44 29h54l10 -6h43q15 -18 32 -18q23 0 79 23.5t76 23.5h95q15 0 43.5 -3t43.5 -3q5 0 11 6h46l10 -18q59 0 67 -2q38 -7 38 -45zM817 115l-3 -15 q-2 -15 -10 -39q-7 -5 -16 -18q-8 -3 -27 -10q-5 -7 -11 -7h-28q-13 0 -23 15q0 25 -5 25h-1l-4 -4q-2 -21 -8 -21h-28l-5 5v23l28 28q0 5 2 11l6 5q13 2 48 23q16 0 44 8h22q19 -19 19 -29zM648 94l-15 -40q-7 -7 -21 -20h-20l-6 7v33q0 7 10 23q3 5 13 13q2 3 5 3h19 l15 -15v-4zM569 54q0 -3 -8 -11.5t-11 -8.5h-25q-2 0 -7.5 -4t-7.5 -4h-46l-9 -8q-13 -3 -30 -8h-28l-6 5v28q16 28 23 31q5 -2 31 15h5q10 -8 16 -12h20q7 0 11 3q11 0 33 2q7 15 21 15q18 0 18 -15v-28zM543 1346v5q0 3 -1 4v4q-3 0 -5 1h-9l-1 -1v-7q1 -4 16 -6z M361 1459l-3 2l-2 1h-5q-3 0 -3 -1v-2q2 0 3 -2h5zM205 1055v17l-6 6h-4q-11 -11 -11 -15q3 -3 10 -11h8q0 1 3 3z" />
<glyph unicode="&#xc9;" horiz-adv-x="907" d="M602 1459q0 -8 -82 -62q-7 -5 -36 -46q-33 -25 -89 -73q3 -7 -24 -29q-10 -5 -28 -5q-28 0 -38 8v61l5 3h12q5 0 14 -1.5t12 -1.5l10 5q0 5 5 14t5 12t-2 10l-3 8q0 8 36 12l6 3q5 23 46 46q2 10 4.5 15.5t13.5 10.5h15q5 2 8 5v36q10 10 61 33h8q41 0 41 -17v-47z M696 647q0 -5 -5 -21t-5 -22l-28 -28q-7 0 -20.5 -4t-20.5 -4t-30.5 7.5t-49.5 7.5q-3 2 -7 6v7q0 13 15 33l-7 6h-5q-2 -13 -16 -34q-8 -3 -29.5 -18t-34.5 -15q-8 0 -27 21t-19 30q2 2 11 16q15 3 40 20h84q16 16 31 16q36 -2 39 0q2 0 12.5 6.5t12.5 6.5h36 q16 -11 23 -23v-14zM827 1077q0 -23 -29 -53h-28q-16 8 -38 20q-34 36 -35 37l-4 -1q0 -16 -15 -17q-11 0 -35 14t-36 14q-2 0 -12.5 -7t-20.5 -4q-3 2 -10.5 16.5t-10.5 14.5q-7 0 -13.5 -19.5t-16.5 -19.5q-49 0 -137 -30q-95 -31 -123 -62q-2 -21 -16 -67.5t-14 -72.5 q0 -97 8 -131q18 -77 84 -77q15 -20 16 -20l45 3q15 -20 14 -28q0 -5 -19.5 -17t-26.5 -12q-67 0 -96 -18q-39 -23 -40 -87v-141q0 -8 2.5 -24t2.5 -24l8 -11v-43l9 -10v-67q0 -13 10.5 -33t12 -27t8.5 -7q3 0 11 7t15 7h57l23 -19q0 -59 -14 -59q-21 0 -61 3q-49 5 -48 3 h-49q-8 -7 -18 -6q-10 0 -33 8t-36 8q-15 10 -15 56q8 10 9 20q0 8 -9 16q5 31 7 95q-11 13 -12 31q0 15 12.5 23t12.5 12v1q-20 18 -20 30q0 7 7.5 17.5t7.5 16.5q0 7 -6 14q0 26 14.5 36.5t14.5 30.5q0 8 -5 8l-11 -7q-10 -7 -17 -6q-10 0 -10 16q0 8 7.5 24t7.5 24l-1 16 q8 7 9 7q30 0 35 2q13 7 13 42q0 8 -8 8q-5 0 -10 -18.5t-13 -18.5q-18 0 -18 34q0 21 18 25q-3 15 2.5 41t5.5 36q0 33 -13 52.5t-13 21.5q0 10 10 22l9 12q0 3 -13.5 10t-13.5 15v57q0 8 18 19t19 12v36q-38 51 -37 79q0 5 13.5 16.5t13.5 21.5q0 5 -8 8t-10 7q0 39 14 51 q21 15 44 29h54l10 -6h43q15 -18 32 -18q23 0 79 23.5t76 23.5h95q15 0 43.5 -3t43.5 -3q5 0 11 6h46l10 -18q59 0 67 -2q38 -7 38 -45zM817 115l-3 -15q-2 -15 -10 -39q-7 -5 -16 -18q-8 -3 -27 -10q-5 -7 -11 -7h-28q-13 0 -23 15q0 25 -5 25h-1l-4 -4q-2 -21 -8 -21h-28 l-5 5v23l28 28q0 5 2 11l6 5q13 2 48 23q16 0 44 8h22q19 -19 19 -29zM648 94l-15 -40q-7 -7 -21 -20h-20l-6 7v33q0 7 10 23q3 5 13 13q2 3 5 3h19l15 -15v-4zM569 54q0 -3 -8 -11.5t-11 -8.5h-25q-2 0 -7.5 -4t-7.5 -4h-46l-9 -8q-13 -3 -30 -8h-28l-6 5v28q16 28 23 31 q5 -2 31 15h5q10 -8 16 -12h20q7 0 11 3q11 0 33 2q7 15 21 15q18 0 18 -15v-28zM205 1055v17l-6 6h-4q-11 -11 -11 -15q3 -3 10 -11h8q0 1 3 3z" />
<glyph unicode="&#xca;" horiz-adv-x="907" d="M753 1295q-64 -31 -80 -31q-11 0 -22 6.5t-14 6.5q-2 0 -10 -2.5t-13 -2.5q-13 0 -31 10v14q21 8 21 7q0 2 -14 4.5t-16 3.5q-15 21 -14 15q0 28 16 28q20 0 20 -15q2 -2 5 -3l8 3l3 7q-30 20 -38 23h-28q-7 3 -14 14q-5 3 -31 14q-3 5 -12 16q-10 3 -26 3h-4 q-23 -18 -70 -54q-26 -11 -69 -38q-10 -13 -21.5 -27.5t-40.5 -19.5h-30l-8 3l-2 5q-8 8 -31 25q-10 0 -28 4q-5 11 -5 15q0 3 6.5 12.5t6.5 13.5l9 4h8q3 5 11 13q18 8 19 12t16 15.5t15 18.5q10 -2 24 15q18 5 49 18q11 10 33 28q-2 0 -5 9q-2 3 -1 5q0 7 6 9h12 q5 0 15.5 -2.5t15.5 -2.5h5l5 3v3q-2 0 -5 12q-3 5 8 10h5h66q31 0 55 -51q18 -38 20 -61h18q8 -3 20 -8q2 -3 5 -8q20 -15 55 -35q3 -5 11 -12.5t29 -7.5q38 -15 62 -29v-18zM696 647q0 -5 -5 -21t-5 -22l-28 -28q-7 0 -20.5 -4t-20.5 -4t-30.5 7.5t-49.5 7.5q-3 2 -7 6v7 q0 13 15 33l-7 6h-5q-2 -13 -16 -34q-8 -3 -29.5 -18t-34.5 -15q-8 0 -27 21t-19 30q2 2 11 16q15 3 40 20h84q16 16 31 16q36 -2 39 0q2 0 12.5 6.5t12.5 6.5h36q16 -11 23 -23v-14zM827 1077q0 -23 -29 -53h-28q-16 8 -38 20q-34 36 -35 37l-4 -1q0 -16 -15 -17 q-11 0 -35 14t-36 14q-2 0 -12.5 -7t-20.5 -4q-3 2 -10.5 16.5t-10.5 14.5q-7 0 -13.5 -19.5t-16.5 -19.5q-49 0 -137 -30q-95 -31 -123 -62q-2 -21 -16 -67.5t-14 -72.5q0 -97 8 -131q18 -77 84 -77q15 -20 16 -20l45 3q15 -20 14 -28q0 -5 -19.5 -17t-26.5 -12 q-67 0 -96 -18q-39 -23 -40 -87v-141q0 -8 2.5 -24t2.5 -24l8 -11v-43l9 -10v-67q0 -13 10.5 -33t12 -27t8.5 -7q3 0 11 7t15 7h57l23 -19q0 -59 -14 -59q-21 0 -61 3q-49 5 -48 3h-49q-8 -7 -18 -6q-10 0 -33 8t-36 8q-15 10 -15 56q8 10 9 20q0 8 -9 16q5 31 7 95 q-11 13 -12 31q0 15 12.5 23t12.5 12v1q-20 18 -20 30q0 7 7.5 17.5t7.5 16.5q0 7 -6 14q0 26 14.5 36.5t14.5 30.5q0 8 -5 8l-11 -7q-10 -7 -17 -6q-10 0 -10 16q0 8 7.5 24t7.5 24l-1 16q8 7 9 7q30 0 35 2q13 7 13 42q0 8 -8 8q-5 0 -10 -18.5t-13 -18.5q-18 0 -18 34 q0 21 18 25q-3 15 2.5 41t5.5 36q0 33 -13 52.5t-13 21.5q0 10 10 22l9 12q0 3 -13.5 10t-13.5 15v57q0 8 18 19t19 12v36q-38 51 -37 79q0 5 13.5 16.5t13.5 21.5q0 5 -8 8t-10 7q0 39 14 51q21 15 44 29h54l10 -6h43q15 -18 32 -18q23 0 79 23.5t76 23.5h95q15 0 43.5 -3 t43.5 -3q5 0 11 6h46l10 -18q59 0 67 -2q38 -7 38 -45zM817 115l-3 -15q-2 -15 -10 -39q-7 -5 -16 -18q-8 -3 -27 -10q-5 -7 -11 -7h-28q-13 0 -23 15q0 25 -5 25h-1l-4 -4q-2 -21 -8 -21h-28l-5 5v23l28 28q0 5 2 11l6 5q13 2 48 23q16 0 44 8h22q19 -19 19 -29zM648 94 l-15 -40q-7 -7 -21 -20h-20l-6 7v33q0 7 10 23q3 5 13 13q2 3 5 3h19l15 -15v-4zM569 54q0 -3 -8 -11.5t-11 -8.5h-25q-2 0 -7.5 -4t-7.5 -4h-46l-9 -8q-13 -3 -30 -8h-28l-6 5v28q16 28 23 31q5 -2 31 15h5q10 -8 16 -12h20q7 0 11 3q11 0 33 2q7 15 21 15q18 0 18 -15v-28 zM656 1323v11l-3 2h-2l-3 -2v-11q0 -2 3 -2h2q3 0 3 2zM648 1308v0q-13 5 -16 6q-5 0 -12 -8q-3 0 -3 -1v-5q5 -2 15 -5h3q3 0 7 3t6 10zM233 1323v21q-2 3 -4.5 4t-8.5 4h-2l-13 -5v-18q3 -3 15 -8h8q2 0 5 2zM205 1055v17l-6 6h-4q-11 -11 -11 -15q3 -3 10 -11h8q0 1 3 3z " />
<glyph unicode="&#xcb;" horiz-adv-x="907" d="M678 1410q0 -3 -25 -68q-10 -16 -28 -16h-19q-2 0 -14.5 10t-13.5 10h-9q-10 -11 -16 -12h-2q-31 20 -31 31q-11 7 -28 22v42q7 7 9 25q7 3 19 13q0 7 8 15h20q5 -2 12 -7h1l7 7q0 8 10 28q2 2 6 1h20q3 -3 10 -5h15q5 -2 19 -4l28 -28q2 -3 2 -7v-57zM415 1410 q0 -3 -24 -68q-10 -16 -28 -16h-20q-2 0 -14 10t-14 10h-8q-10 -11 -17 -12h-1q-31 20 -31 31q-11 7 -28 22v42q7 7 8 25q7 3 20 13q0 7 8 15h20q5 -2 11 -7h2l6 7q0 8 10 28q2 2 7 1h19q3 -3 10 -5h15q5 -2 20 -4l28 -28q2 -3 1 -7v-57zM696 647q0 -5 -5 -21t-5 -22 l-28 -28q-7 0 -20.5 -4t-20.5 -4t-30.5 7.5t-49.5 7.5q-3 2 -7 6v7q0 13 15 33l-7 6h-5q-2 -13 -16 -34q-8 -3 -29.5 -18t-34.5 -15q-8 0 -27 21t-19 30q2 2 11 16q15 3 40 20h84q16 16 31 16q36 -2 39 0q2 0 12.5 6.5t12.5 6.5h36q16 -11 23 -23v-14zM827 1077 q0 -23 -29 -53h-28q-16 8 -38 20q-34 36 -35 37l-4 -1q0 -16 -15 -17q-11 0 -35 14t-36 14q-2 0 -12.5 -7t-20.5 -4q-3 2 -10.5 16.5t-10.5 14.5q-7 0 -13.5 -19.5t-16.5 -19.5q-49 0 -137 -30q-95 -31 -123 -62q-2 -21 -16 -67.5t-14 -72.5q0 -97 8 -131q18 -77 84 -77 q15 -20 16 -20l45 3q15 -20 14 -28q0 -5 -19.5 -17t-26.5 -12q-67 0 -96 -18q-39 -23 -40 -87v-141q0 -8 2.5 -24t2.5 -24l8 -11v-43l9 -10v-67q0 -13 10.5 -33t12 -27t8.5 -7q3 0 11 7t15 7h57l23 -19q0 -59 -14 -59q-21 0 -61 3q-49 5 -48 3h-49q-8 -7 -18 -6q-10 0 -33 8 t-36 8q-15 10 -15 56q8 10 9 20q0 8 -9 16q5 31 7 95q-11 13 -12 31q0 15 12.5 23t12.5 12v1q-20 18 -20 30q0 7 7.5 17.5t7.5 16.5q0 7 -6 14q0 26 14.5 36.5t14.5 30.5q0 8 -5 8l-11 -7q-10 -7 -17 -6q-10 0 -10 16q0 8 7.5 24t7.5 24l-1 16q8 7 9 7q30 0 35 2q13 7 13 42 q0 8 -8 8q-5 0 -10 -18.5t-13 -18.5q-18 0 -18 34q0 21 18 25q-3 15 2.5 41t5.5 36q0 33 -13 52.5t-13 21.5q0 10 10 22l9 12q0 3 -13.5 10t-13.5 15v57q0 8 18 19t19 12v36q-38 51 -37 79q0 5 13.5 16.5t13.5 21.5q0 5 -8 8t-10 7q0 39 14 51q21 15 44 29h54l10 -6h43 q15 -18 32 -18q23 0 79 23.5t76 23.5h95q15 0 43.5 -3t43.5 -3q5 0 11 6h46l10 -18q59 0 67 -2q38 -7 38 -45zM817 115l-3 -15q-2 -15 -10 -39q-7 -5 -16 -18q-8 -3 -27 -10q-5 -7 -11 -7h-28q-13 0 -23 15q0 25 -5 25h-1l-4 -4q-2 -21 -8 -21h-28l-5 5v23l28 28q0 5 2 11 l6 5q13 2 48 23q16 0 44 8h22q19 -19 19 -29zM648 94l-15 -40q-7 -7 -21 -20h-20l-6 7v33q0 7 10 23q3 5 13 13q2 3 5 3h19l15 -15v-4zM569 54q0 -3 -8 -11.5t-11 -8.5h-25q-2 0 -7.5 -4t-7.5 -4h-46l-9 -8q-13 -3 -30 -8h-28l-6 5v28q16 28 23 31q5 -2 31 15h5 q10 -8 16 -12h20q7 0 11 3q11 0 33 2q7 15 21 15q18 0 18 -15v-28zM560 1390v48q-5 3 -14 11l-1 -2q-3 -2 -12 -9v-35q2 0 6 -10.5t9 -10.5q4 1 12 8zM297 1390v48q-5 3 -13 11l-2 -2q-3 -2 -11 -9v-35q2 0 6 -10.5t9 -10.5q3 1 11 8zM205 1055v17l-6 6h-4q-11 -11 -11 -15 q3 -3 10 -11h8q0 1 3 3z" />
<glyph unicode="&#xcc;" horiz-adv-x="338" d="M338 1303q0 -16 -25 -25h-8q-43 0 -42 18q-25 20 -87 51q-2 8 -10 25q-15 7 -29 15t-19 23q-11 5 -21 16q-25 10 -84 38q-13 7 -13 19q0 5 5 14t5 14q15 7 33 17q10 5 14 5q25 0 64 -27v-27q13 -7 32 -7q11 -5 28 -13v-7l-19 -21q7 -2 19 -7l6 -6q15 -2 23 -7v-11 q-7 -7 -20 -8q3 -2 10 -2q8 0 25.5 1.5t27.5 1.5q7 -2 26.5 -18t19.5 -23t-9 -10v-3l23 -11q25 -14 25 -25zM258 128q0 -126 -74 -126h-49q-28 8 -32 13v44q2 5 12.5 8.5t10.5 6.5l-1 13h-22l-5 5q0 80 2 85q13 18 26 35q-5 33 -6 101q11 10 11 17q0 13 -9.5 38.5t-9.5 31.5 q0 8 16 28q0 25 11.5 72.5t11.5 70.5v3l-23 22q5 25 -16 55q-2 10 -2 20q0 18 8 38l8 20q0 13 -7 38.5t-7 34.5q0 18 6 25q0 18 -3 56t-3 56l7 14t7 22v10q-5 10 -14 24v53q11 11 33 38t42 27h36q10 0 18 -17t8 -27q-2 -46 -9 -161q-8 -102 -9 -161v-471q0 -7 4.5 -24 t2.5 -28q3 -2 11.5 -50.5t8.5 -59.5zM258 1346v5q0 3 -2 4v4q-2 0 -3 1h-10l-2 -1v-7q4 -4 17 -6zM75 1459l-1 2l-2 1h-5q-3 0 -5 -1v-2q3 0 5 -2h5zM164 1049v1q-2 3 -5 7q-7 -7 -6 -10q0 -3 5 -8q6 7 6 10zM162 935v4q-2 0 -3 1h-3l-2 -1q0 -2 -1 -2v-2h1q0 -2 2 -3h3z M156 880v8q-5 10 -15 10q0 -21 10 -22q2 2 3 2zM164 801l-2 1h-6l-2 -1l5 -7zM166 671q0 10 -7 17h-3q-5 -3 -10 -9v-24q2 -3 5 -7h3l7 7q5 5 5 16zM156 269l-5 5l-5 -5q0 -2 2 -3h6q2 1 2 3zM148 153v16q0 2 -2 3h-3q-3 0 -4 -3v-16q2 -2 4 -2h3zM135 135h-7v-4z" />
</font>
</defs>
</svg>
