<?xml version="1.0" standalone="no"?>
<!DOCTYPE svg PUBLIC "-//W3C//DTD SVG 1.1//EN" "http://www.w3.org/Graphics/SVG/1.1/DTD/svg11.dtd" >
<svg xmlns="http://www.w3.org/2000/svg">
<metadata></metadata>
<defs>
<font id="futura_md_btbold" horiz-adv-x="1280" >
<font-face units-per-em="2048" ascent="1556" descent="-492" />
<missing-glyph horiz-adv-x="641" />
<glyph horiz-adv-x="2048" />
<glyph horiz-adv-x="2048" />
<glyph unicode="&#xd;" horiz-adv-x="641" />
<glyph unicode=" "  horiz-adv-x="641" />
<glyph unicode="&#x09;" horiz-adv-x="641" />
<glyph unicode="&#xa0;" horiz-adv-x="641" />
<glyph unicode="!" horiz-adv-x="702" d="M150 164q0 85 57.5 144t142.5 59q86 0 144.5 -58.5t58.5 -144.5q0 -85 -59 -144t-144 -59q-84 0 -142 59t-58 144zM166 487v1045h371v-1045h-371z" />
<glyph unicode="&#x22;" horiz-adv-x="713" d="M76 877v561h219v-561h-219zM416 877v561h223v-561h-223z" />
<glyph unicode="#" horiz-adv-x="1575" d="M23 381l86 231h270l82 230h-283l86 231h279l141 393h250l-139 -393h235l141 393h250l-139 -393h270l-86 -231h-268l-80 -230h277l-84 -231h-275l-141 -393h-250l139 393h-235l-141 -393h-250l139 393h-274zM625 610h245l82 232h-245z" />
<glyph unicode="$" d="M57 182l181 293q86 -100 174.5 -149.5t181.5 -49.5q75 0 124.5 43.5t49.5 108.5q0 71 -41.5 109.5t-189.5 78.5q-225 62 -315.5 154.5t-90.5 253.5q0 198 124.5 321t348.5 146v139h129l1 -137q87 -9 171 -40.5t166 -86.5l-127 -285q-67 57 -138 86t-142 29 q-72 0 -116 -33.5t-44 -87.5q0 -55 39 -88t153 -63l13 -4q246 -66 323 -146q52 -54 79.5 -129t27.5 -166q0 -208 -126 -345t-337 -159v-243h-129v239q-142 2 -261 53t-229 158z" />
<glyph unicode="%" horiz-adv-x="1851" d="M49 1075q0 185 102 294.5t275 109.5t275 -109.5t102 -294.5q0 -184 -102.5 -293.5t-274.5 -109.5q-173 0 -275 109t-102 294zM299 1075q0 -133 30 -191.5t97 -58.5t97 58.5t30 191.5t-30 191.5t-97 58.5t-97 -58.5t-30 -191.5zM393 -39l879 1518h188l-885 -1518h-182z M1067 367q0 185 102 294t275 109q172 0 273.5 -109t101.5 -294q0 -186 -102 -296t-273 -110q-173 0 -275 110t-102 296zM1317 367q0 -134 30 -193t97 -59t97 59t30 193q0 133 -30 191t-97 58t-97 -58t-30 -191z" />
<glyph unicode="&#x26;" horiz-adv-x="1651" d="M115 369q0 138 81 243.5t259 198.5q-69 79 -102.5 153.5t-33.5 147.5q0 147 115.5 245.5t290.5 98.5q200 0 315 -97t115 -263q0 -106 -62.5 -198t-187.5 -171l172 -180q51 42 102 92t103 111l209 -215q-52 -64 -101.5 -115t-99.5 -92l318 -328h-443l-129 150 q-105 -98 -221 -143.5t-258 -45.5q-195 0 -318.5 114.5t-123.5 293.5zM467 395q0 -64 44.5 -107.5t111.5 -43.5q48 0 101 25.5t112 78.5l-236 258q-69 -61 -101 -111.5t-32 -99.5zM623 1092q0 -24 15 -60t38 -63l57 -70l47 39q50 41 76.5 83t26.5 81q0 53 -34.5 86t-90.5 33 q-63 0 -99 -34.5t-36 -94.5z" />
<glyph unicode="'" horiz-adv-x="371" d="M76 877v561h219v-561h-219z" />
<glyph unicode="(" horiz-adv-x="743" d="M104 518q0 282 88.5 524.5t272.5 464.5l227 -147q-148 -177 -218.5 -380.5t-70.5 -461.5q0 -246 69 -451t212 -384l-219 -152q-184 223 -272.5 464.5t-88.5 522.5z" />
<glyph unicode=")" horiz-adv-x="743" d="M51 1360l230 147q182 -221 270 -463.5t88 -525.5q0 -282 -88 -524t-270 -463l-220 152q144 179 212.5 384t68.5 451q0 256 -70.5 460t-220.5 382z" />
<glyph unicode="*" horiz-adv-x="1067" d="M160 995l243 99l-243 96l102 176l205 -158l-37 256h205l-35 -256l205 160l100 -178l-239 -96l241 -99l-102 -176l-205 160l35 -258h-203l33 258l-203 -160z" />
<glyph unicode="+" horiz-adv-x="1706" d="M254 496v231h481v494h238v-494h479v-231h-479v-496h-238v496h-481z" />
<glyph unicode="," horiz-adv-x="639" d="M27 -295l213 627h372l-309 -627h-276z" />
<glyph unicode="-" horiz-adv-x="934" d="M127 340v326h680v-326h-680z" />
<glyph unicode="." horiz-adv-x="639" d="M119 164q0 85 57.5 143t142.5 58q87 0 145 -58t58 -143t-58.5 -144t-144.5 -59q-84 0 -142 59t-58 144z" />
<glyph unicode="/" horiz-adv-x="938" d="M0 -190l717 1687h221l-715 -1687h-223z" />
<glyph unicode="0" d="M86 721q0 354 148.5 556t406.5 202q262 0 407.5 -202.5t145.5 -569.5q0 -348 -147.5 -547t-405.5 -199t-406.5 202.5t-148.5 557.5zM455 721q0 -240 44.5 -350.5t141.5 -110.5q95 0 139.5 111t44.5 350q0 237 -44.5 349t-139.5 112q-98 0 -142 -109.5t-44 -351.5z" />
<glyph unicode="1" d="M178 1118l172 332h506v-1450h-364v1118h-314z" />
<glyph unicode="2" d="M39 0l657 778q60 71 88.5 128.5t28.5 107.5q0 77 -48.5 125.5t-127.5 48.5q-94 0 -144.5 -60t-50.5 -174v-18h-352v10q0 249 145.5 392t397.5 143q246 0 392 -127t146 -338q0 -103 -46 -200.5t-152 -213.5l-264 -291h448v-311h-1118z" />
<glyph unicode="3" d="M84 471v14h371v-24q0 -96 45 -145.5t133 -49.5q92 0 141 47.5t49 137.5q0 101 -52.5 148.5t-164.5 47.5q-18 0 -27.5 -0.5t-17.5 -0.5v235h21q101 0 155 44t54 128q0 67 -45.5 109t-116.5 42q-76 0 -118 -41t-44 -116h-354q4 205 143.5 318.5t390.5 113.5 q224 0 352.5 -101.5t128.5 -275.5q0 -111 -59 -188.5t-172 -112.5q137 -25 213 -119.5t76 -241.5q0 -213 -151.5 -346t-395.5 -133q-256 0 -405.5 137.5t-149.5 372.5z" />
<glyph unicode="4" d="M55 328v288l545 840h455v-840h162v-288h-162v-328h-334v328h-666zM362 616h359v426q0 59 2.5 98.5t7.5 67.5q-19 -43 -42.5 -86t-57.5 -96z" />
<glyph unicode="5" d="M121 78l26 354l31 -6q54 -81 144 -127.5t194 -46.5q139 0 215 66.5t76 187.5q0 116 -82 190t-213 74q-88 0 -159 -29.5t-128 -89.5l-49 29l121 770h797v-299h-555l-29 -188q45 10 90.5 15t89.5 5q223 0 352 -133.5t129 -362.5q0 -244 -160.5 -385t-439.5 -141 q-133 0 -248 30t-202 87z" />
<glyph unicode="6" d="M90 492q0 125 50.5 257t211.5 384l205 317h408l-342 -516q35 11 73 16.5t80 5.5q186 0 308 -130.5t122 -331.5q0 -242 -152.5 -387.5t-408.5 -145.5q-255 0 -405 144t-150 387zM420 475q0 -103 59.5 -163t161.5 -60t161.5 60t59.5 163q0 104 -59.5 164.5t-161.5 60.5 t-161.5 -60.5t-59.5 -164.5z" />
<glyph unicode="7" d="M127 1122v328h1118v-70l-637 -1380h-413l550 1122h-618z" />
<glyph unicode="8" d="M82 403q0 154 79 253.5t222 125.5q-116 28 -179 106.5t-63 194.5q0 187 131.5 291.5t366.5 104.5q236 0 368 -105t132 -291q0 -116 -63 -194.5t-179 -106.5q143 -26 222 -125.5t79 -253.5q0 -208 -147.5 -325t-411.5 -117q-263 0 -410 117t-147 325zM438 449 q0 -90 54.5 -142.5t146.5 -52.5q94 0 148.5 52t54.5 143q0 89 -54.5 140.5t-148.5 51.5q-93 0 -147 -51.5t-54 -140.5zM467 1069q0 -77 46.5 -122.5t125.5 -45.5q80 0 127 45t47 123t-46 122t-128 44q-80 0 -126 -44.5t-46 -121.5z" />
<glyph unicode="9" d="M86 946q0 243 152 389t407 146t405 -144t150 -387q0 -130 -58 -274.5t-204 -366.5l-203 -309h-407l341 507q-34 -10 -72.5 -16t-80.5 -6q-186 0 -308 130.5t-122 330.5zM430 965q0 -104 59.5 -164t161.5 -60q103 0 162 60t59 164t-59.5 164.5t-161.5 60.5t-161.5 -60.5 t-59.5 -164.5z" />
<glyph unicode=":" horiz-adv-x="702" d="M150 164q0 85 57.5 143t142.5 58q87 0 145 -58t58 -143t-59 -144t-144 -59q-84 0 -142 59t-58 144zM150 799q0 85 57.5 142.5t142.5 57.5q87 0 145 -57.5t58 -142.5q0 -86 -59 -144.5t-144 -58.5q-84 0 -142 59t-58 144z" />
<glyph unicode=";" horiz-adv-x="702" d="M53 -295l213 627h373l-309 -627h-277zM244 799q0 85 58.5 142.5t143.5 57.5q86 0 143.5 -57t57.5 -143t-58 -144.5t-143 -58.5q-84 0 -143 59t-59 144z" />
<glyph unicode="&#x3c;" horiz-adv-x="1706" d="M264 494v233l1178 487v-253l-854 -351l854 -348v-254z" />
<glyph unicode="=" horiz-adv-x="1706" d="M254 272v230h1198v-230h-1198zM254 719v231h1198v-231h-1198z" />
<glyph unicode="&#x3e;" horiz-adv-x="1706" d="M264 8v254l854 348l-854 351v253l1178 -487v-233z" />
<glyph unicode="?" horiz-adv-x="1239" d="M127 1104v4q0 195 139 311.5t373 116.5q212 0 341.5 -123t129.5 -323q0 -167 -89.5 -272t-233.5 -109l-1 -213h-344v413h107q113 0 172 46t59 132q0 69 -45.5 116.5t-111.5 47.5q-70 0 -109.5 -37.5t-44.5 -109.5h-342zM399 164q0 85 59 144t144 59q86 0 143.5 -58.5 t57.5 -144.5t-58 -144.5t-143 -58.5q-84 0 -143.5 59t-59.5 144z" />
<glyph unicode="@" horiz-adv-x="2048" d="M82 520q0 169 53 320.5t156 277.5q148 183 359.5 278t467.5 95q170 0 320 -46t260 -132q136 -107 203 -243t67 -306q0 -167 -65.5 -307t-190.5 -240q-69 -56 -154 -85.5t-176 -29.5q-106 0 -161 40t-60 120q-56 -82 -126.5 -120t-168.5 -38q-163 0 -247 87.5t-84 257.5 q0 241 141.5 404t349.5 163q77 0 134 -30.5t95 -92.5l52 92h206l-153 -610q0 -2 -1 -6q-3 -18 -3 -27q0 -30 16 -44.5t47 -14.5q137 0 240.5 143.5t103.5 335.5q0 239 -179.5 390t-467.5 151q-148 0 -274 -36.5t-230 -109.5q-155 -110 -239 -274.5t-84 -356.5 q0 -302 203 -481.5t544 -179.5q164 0 316 47.5t280 138.5l97 -135q-156 -117 -329 -175t-364 -58q-192 0 -354.5 49t-288.5 145q-157 122 -234 281.5t-77 361.5zM778 444q0 -83 35 -128.5t98 -45.5q84 0 148 59t88 158l51 209q-9 76 -50 116t-110 40q-103 0 -181.5 -121.5 t-78.5 -286.5z" />
<glyph unicode="A" horiz-adv-x="1479" d="M-16 0l505 1464h500l506 -1464h-397l-74 262h-567l-76 -262h-397zM543 547h397l-149 483q-7 22 -19 71t-31 126q-13 -54 -25.5 -103t-25.5 -94z" />
<glyph unicode="B" horiz-adv-x="1389" d="M156 0v1464h401q248 0 346.5 -16t169.5 -55q81 -45 123.5 -120.5t42.5 -174.5q0 -125 -63.5 -198.5t-202.5 -111.5q156 -12 244 -109.5t88 -260.5q0 -117 -49.5 -206t-141.5 -138q-75 -40 -185 -57t-360 -17h-413zM526 299h140q142 0 201 35.5t59 118.5q0 92 -54 128.5 t-200 36.5h-146v-319zM526 879h80q148 0 203 32.5t55 112.5q0 83 -51.5 116.5t-200.5 33.5h-86v-295z" />
<glyph unicode="C" horiz-adv-x="1286" d="M94 731q0 168 54.5 305.5t164.5 249.5q104 107 234.5 160t290.5 53q96 0 190 -23t189 -69v-436q-82 91 -163.5 133.5t-174.5 42.5q-172 0 -278.5 -117.5t-106.5 -306.5q0 -176 108.5 -292t276.5 -116q93 0 174.5 42.5t163.5 134.5v-437q-95 -46 -189 -69t-190 -23 q-120 0 -221.5 28.5t-186.5 86.5q-164 110 -250 277t-86 376z" />
<glyph unicode="D" horiz-adv-x="1569" d="M156 0v1464h305q341 0 482.5 -32t248.5 -107q139 -97 211 -248.5t72 -345.5t-72 -345.5t-211 -248.5q-106 -74 -242 -105.5t-422 -31.5h-67h-305zM551 328h67q235 0 343 96.5t108 306.5t-108 308t-343 98h-67v-809z" />
<glyph unicode="E" horiz-adv-x="1161" d="M156 0v1464h897v-321h-508v-254h479v-314h-479v-247h508v-328h-897z" />
<glyph unicode="F" horiz-adv-x="1114" d="M156 0v1464h897v-321h-508v-254h479v-314h-479v-575h-389z" />
<glyph unicode="G" horiz-adv-x="1726" d="M94 731q0 164 56 301.5t167 247.5q110 107 252.5 162t307.5 55q215 0 380.5 -85t278.5 -253l-346 -166q-62 85 -139.5 126.5t-173.5 41.5q-179 0 -282 -119.5t-103 -326.5q0 -209 103 -329t282 -120q152 0 253.5 74.5t118.5 198.5h-397v307h784q1 -15 1.5 -33t0.5 -53 q0 -378 -199.5 -586.5t-561.5 -208.5q-178 0 -316.5 53.5t-247.5 163.5q-104 105 -161.5 248.5t-57.5 300.5z" />
<glyph unicode="H" horiz-adv-x="1642" d="M156 0v1464h399v-569h532v569h400v-1464h-400v596h-532v-596h-399z" />
<glyph unicode="I" horiz-adv-x="735" d="M166 0v1464h403v-1464h-403z" />
<glyph unicode="J" horiz-adv-x="981" d="M-25 195l244 221q9 -65 42 -100t83 -35q57 0 78.5 63t21.5 315v805h398v-950q0 -155 -20 -238t-66 -147q-61 -83 -150 -125.5t-200 -42.5q-138 0 -246 59t-185 175z" />
<glyph unicode="K" horiz-adv-x="1485" d="M156 0v1464h395v-665l463 665h465l-541 -714l588 -750h-498l-477 657v-657h-395z" />
<glyph unicode="L" horiz-adv-x="1090" d="M156 0v1464h399v-1122h496v-342h-895z" />
<glyph unicode="M" horiz-adv-x="1894" d="M57 0l226 1464h395l221 -755q2 -8 8 -26q31 -101 39 -173q4 39 15 86.5t30 114.5l223 753h396l225 -1464h-373l-86 633q-9 67 -16.5 149t-13.5 179q-14 -93 -55 -232q-9 -29 -13 -43l-199 -686h-266l-199 686q-4 14 -12 43q-42 139 -55 231q-6 -83 -14 -164.5t-19 -162.5 l-86 -633h-371z" />
<glyph unicode="N" horiz-adv-x="1745" d="M156 0v1464h385l553 -753q16 -23 52.5 -92.5t80.5 -165.5q-12 91 -17.5 162t-5.5 126v723h383v-1464h-383l-553 756q-17 23 -53.5 92.5t-79.5 163.5q12 -92 17.5 -163t5.5 -126v-723h-385z" />
<glyph unicode="O" horiz-adv-x="1753" d="M94 729q0 157 58.5 295.5t171.5 247.5q109 108 252.5 166.5t300.5 58.5q156 0 300.5 -58.5t254.5 -166.5t168.5 -247t58.5 -296q0 -158 -58 -296t-169 -247q-112 -108 -256 -166.5t-299 -58.5q-157 0 -300.5 58.5t-252.5 166.5q-113 109 -171.5 248t-58.5 295zM494 729 q0 -188 107 -309t276 -121q166 0 274.5 122t108.5 308q0 184 -110 307t-273 123q-166 0 -274.5 -122.5t-108.5 -307.5z" />
<glyph unicode="P" horiz-adv-x="1298" d="M156 0v1464h417q245 0 344 -24t168 -82q81 -67 123.5 -167.5t42.5 -223.5q0 -131 -42 -230.5t-124 -163.5q-62 -48 -146 -69t-269 -21h-68h-72v-483h-374zM530 805h76q144 0 201 39.5t57 134.5q0 92 -56 131t-198 39h-80v-344z" />
<glyph unicode="Q" horiz-adv-x="1753" d="M94 731q0 156 59 295t171 248q110 108 252 165.5t301 57.5q158 0 300 -57.5t253 -165.5q111 -109 170 -248t59 -295q0 -164 -60 -304t-176 -245l267 -354h-340l-156 205q-63 -34 -141 -51t-170 -17q-125 0 -239.5 33t-213.5 98q-157 105 -246.5 273.5t-89.5 361.5z M494 729q0 -188 109 -311t276 -123q23 0 47.5 5.5t52.5 16.5l-207 267h346l76 -101q32 50 49 109.5t17 126.5q0 193 -108.5 317.5t-274.5 124.5q-163 0 -273 -124t-110 -308z" />
<glyph unicode="R" horiz-adv-x="1313" d="M156 0v1464h417q245 0 341.5 -22.5t166.5 -75.5q79 -60 121.5 -153t42.5 -205q0 -170 -83.5 -276.5t-243.5 -141.5l399 -590h-451l-336 573v-573h-374zM530 772h74q129 0 188.5 44t59.5 138q0 110 -55.5 156.5t-186.5 46.5h-80v-385z" />
<glyph unicode="S" horiz-adv-x="1190" d="M41 176l180 297q89 -101 175.5 -151t172.5 -50q80 0 131.5 43t51.5 109q0 73 -44.5 112.5t-201.5 81.5q-215 58 -304 151t-89 255q0 210 140.5 342.5t364.5 132.5q121 0 229.5 -32.5t205.5 -98.5l-125 -287q-68 58 -139.5 87.5t-141.5 29.5q-72 0 -117 -34.5t-45 -88.5 q0 -55 39.5 -88t152.5 -63l18 -5q244 -66 321 -145q52 -54 79 -129.5t27 -167.5q0 -233 -153 -374.5t-408 -141.5q-153 0 -278.5 52t-241.5 163z" />
<glyph unicode="T" horiz-adv-x="1133" d="M39 1118v346h1055v-346h-328v-1118h-399v1118h-328z" />
<glyph unicode="U" horiz-adv-x="1597" d="M147 690v152v622h398v-712q0 -157 8 -225.5t27 -114.5q23 -56 80 -85.5t139 -29.5t138.5 29.5t80.5 85.5q19 46 27 114.5t8 225.5v100v612h397v-774q0 -241 -29 -355.5t-98 -195.5q-75 -89 -206 -133.5t-318 -44.5q-188 0 -318.5 44.5t-206.5 133.5q-68 81 -97.5 195.5 t-29.5 355.5z" />
<glyph unicode="V" horiz-adv-x="1456" d="M-39 1464h424l293 -819q4 -13 16.5 -62.5t32.5 -133.5q16 67 30 121t21 75l291 819h424l-614 -1464h-304z" />
<glyph unicode="W" horiz-adv-x="1987" d="M-20 1464h403l168 -700q12 -54 23.5 -108t21.5 -111q9 42 19.5 88t31.5 131l184 700h322l184 -696q13 -47 24 -98t23 -117q15 78 25.5 128.5t20.5 86.5l172 696h403l-414 -1464h-370l-181 625q-10 33 -33 129q-10 43 -16 67q-5 -21 -14 -59q-23 -97 -35 -137l-178 -625 h-371z" />
<glyph unicode="X" horiz-adv-x="1446" d="M-29 0l543 768l-491 696h475l176 -340l2 -4q35 -66 47 -116q11 46 45 109q4 7 6 11l176 340h473l-489 -704l541 -760h-453l-248 434q-17 29 -30 59.5t-21 61.5q-9 -35 -21 -65t-28 -56l-250 -434h-453z" />
<glyph unicode="Y" horiz-adv-x="1223" d="M-96 1464h458l197 -377q2 -3 6 -11q31 -59 43 -113q10 49 43 109q6 11 8 15l195 377h459l-512 -796v-668h-385v668z" />
<glyph unicode="Z" horiz-adv-x="1386" d="M4 0l739 1147h-593v317h1232l-737 -1145h653v-319h-1294z" />
<glyph unicode="[" horiz-adv-x="743" d="M180 -461v1958h508v-242h-219v-1474h219v-242h-508z" />
<glyph unicode="\" horiz-adv-x="938" d="M0 1497h223l715 -1687h-221z" />
<glyph unicode="]" horiz-adv-x="743" d="M57 -219h217v1474h-217v242h506v-1958h-506v242z" />
<glyph unicode="^" horiz-adv-x="2048" d="M414 899l465 563h288l465 -563h-264l-344 342l-346 -342h-264z" />
<glyph unicode="_" horiz-adv-x="1024" d="M0 -244h1024v-239h-1024v239z" />
<glyph unicode="`" horiz-adv-x="1024" d="M223 1497h281l182 -350h-154z" />
<glyph unicode="a" horiz-adv-x="1352" d="M80 504q0 247 126.5 392.5t340.5 145.5q114 0 196.5 -48.5t141.5 -149.5v166h329v-1010h-327v164q-70 -105 -157.5 -154t-205.5 -49q-202 0 -323 147.5t-121 395.5zM432 506q0 -118 63 -186t171 -68q109 0 172 68t63 186t-63 187t-172 69t-171.5 -68.5t-62.5 -187.5z" />
<glyph unicode="b" horiz-adv-x="1352" d="M133 0v1550h340v-528q0 -64 -2.5 -106.5t-7.5 -73.5q62 108 142.5 154t209.5 46q202 0 327.5 -148.5t125.5 -389.5q0 -249 -126.5 -396t-338.5 -147q-104 0 -189 50.5t-153 152.5v-164h-328zM449 504q0 -118 61.5 -186t169.5 -68q109 0 171 67.5t62 186.5 q0 118 -62.5 186t-170.5 68t-169.5 -68t-61.5 -186z" />
<glyph unicode="c" horiz-adv-x="944" d="M74 504q0 237 147.5 387.5t378.5 150.5q77 0 139 -15t117 -48v-301q-52 46 -100 67t-101 21q-106 0 -168.5 -70t-62.5 -190q0 -116 65 -185t175 -69q54 0 101.5 21.5t90.5 66.5v-309q-64 -36 -128 -53t-132 -17q-233 0 -377.5 149.5t-144.5 393.5z" />
<glyph unicode="d" horiz-adv-x="1352" d="M84 504q0 241 125.5 389.5t327.5 148.5q128 0 208.5 -46t143.5 -154q-6 36 -9 81.5t-3 98.5v528h342v-1550h-328v164q-68 -102 -153 -152.5t-189 -50.5q-213 0 -339 147t-126 396zM438 504q0 -119 61.5 -186.5t170.5 -67.5q108 0 170.5 68t62.5 186t-62.5 186t-170.5 68 t-170 -68t-62 -186z" />
<glyph unicode="e" horiz-adv-x="1251" d="M74 494q0 236 159.5 392t403.5 156q251 0 396 -158t145 -433v-17h-768q1 -117 60 -180.5t167 -63.5q81 0 136.5 30.5t84.5 90.5l268 -108q-48 -116 -170 -179t-299 -63q-264 0 -423.5 146.5t-159.5 386.5zM418 635h409q-10 86 -65.5 138t-136.5 52q-87 0 -138.5 -47.5 t-68.5 -142.5z" />
<glyph unicode="f" horiz-adv-x="719" d="M14 758v252h152v207q0 176 96 265t287 89q27 0 64.5 -5t80.5 -14v-272q-24 9 -44.5 13.5t-37.5 4.5q-50 0 -73 -30t-23 -97v-161h178v-252h-178v-758h-350v758h-152z" />
<glyph unicode="g" horiz-adv-x="1352" d="M80 512q0 243 126.5 386.5t340.5 143.5q113 0 195.5 -47t142.5 -147v162h329v-1008q0 -229 -139.5 -338.5t-431.5 -109.5q-236 0 -370 87.5t-142 247.5h369q8 -47 52.5 -73.5t117.5 -26.5q115 0 158.5 55.5t43.5 233.5v92q-56 -95 -143 -141.5t-207 -46.5 q-200 0 -321 144.5t-121 385.5zM428 508q0 -116 63.5 -183t174.5 -67q109 0 172 67t63 183q0 117 -62.5 183.5t-172.5 66.5q-111 0 -174.5 -66.5t-63.5 -183.5z" />
<glyph unicode="h" horiz-adv-x="1337" d="M131 0v1550h350v-544q0 -54 -3 -100t-9 -83q67 113 158 166t217 53q98 0 174.5 -31.5t124.5 -90.5q40 -51 57 -124t17 -218v-578h-357v541q0 121 -39.5 176t-126.5 55q-111 0 -162 -82t-51 -266v-424h-350z" />
<glyph unicode="i" horiz-adv-x="639" d="M123 1325q0 81 57.5 138t138.5 57q84 0 140.5 -56t56.5 -139t-57.5 -141t-139.5 -58q-80 0 -138 59t-58 140zM141 0v1010h357v-1010h-357z" />
<glyph unicode="j" horiz-adv-x="639" d="M123 1325q0 81 57.5 138t138.5 57q84 0 140.5 -56t56.5 -139t-57.5 -141t-139.5 -58q-80 0 -138 59t-58 140zM141 -446v1456h357v-1456h-357z" />
<glyph unicode="k" horiz-adv-x="1313" d="M133 0v1550h350v-981l367 441h442l-454 -486l495 -524h-469l-381 449v-449h-350z" />
<glyph unicode="l" horiz-adv-x="639" d="M141 0v1550h357v-1550h-357z" />
<glyph unicode="m" horiz-adv-x="1942" d="M131 0v1010h350v-176q63 107 145.5 157.5t194.5 50.5q123 0 201.5 -47.5t112.5 -142.5q59 96 144 143t200 47q91 0 159.5 -30.5t114.5 -91.5q37 -48 52.5 -112t15.5 -208v-22v-578h-353v551q0 131 -32.5 181t-112.5 50q-100 0 -139 -69.5t-39 -284.5v-428h-344v551 q0 133 -32 182t-112 49q-100 0 -140 -68.5t-40 -285.5v-428h-346z" />
<glyph unicode="n" horiz-adv-x="1337" d="M131 0v1010h326v-205q71 123 164 180t223 57q98 0 174.5 -31.5t124.5 -90.5q40 -51 57 -124t17 -218v-578h-357v541q0 121 -39.5 176t-126.5 55q-111 0 -162 -82t-51 -266v-424h-350z" />
<glyph unicode="o" horiz-adv-x="1276" d="M74 502q0 111 41.5 209t122.5 176q79 77 180.5 116t218.5 39t218 -39t181 -116q82 -79 124 -177t42 -208q0 -109 -42.5 -207t-123.5 -176q-82 -78 -183.5 -118t-215.5 -40q-116 0 -217.5 40t-181.5 118q-80 76 -122 174.5t-42 208.5zM426 502q0 -113 56 -177.5t155 -64.5 q98 0 154.5 64.5t56.5 177.5t-57 178t-154 65q-98 0 -154.5 -65t-56.5 -178z" />
<glyph unicode="p" horiz-adv-x="1352" d="M133 -446v1456h328v-170q68 102 153 152t189 50q213 0 339 -145.5t126 -394.5q0 -242 -125.5 -391.5t-327.5 -149.5q-128 0 -208.5 47t-143.5 155q5 -30 7.5 -73t2.5 -106v-430h-340zM449 502q0 -118 61.5 -186t169.5 -68t170.5 68t62.5 186t-62 186t-171 68 q-108 0 -169.5 -68t-61.5 -186z" />
<glyph unicode="q" horiz-adv-x="1352" d="M84 502q0 249 126 394.5t339 145.5q104 0 189 -50t153 -152v170h328v-1456h-342v430q0 52 3 97.5t9 82.5q-63 -109 -144 -156t-208 -47q-202 0 -327.5 149.5t-125.5 391.5zM438 502q0 -118 62 -186t170 -68t170.5 68t62.5 186q0 117 -62.5 185.5t-170.5 68.5 q-109 0 -170.5 -67.5t-61.5 -186.5z" />
<glyph unicode="r" horiz-adv-x="915" d="M133 0v1010h336v-238q52 130 142 195t218 65q21 0 42.5 -1.5t43.5 -4.5l-34 -324q-32 11 -63 16t-60 5q-130 0 -200.5 -79.5t-70.5 -225.5v-418h-354z" />
<glyph unicode="s" horiz-adv-x="991" d="M37 84l74 272q78 -68 171.5 -104.5t188.5 -36.5q67 0 102 21.5t35 62.5q0 67 -141 100q-46 11 -74 19q-160 44 -232.5 115.5t-72.5 185.5q0 147 110.5 235t299.5 88q97 0 197.5 -22.5t205.5 -69.5l-74 -245q-71 48 -144 73t-146 25q-61 0 -92 -19t-31 -55q0 -54 140 -91 q32 -9 48 -13q185 -53 257.5 -124.5t72.5 -193.5q0 -155 -119 -250.5t-315 -95.5q-133 0 -247 30.5t-214 92.5z" />
<glyph unicode="t" horiz-adv-x="723" d="M35 758v252h151v301h351v-301h151v-252h-151v-758h-351v758h-151z" />
<glyph unicode="u" horiz-adv-x="1292" d="M123 494v516h340v-539q0 -127 42 -183.5t136 -56.5q95 0 136.5 55.5t41.5 184.5v539h348v-516q0 -171 -27.5 -253.5t-92.5 -146.5q-67 -67 -167 -100t-235 -33q-134 0 -233.5 33t-169.5 100q-65 62 -92 145.5t-27 254.5z" />
<glyph unicode="v" horiz-adv-x="1155" d="M-18 1010h380l172 -446q3 -7 7 -17q33 -88 41 -141q7 49 39 131q7 18 10 27l172 446h371l-459 -1010h-279z" />
<glyph unicode="w" horiz-adv-x="1645" d="M-41 1010h367l151 -447q17 -49 27 -85.5t16 -71.5q9 50 39 139l6 18l150 447h215l149 -446l3 -8q33 -94 42 -150q6 32 15.5 67t27.5 90l152 447h369l-424 -1010h-252l-150 457q-12 39 -21.5 78.5t-17.5 78.5q-11 -60 -39 -151l-2 -7l-149 -456h-252z" />
<glyph unicode="x" horiz-adv-x="1085" d="M-55 0l397 541l-340 469h389l94 -172q22 -43 33 -70t17 -51q5 25 15 50.5t34 70.5l96 172h403l-346 -469l404 -541h-402l-151 254q-18 30 -30 60t-19 60q-8 -31 -20 -60.5t-30 -59.5l-149 -254h-395z" />
<glyph unicode="y" horiz-adv-x="1090" d="M-47 1010h395l141 -365q18 -46 30 -85.5t18 -73.5q6 36 17.5 74.5t29.5 84.5l143 365h381l-635 -1456h-397l284 600z" />
<glyph unicode="z" horiz-adv-x="1110" d="M0 0l518 750h-455v260h1006l-537 -736h492v-274h-1024z" />
<glyph unicode="{" horiz-adv-x="1024" d="M152 410v241q6 0 18 -1t18 -1q118 0 168 55.5t50 188.5v254q0 136 24 193.5t82 89.5q48 25 120.5 37t180.5 12q12 0 38.5 -1t41.5 -1v-242q-7 0 -21 1t-20 1q-98 0 -132 -35.5t-34 -146.5v-240q0 -140 -46 -200t-165 -85q120 -24 165.5 -82.5t45.5 -199.5v-242 q0 -110 33.5 -145t130.5 -35q7 0 21.5 1t21.5 1v-242q-15 0 -42 -1t-40 -1q-108 0 -179.5 12t-119.5 37q-59 32 -82.5 88.5t-23.5 192.5v256q0 133 -49.5 187.5t-168.5 54.5q-4 0 -17 -1t-19 -1z" />
<glyph unicode="|" horiz-adv-x="1024" d="M393 -483v2048h240v-2048h-240z" />
<glyph unicode="}" horiz-adv-x="1024" d="M133 -172q9 0 23 -1t20 -1q97 0 130.5 34.5t33.5 145.5v242q0 140 46 199t165 83q-120 25 -165.5 84t-45.5 201v240q0 111 -33.5 146.5t-126.5 35.5q-7 0 -22.5 -1t-24.5 -1v242q15 0 41.5 1t38.5 1q108 0 180 -12t121 -37q58 -32 82.5 -89.5t24.5 -193.5v-254 q0 -134 49 -189t168 -55q6 0 18 1t18 1v-241q-6 0 -18 1t-18 1q-119 0 -168 -55t-49 -187v-256q0 -137 -24.5 -194.5t-82.5 -88.5q-45 -24 -113.5 -35.5t-177.5 -11.5q-14 0 -44 1t-46 1v242z" />
<glyph unicode="~" horiz-adv-x="1706" d="M178 401v254q112 73 207.5 108.5t179.5 35.5q63 0 126.5 -12t169.5 -46q16 -5 51 -17q159 -56 247 -56q84 0 173.5 36t197.5 115v-254q-101 -69 -194 -103t-183 -34q-45 0 -89 7.5t-83 21.5q-13 4 -38 13q-255 89 -382 89q-84 0 -175.5 -37.5t-207.5 -120.5z" />
<glyph unicode="&#xa0;" />
<glyph unicode="&#xa1;" horiz-adv-x="702" d="M150 1329q0 85 58 144t142 59q85 0 144 -59t59 -144q0 -86 -58.5 -144.5t-144.5 -58.5q-85 0 -142.5 59t-57.5 144zM166 -39v1045h371v-1045h-371z" />
<glyph unicode="&#xa2;" d="M195 713q0 218 121.5 361.5t334.5 176.5v170h115v-168q59 -6 111.5 -21.5t99.5 -41.5v-303q-54 47 -102 68.5t-99 21.5q-106 0 -168.5 -70.5t-62.5 -191.5q0 -118 64.5 -187t174.5 -69q56 0 102.5 21t90.5 67v-309q-55 -28 -107.5 -44t-103.5 -20v-203h-115v203 q-225 42 -340.5 178t-115.5 361z" />
<glyph unicode="&#xa3;" d="M82 195q51 73 109.5 113.5t125.5 47.5q30 36 45 76t15 86q0 20 -4 45.5t-13 59.5h-233v141h162q-56 76 -82.5 151t-26.5 158q0 178 140 292t364 114q235 0 363.5 -121.5t134.5 -349.5h-344q-2 92 -42.5 140t-117.5 48q-66 0 -106 -40t-40 -105q0 -49 61 -173 q34 -71 52 -114h334v-141h-315q0 -94 -42.5 -156.5t-129.5 -97.5l4 -21q16 3 32.5 4.5t32.5 1.5q58 0 148 -27.5t127 -27.5q50 0 82 22.5t61 77.5l240 -190q-52 -123 -147.5 -185.5t-229.5 -62.5q-91 0 -230.5 51t-187.5 51q-46 0 -84 -21t-78 -69z" />
<glyph unicode="&#xa4;" d="M0 537l27 122l131 1q-1 11 -1.5 25t-0.5 40q0 11 2 43q1 15 2 25h-160l27 125h147q55 263 238.5 412t453.5 149q94 0 183.5 -27t167.5 -78v-346q-72 71 -152.5 107t-169.5 36q-123 0 -211 -66.5t-125 -186.5h498l-43 -125h-477q-3 -24 -5 -44.5t-2 -33.5q0 -15 0.5 -28 t1.5 -27l439 -1l-45 -122h-375q29 -124 121.5 -195.5t222.5 -71.5q80 0 159 32.5t171 103.5l-13 -351q-83 -46 -172 -70t-178 -24q-273 0 -456.5 153.5t-231.5 422.5h-174z" />
<glyph unicode="&#xa5;" horiz-adv-x="1335" d="M-29 1452h387l250 -414q15 -23 31 -61t31 -84q12 41 27 77.5t32 65.5l252 416h385l-258 -395h219v-203h-354l-94 -149h448v-203h-485v-502h-346v502h-486v203h449l-99 149h-350v203h217z" />
<glyph unicode="&#xa6;" horiz-adv-x="1024" d="M393 -350v758h240v-758h-240zM393 674v758h240v-758h-240z" />
<glyph unicode="&#xa7;" horiz-adv-x="1219" d="M66 514q0 122 56 207.5t161 122.5q-77 35 -114.5 100.5t-37.5 163.5q0 178 134 284.5t360 106.5q228 0 352.5 -109.5t130.5 -314.5h-371v21q0 66 -36.5 102.5t-102.5 36.5q-63 0 -101 -37t-38 -98q0 -110 193 -132q55 -7 86 -12q219 -33 316 -132t97 -287 q0 -126 -54 -209.5t-161 -122.5q78 -37 114.5 -101t36.5 -163q0 -179 -133.5 -286.5t-359.5 -107.5q-230 0 -355 113t-128 324h370v-23q0 -72 36 -110.5t104 -38.5q62 0 100.5 37t38.5 98q0 110 -197 134q-53 7 -81 11q-221 34 -318.5 133.5t-97.5 288.5zM434 528 q0 -83 49 -136.5t123 -53.5q77 0 128.5 52.5t51.5 129.5q0 80 -50 133.5t-124 53.5q-77 0 -127.5 -50.5t-50.5 -128.5z" />
<glyph unicode="&#xa8;" horiz-adv-x="1024" d="M172 1333q0 57 43.5 99.5t101.5 42.5q60 0 101 -41.5t41 -100.5q0 -63 -40 -104t-102 -41q-60 0 -102.5 42t-42.5 103zM563 1333q0 57 42.5 99.5t101.5 42.5t101 -41.5t42 -100.5q0 -62 -41 -103.5t-102 -41.5t-102.5 42t-41.5 103z" />
<glyph unicode="&#xa9;" horiz-adv-x="1706" d="M106 737q0 148 57.5 285t164.5 246q105 106 238 161.5t286 55.5q154 0 289.5 -56t242.5 -163q106 -106 160.5 -240.5t54.5 -288.5q0 -153 -54 -287t-159 -237q-109 -108 -247 -165.5t-287 -57.5q-148 0 -283.5 57t-242.5 164t-163.5 241.5t-56.5 284.5zM242 737 q0 -119 47 -230.5t135 -199.5q87 -87 198 -133.5t232 -46.5t234 47t202 135q86 84 130 193t44 235q0 125 -45 235.5t-131 196.5q-88 89 -198.5 135t-235.5 46q-126 0 -235 -45.5t-195 -133.5q-88 -89 -135 -201t-47 -233zM446 731q0 207 111 329t299 122q157 0 257 -80 t108 -211h-213q-7 67 -47.5 104t-108.5 37q-83 0 -129.5 -77t-46.5 -216q0 -140 47.5 -212t138.5 -72q67 0 106.5 40.5t45.5 114.5h215q-6 -143 -107.5 -230t-263.5 -87q-190 0 -301 117.5t-111 320.5z" />
<glyph unicode="&#xaa;" horiz-adv-x="1014" d="M59 1110q0 173 95 275t256 102q87 0 149 -34t105 -105v116h247v-706h-245v114q-52 -73 -117.5 -107t-155.5 -34q-151 0 -242.5 103.5t-91.5 275.5zM324 1112q0 -83 47 -130.5t129 -47.5q81 0 128.5 47.5t47.5 130.5t-47.5 130.5t-128.5 47.5q-82 0 -129 -47.5t-47 -130.5 z" />
<glyph unicode="&#xab;" horiz-adv-x="1114" d="M45 502l358 489l193 -133l-264 -356l264 -348l-193 -140zM518 502l361 489l190 -133l-262 -356l262 -348l-190 -140z" />
<glyph unicode="&#xac;" horiz-adv-x="1706" d="M254 639v227h1198v-501h-229v274h-969z" />
<glyph unicode="&#xad;" horiz-adv-x="934" d="M127 340v326h680v-326h-680z" />
<glyph unicode="&#xae;" horiz-adv-x="1706" d="M106 737q0 151 59 290t169 247q105 104 237 157.5t281 53.5q156 0 294 -57.5t245 -167.5q101 -104 154.5 -238t53.5 -285q0 -155 -56.5 -291t-164.5 -239q-109 -105 -245 -161t-281 -56q-151 0 -287 58t-243 169q-105 108 -160.5 241.5t-55.5 278.5zM244 737 q0 -121 44 -229t130 -195q87 -90 199 -138t235 -48q121 0 232.5 45.5t199.5 130.5t134 196.5t46 237.5q0 124 -44 233.5t-128 194.5q-89 91 -200.5 138t-237.5 47q-124 0 -232 -44t-194 -128q-90 -90 -137 -203t-47 -238zM537 344v819h329q174 0 264.5 -60t90.5 -177 q0 -81 -46 -139t-128 -82l182 -361h-248l-154 326h-65v-326h-225zM762 803h80q74 0 110.5 26.5t36.5 79.5q0 59 -38 86t-122 27h-67v-219z" />
<glyph unicode="&#xaf;" horiz-adv-x="1024" d="M205 1247v168h614v-168h-614z" />
<glyph unicode="&#xb0;" horiz-adv-x="674" d="M27 1155q0 131 90.5 221t220.5 90q129 0 220 -91t91 -220q0 -128 -91.5 -219.5t-221.5 -91.5q-129 0 -219 90.5t-90 220.5zM172 1157q0 -70 48 -118t118 -48q68 0 116 49t48 117t-48 116t-116 48q-69 0 -117.5 -48t-48.5 -116z" />
<glyph unicode="&#xb1;" horiz-adv-x="1706" d="M254 -18v231h1198v-231h-1198zM254 690v232h481v319h238v-319h479v-232h-479v-319h-238v319h-481z" />
<glyph unicode="&#xb2;" horiz-adv-x="846" d="M27 575l432 467q40 44 59 78t19 64q0 47 -32 75.5t-85 28.5q-62 0 -94.5 -36t-32.5 -103v-12h-234v6q0 149 96.5 235t262.5 86q162 0 259 -76t97 -202q0 -61 -30 -119.5t-101 -130.5l-176 -174h297v-187h-737z" />
<glyph unicode="&#xb3;" horiz-adv-x="846" d="M55 858v8h246v-14q0 -58 29.5 -87.5t87.5 -29.5q61 0 93 28.5t32 82.5q0 61 -35 90t-109 29q-11 0 -17 -0.5t-11 -1.5v141h12q67 0 103 26.5t36 75.5q0 41 -29.5 66.5t-76.5 25.5q-51 0 -79 -24.5t-30 -69.5h-233q3 123 95.5 190.5t258.5 67.5q147 0 232 -60.5t85 -164.5 q0 -67 -39.5 -113.5t-113.5 -66.5q90 -16 140 -73t50 -144q0 -129 -99.5 -208t-260.5 -79q-169 0 -268 82t-99 223z" />
<glyph unicode="&#xb4;" horiz-adv-x="1024" d="M338 1147l182 350h281l-309 -350h-154z" />
<glyph unicode="&#xb5;" horiz-adv-x="1315" d="M-45 -428l238 1518h358l-80 -529q-6 -41 -9 -77.5t-3 -65.5q0 -85 35.5 -127.5t107.5 -42.5q88 0 138.5 68.5t74.5 220.5l88 553h357l-175 -1090h-321l18 125q-40 -75 -89.5 -108t-119.5 -33q-59 0 -106.5 31t-77.5 89l-82 -532h-352z" />
<glyph unicode="&#xb6;" horiz-adv-x="1024" d="M29 1130q0 158 106 253.5t283 95.5h579v-123h-106v-1356h-176v1356h-150v-1356h-174v784q-164 6 -263 101t-99 245z" />
<glyph unicode="&#xb7;" horiz-adv-x="639" d="M119 721q0 85 57.5 143t142.5 58q87 0 145 -57.5t58 -143.5q0 -85 -58.5 -144t-144.5 -59q-84 0 -142 59t-58 144z" />
<glyph unicode="&#xb8;" horiz-adv-x="1024" d="M272 -301q80 -22 149.5 -33.5t121.5 -11.5q43 0 64.5 17.5t21.5 54.5q0 32 -28.5 47.5t-90.5 15.5q-21 0 -33 -0.5t-22 -1.5v213h114v-84h19q111 0 170 -49.5t59 -142.5q0 -100 -66 -154.5t-188 -54.5q-61 0 -134 11t-157 34v139z" />
<glyph unicode="&#xb9;" horiz-adv-x="846" d="M117 1247l112 199h334v-871h-239v672h-207z" />
<glyph unicode="&#xba;" horiz-adv-x="956" d="M55 1110q0 78 31 146t92 122q60 54 135.5 81.5t163.5 27.5t165 -27.5t136 -81.5q61 -55 92 -123.5t31 -144.5q0 -78 -31 -146t-92 -122q-62 -55 -138.5 -83t-162.5 -28t-162 28t-137 83q-60 53 -91.5 122t-31.5 146zM319 1110q0 -80 42 -125t116 -45q75 0 117.5 45.5 t42.5 124.5q0 78 -43 124t-117 46q-73 0 -115.5 -45.5t-42.5 -124.5z" />
<glyph unicode="&#xbb;" horiz-adv-x="1114" d="M45 154l262 348l-262 356l191 133l358 -489l-358 -488zM518 154l262 348l-262 356l191 133l360 -489l-360 -488z" />
<glyph unicode="&#xbc;" horiz-adv-x="1956" d="M113 1260l108 184h318v-811h-230v627h-196zM465 -39l835 1518h189l-840 -1518h-184zM1184 184v162l344 469h284v-469h103v-162h-103v-184h-208v184h-420zM1378 346h226v238q0 43 1 60.5t4 30.5q-11 -23 -26.5 -47.5t-36.5 -52.5z" />
<glyph unicode="&#xbd;" horiz-adv-x="1956" d="M113 1260l108 184h318v-811h-230v627h-196zM465 -39l835 1518h189l-840 -1518h-184zM1174 0l413 436q37 39 55.5 71.5t18.5 59.5q0 44 -30.5 71.5t-80.5 27.5q-58 0 -90.5 -34.5t-32.5 -96.5v-11h-221v6q0 139 91.5 219t250.5 80q155 0 246.5 -70.5t91.5 -189.5 q0 -59 -29.5 -113.5t-95.5 -117.5l-166 -164h283v-174h-704z" />
<glyph unicode="&#xbe;" horiz-adv-x="1956" d="M53 897v8h234v-14q0 -54 28.5 -81.5t83.5 -27.5q57 0 88 27t31 76q0 57 -32.5 83.5t-104.5 26.5q-10 0 -16 -0.5t-11 -0.5v132h13q63 0 97 25t34 72q0 36 -29 60t-74 24q-47 0 -73.5 -23.5t-26.5 -64.5h-223q3 116 90 178.5t246 62.5q140 0 221.5 -56.5t81.5 -154.5 q0 -62 -37 -105t-109 -63q87 -13 135 -66t48 -136q0 -119 -96 -194t-249 -75q-161 0 -255.5 77.5t-94.5 209.5zM465 -39l835 1518h189l-840 -1518h-184zM1184 184v162l344 469h284v-469h103v-162h-103v-184h-208v184h-420zM1378 346h226v238q0 43 1 60.5t4 30.5 q-11 -23 -26.5 -47.5t-36.5 -52.5z" />
<glyph unicode="&#xbf;" horiz-adv-x="1239" d="M123 403q0 167 89.5 272t233.5 109v213h345v-413h-107q-112 0 -171.5 -46.5t-59.5 -134.5q0 -68 45.5 -114.5t111.5 -46.5q70 0 109.5 37.5t44.5 109.5h342v-4q0 -196 -139 -313t-373 -117q-212 0 -341.5 123.5t-129.5 324.5zM430 1329q0 86 58 144.5t143 58.5 q84 0 143.5 -59t59.5 -144t-59 -144t-144 -59q-86 0 -143.5 58.5t-57.5 144.5z" />
<glyph unicode="&#xc0;" horiz-adv-x="1479" d="M-16 0l505 1464h500l506 -1464h-397l-74 262h-567l-76 -262h-397zM450 1970h281l182 -350h-154zM543 547h397l-149 483q-7 22 -19 71t-31 126q-13 -54 -25.5 -103t-25.5 -94z" />
<glyph unicode="&#xc1;" horiz-adv-x="1479" d="M-16 0l505 1464h500l506 -1464h-397l-74 262h-567l-76 -262h-397zM543 547h397l-149 483q-7 22 -19 71t-31 126q-13 -54 -25.5 -103t-25.5 -94zM565 1620l182 350h281l-309 -350h-154z" />
<glyph unicode="&#xc2;" horiz-adv-x="1479" d="M-16 0l505 1464h500l506 -1464h-397l-74 262h-567l-76 -262h-397zM417 1620l183 350h276l182 -350h-153l-166 180l-168 -180h-154zM543 547h397l-149 483q-7 22 -19 71t-31 126q-13 -54 -25.5 -103t-25.5 -94z" />
<glyph unicode="&#xc3;" horiz-adv-x="1479" d="M-16 0l505 1464h500l506 -1464h-397l-74 262h-567l-76 -262h-397zM407 1661q28 128 80.5 189t134.5 61q16 0 38 -4t52 -13l95 -26q12 -5 26 -7t31 -2q32 0 54.5 21t33.5 61h119q-30 -129 -83 -189t-136 -60q-23 0 -41.5 2.5t-35.5 7.5l-91 26l-3 1q-52 14 -65 14 q-33 0 -54.5 -19.5t-35.5 -62.5h-119zM543 547h397l-149 483q-7 22 -19 71t-31 126q-13 -54 -25.5 -103t-25.5 -94z" />
<glyph unicode="&#xc4;" horiz-adv-x="1479" d="M-16 0l505 1464h500l506 -1464h-397l-74 262h-567l-76 -262h-397zM399 1806q0 57 43.5 99.5t101.5 42.5q60 0 101 -41.5t41 -100.5q0 -63 -40 -104t-102 -41q-60 0 -102.5 42t-42.5 103zM543 547h397l-149 483q-7 22 -19 71t-31 126q-13 -54 -25.5 -103t-25.5 -94z M790 1806q0 57 42.5 99.5t101.5 42.5t101 -41.5t42 -100.5q0 -62 -41 -103.5t-102 -41.5t-102.5 42t-41.5 103z" />
<glyph unicode="&#xc5;" horiz-adv-x="1479" d="M-16 0l516 1464l159 -4v4q-82 22 -132 89.5t-50 156.5q0 111 76 186.5t186 75.5q111 0 188 -76.5t77 -185.5q0 -85 -47 -150.5t-130 -95.5v-4l154 4l514 -1464h-397l-74 262h-567l-76 -262h-397zM543 547h397l-149 483q-7 22 -19 71t-31 126q-13 -54 -25.5 -103 t-25.5 -94zM629 1708q0 -46 32 -77.5t78 -31.5q48 0 80.5 31.5t32.5 77.5q0 47 -33 80t-80 33q-45 0 -77.5 -33.5t-32.5 -79.5z" />
<glyph unicode="&#xc6;" horiz-adv-x="1763" d="M-33 0l506 1464h875l98 -321h-473l84 -254h467l96 -314h-461l82 -247h455l98 -328h-831l-76 262h-451l-74 -262h-395zM514 547h289l-94 321q-8 28 -20.5 77t-29.5 120q-11 -48 -23 -94.5t-28 -102.5z" />
<glyph unicode="&#xc7;" horiz-adv-x="1286" d="M94 731q0 168 54.5 305.5t164.5 249.5q104 107 234.5 160t290.5 53q96 0 190 -23t189 -69v-436q-82 91 -163.5 133.5t-174.5 42.5q-172 0 -278.5 -117.5t-106.5 -306.5q0 -176 108.5 -292t276.5 -116q93 0 174.5 42.5t163.5 134.5v-437q-95 -46 -189 -69t-190 -23 q-120 0 -221.5 28.5t-186.5 86.5q-164 110 -250 277t-86 376zM553 -301q80 -22 149.5 -33.5t121.5 -11.5q43 0 64.5 17.5t21.5 54.5q0 32 -28.5 47.5t-90.5 15.5q-21 0 -33 -0.5t-22 -1.5v213h114v-84h19q111 0 170 -49.5t59 -142.5q0 -100 -66 -154.5t-188 -54.5 q-61 0 -134 11t-157 34v139z" />
<glyph unicode="&#xc8;" horiz-adv-x="1161" d="M156 0v1464h897v-321h-508v-254h479v-314h-479v-247h508v-328h-897zM325 1970h281l182 -350h-154z" />
<glyph unicode="&#xc9;" horiz-adv-x="1161" d="M156 0v1464h897v-321h-508v-254h479v-314h-479v-247h508v-328h-897zM440 1620l182 350h281l-309 -350h-154z" />
<glyph unicode="&#xca;" horiz-adv-x="1161" d="M156 0v1464h897v-321h-508v-254h479v-314h-479v-247h508v-328h-897zM292 1620l183 350h276l182 -350h-153l-166 180l-168 -180h-154z" />
<glyph unicode="&#xcb;" horiz-adv-x="1161" d="M156 0v1464h897v-321h-508v-254h479v-314h-479v-247h508v-328h-897zM274 1806q0 57 43.5 99.5t101.5 42.5q60 0 101 -41.5t41 -100.5q0 -63 -40 -104t-102 -41q-60 0 -102.5 42t-42.5 103zM665 1806q0 57 42.5 99.5t101.5 42.5t101 -41.5t42 -100.5q0 -62 -41 -103.5 t-102 -41.5t-102.5 42t-41.5 103z" />
<glyph unicode="&#xcc;" horiz-adv-x="735" d="M80 1970h281l182 -350h-154zM166 0v1464h403v-1464h-403z" />
<glyph unicode="&#xcd;" horiz-adv-x="735" d="M166 0v1464h403v-1464h-403zM195 1620l182 350h281l-309 -350h-154z" />
<glyph unicode="&#xce;" horiz-adv-x="735" d="M47 1620l183 350h276l182 -350h-153l-166 180l-168 -180h-154zM166 0v1464h403v-1464h-403z" />
<glyph unicode="&#xcf;" horiz-adv-x="735" d="M29 1806q0 57 43.5 99.5t101.5 42.5q60 0 101 -41.5t41 -100.5q0 -63 -40 -104t-102 -41q-60 0 -102.5 42t-42.5 103zM166 0v1464h403v-1464h-403zM420 1806q0 57 42.5 99.5t101.5 42.5t101 -41.5t42 -100.5q0 -62 -41 -103.5t-102 -41.5t-102.5 42t-41.5 103z" />
<glyph unicode="&#xd0;" horiz-adv-x="1591" d="M0 614v258h178v592h303q343 0 484.5 -32t248.5 -107q139 -97 211 -248.5t72 -345.5t-72 -345.5t-211 -248.5q-106 -74 -242.5 -105.5t-422.5 -31.5h-68h-303v614h-178zM571 328h70q235 0 343 96.5t108 306.5t-108.5 308t-342.5 98h-70v-265h273v-258h-273v-286z" />
<glyph unicode="&#xd1;" horiz-adv-x="1745" d="M156 0v1464h385l553 -753q16 -23 52.5 -92.5t80.5 -165.5q-12 91 -17.5 162t-5.5 126v723h383v-1464h-383l-553 756q-17 23 -53.5 92.5t-79.5 163.5q12 -92 17.5 -163t5.5 -126v-723h-385zM540 1661q28 128 80.5 189t134.5 61q16 0 38 -4t52 -13l95 -26q12 -5 26 -7 t31 -2q32 0 54.5 21t33.5 61h119q-30 -129 -83 -189t-136 -60q-23 0 -41.5 2.5t-35.5 7.5l-91 26l-3 1q-52 14 -65 14q-33 0 -54.5 -19.5t-35.5 -62.5h-119z" />
<glyph unicode="&#xd2;" horiz-adv-x="1753" d="M94 729q0 157 58.5 295.5t171.5 247.5q109 108 252.5 166.5t300.5 58.5q156 0 300.5 -58.5t254.5 -166.5t168.5 -247t58.5 -296q0 -158 -58 -296t-169 -247q-112 -108 -256 -166.5t-299 -58.5q-157 0 -300.5 58.5t-252.5 166.5q-113 109 -171.5 248t-58.5 295zM494 729 q0 -188 107 -309t276 -121q166 0 274.5 122t108.5 308q0 184 -110 307t-273 123q-166 0 -274.5 -122.5t-108.5 -307.5zM588 1970h281l182 -350h-154z" />
<glyph unicode="&#xd3;" horiz-adv-x="1753" d="M94 729q0 157 58.5 295.5t171.5 247.5q109 108 252.5 166.5t300.5 58.5q156 0 300.5 -58.5t254.5 -166.5t168.5 -247t58.5 -296q0 -158 -58 -296t-169 -247q-112 -108 -256 -166.5t-299 -58.5q-157 0 -300.5 58.5t-252.5 166.5q-113 109 -171.5 248t-58.5 295zM494 729 q0 -188 107 -309t276 -121q166 0 274.5 122t108.5 308q0 184 -110 307t-273 123q-166 0 -274.5 -122.5t-108.5 -307.5zM703 1620l182 350h281l-309 -350h-154z" />
<glyph unicode="&#xd4;" horiz-adv-x="1753" d="M94 729q0 157 58.5 295.5t171.5 247.5q109 108 252.5 166.5t300.5 58.5q156 0 300.5 -58.5t254.5 -166.5t168.5 -247t58.5 -296q0 -158 -58 -296t-169 -247q-112 -108 -256 -166.5t-299 -58.5q-157 0 -300.5 58.5t-252.5 166.5q-113 109 -171.5 248t-58.5 295zM494 729 q0 -188 107 -309t276 -121q166 0 274.5 122t108.5 308q0 184 -110 307t-273 123q-166 0 -274.5 -122.5t-108.5 -307.5zM555 1620l183 350h276l182 -350h-153l-166 180l-168 -180h-154z" />
<glyph unicode="&#xd5;" horiz-adv-x="1753" d="M94 729q0 157 58.5 295.5t171.5 247.5q109 108 252.5 166.5t300.5 58.5q156 0 300.5 -58.5t254.5 -166.5t168.5 -247t58.5 -296q0 -158 -58 -296t-169 -247q-112 -108 -256 -166.5t-299 -58.5q-157 0 -300.5 58.5t-252.5 166.5q-113 109 -171.5 248t-58.5 295zM494 729 q0 -188 107 -309t276 -121q166 0 274.5 122t108.5 308q0 184 -110 307t-273 123q-166 0 -274.5 -122.5t-108.5 -307.5zM545 1661q28 128 80.5 189t134.5 61q16 0 38 -4t52 -13l95 -26q12 -5 26 -7t31 -2q32 0 54.5 21t33.5 61h119q-30 -129 -83 -189t-136 -60 q-23 0 -41.5 2.5t-35.5 7.5l-91 26l-3 1q-52 14 -65 14q-33 0 -54.5 -19.5t-35.5 -62.5h-119z" />
<glyph unicode="&#xd6;" horiz-adv-x="1753" d="M94 729q0 157 58.5 295.5t171.5 247.5q109 108 252.5 166.5t300.5 58.5q156 0 300.5 -58.5t254.5 -166.5t168.5 -247t58.5 -296q0 -158 -58 -296t-169 -247q-112 -108 -256 -166.5t-299 -58.5q-157 0 -300.5 58.5t-252.5 166.5q-113 109 -171.5 248t-58.5 295zM494 729 q0 -188 107 -309t276 -121q166 0 274.5 122t108.5 308q0 184 -110 307t-273 123q-166 0 -274.5 -122.5t-108.5 -307.5zM537 1806q0 57 43.5 99.5t101.5 42.5q60 0 101 -41.5t41 -100.5q0 -63 -40 -104t-102 -41q-60 0 -102.5 42t-42.5 103zM928 1806q0 57 42.5 99.5 t101.5 42.5t101 -41.5t42 -100.5q0 -62 -41 -103.5t-102 -41.5t-102.5 42t-41.5 103z" />
<glyph unicode="&#xd7;" horiz-adv-x="1706" d="M268 170l441 440l-441 443l162 161l440 -440l441 440l162 -161l-441 -443l441 -440l-162 -162l-441 441l-440 -441z" />
<glyph unicode="&#xd8;" horiz-adv-x="1753" d="M94 731q0 156 59 295t171 248q113 110 257 167.5t308 57.5q135 0 250 -39.5t219 -122.5l155 162l97 -94l-152 -158q97 -102 149 -235t52 -281q0 -156 -59 -295t-170 -248q-111 -108 -253 -165.5t-300 -57.5q-146 0 -268 42t-228 128l-176 -182l-92 94l170 176 q-96 114 -142.5 239.5t-46.5 268.5zM479 731q0 -65 17 -122t53 -111l549 569q-50 36 -104.5 54t-116.5 18q-166 0 -282 -118.5t-116 -289.5zM643 403q47 -39 105.5 -58t128.5 -19q167 0 283 119t116 292q0 73 -20 132.5t-60 105.5z" />
<glyph unicode="&#xd9;" horiz-adv-x="1597" d="M147 690v152v622h398v-712q0 -157 8 -225.5t27 -114.5q23 -56 80 -85.5t139 -29.5t138.5 29.5t80.5 85.5q19 46 27 114.5t8 225.5v100v612h397v-774q0 -241 -29 -355.5t-98 -195.5q-75 -89 -206 -133.5t-318 -44.5q-188 0 -318.5 44.5t-206.5 133.5q-68 81 -97.5 195.5 t-29.5 355.5zM510 1970h281l182 -350h-154z" />
<glyph unicode="&#xda;" horiz-adv-x="1597" d="M147 690v152v622h398v-712q0 -157 8 -225.5t27 -114.5q23 -56 80 -85.5t139 -29.5t138.5 29.5t80.5 85.5q19 46 27 114.5t8 225.5v100v612h397v-774q0 -241 -29 -355.5t-98 -195.5q-75 -89 -206 -133.5t-318 -44.5q-188 0 -318.5 44.5t-206.5 133.5q-68 81 -97.5 195.5 t-29.5 355.5zM625 1620l182 350h281l-309 -350h-154z" />
<glyph unicode="&#xdb;" horiz-adv-x="1597" d="M147 690v152v622h398v-712q0 -157 8 -225.5t27 -114.5q23 -56 80 -85.5t139 -29.5t138.5 29.5t80.5 85.5q19 46 27 114.5t8 225.5v100v612h397v-774q0 -241 -29 -355.5t-98 -195.5q-75 -89 -206 -133.5t-318 -44.5q-188 0 -318.5 44.5t-206.5 133.5q-68 81 -97.5 195.5 t-29.5 355.5zM477 1620l183 350h276l182 -350h-153l-166 180l-168 -180h-154z" />
<glyph unicode="&#xdc;" horiz-adv-x="1597" d="M147 690v152v622h398v-712q0 -157 8 -225.5t27 -114.5q23 -56 80 -85.5t139 -29.5t138.5 29.5t80.5 85.5q19 46 27 114.5t8 225.5v100v612h397v-774q0 -241 -29 -355.5t-98 -195.5q-75 -89 -206 -133.5t-318 -44.5q-188 0 -318.5 44.5t-206.5 133.5q-68 81 -97.5 195.5 t-29.5 355.5zM459 1806q0 57 43.5 99.5t101.5 42.5q60 0 101 -41.5t41 -100.5q0 -63 -40 -104t-102 -41q-60 0 -102.5 42t-42.5 103zM850 1806q0 57 42.5 99.5t101.5 42.5t101 -41.5t42 -100.5q0 -62 -41 -103.5t-102 -41.5t-102.5 42t-41.5 103z" />
<glyph unicode="&#xdd;" horiz-adv-x="1223" d="M-96 1464h458l197 -377q2 -3 6 -11q31 -59 43 -113q10 49 43 109q6 11 8 15l195 377h459l-512 -796v-668h-385v668zM438 1620l182 350h281l-309 -350h-154z" />
<glyph unicode="&#xde;" horiz-adv-x="1298" d="M156 0v1464h374v-223h43q244 0 343 -24t169 -82q81 -67 123.5 -168t42.5 -226q0 -133 -41.5 -231.5t-124.5 -161.5q-61 -47 -143.5 -67.5t-253.5 -20.5h-86h-72v-260h-374zM530 582h76q144 0 201 39t57 133q0 92 -55 131t-199 39h-80v-342z" />
<glyph unicode="&#xdf;" horiz-adv-x="1352" d="M137 0v1028q0 160 23.5 244t79.5 145q65 72 176 112t248 40q249 0 388.5 -103.5t139.5 -287.5q0 -116 -62.5 -193t-185.5 -113q158 -17 247 -123t89 -278q0 -236 -142 -365t-403 -129q-18 0 -55.5 1.5t-56.5 1.5v266q9 -1 20.5 -1.5t32.5 -0.5q123 0 186.5 63.5 t63.5 188.5q0 121 -68 184t-199 63q-4 0 -16.5 -1t-19.5 -1v226h8q119 0 178 45t59 137q0 75 -47.5 118.5t-130.5 43.5q-76 0 -124 -32t-62 -91q-9 -39 -13 -103t-4 -190v-94v-801h-350z" />
<glyph unicode="&#xe0;" horiz-adv-x="1352" d="M80 504q0 247 126.5 392.5t340.5 145.5q114 0 196.5 -48.5t141.5 -149.5v166h329v-1010h-327v164q-70 -105 -157.5 -154t-205.5 -49q-202 0 -323 147.5t-121 395.5zM387 1497h281l182 -350h-154zM432 506q0 -118 63 -186t171 -68q109 0 172 68t63 186t-63 187t-172 69 t-171.5 -68.5t-62.5 -187.5z" />
<glyph unicode="&#xe1;" horiz-adv-x="1352" d="M80 504q0 247 126.5 392.5t340.5 145.5q114 0 196.5 -48.5t141.5 -149.5v166h329v-1010h-327v164q-70 -105 -157.5 -154t-205.5 -49q-202 0 -323 147.5t-121 395.5zM432 506q0 -118 63 -186t171 -68q109 0 172 68t63 186t-63 187t-172 69t-171.5 -68.5t-62.5 -187.5z M502 1147l182 350h281l-309 -350h-154z" />
<glyph unicode="&#xe2;" horiz-adv-x="1352" d="M80 504q0 247 126.5 392.5t340.5 145.5q114 0 196.5 -48.5t141.5 -149.5v166h329v-1010h-327v164q-70 -105 -157.5 -154t-205.5 -49q-202 0 -323 147.5t-121 395.5zM354 1147l183 350h276l182 -350h-153l-166 180l-168 -180h-154zM432 506q0 -118 63 -186t171 -68 q109 0 172 68t63 186t-63 187t-172 69t-171.5 -68.5t-62.5 -187.5z" />
<glyph unicode="&#xe3;" horiz-adv-x="1352" d="M80 504q0 247 126.5 392.5t340.5 145.5q114 0 196.5 -48.5t141.5 -149.5v166h329v-1010h-327v164q-70 -105 -157.5 -154t-205.5 -49q-202 0 -323 147.5t-121 395.5zM344 1188q28 128 80.5 189t134.5 61q16 0 38 -4t52 -13l95 -26q12 -5 26 -7t31 -2q32 0 54.5 21t33.5 61 h119q-30 -129 -83 -189t-136 -60q-23 0 -41.5 2.5t-35.5 7.5l-91 26l-3 1q-52 14 -65 14q-33 0 -54.5 -19.5t-35.5 -62.5h-119zM432 506q0 -118 63 -186t171 -68q109 0 172 68t63 186t-63 187t-172 69t-171.5 -68.5t-62.5 -187.5z" />
<glyph unicode="&#xe4;" horiz-adv-x="1352" d="M80 504q0 247 126.5 392.5t340.5 145.5q114 0 196.5 -48.5t141.5 -149.5v166h329v-1010h-327v164q-70 -105 -157.5 -154t-205.5 -49q-202 0 -323 147.5t-121 395.5zM336 1333q0 57 43.5 99.5t101.5 42.5q60 0 101 -41.5t41 -100.5q0 -63 -40 -104t-102 -41 q-60 0 -102.5 42t-42.5 103zM432 506q0 -118 63 -186t171 -68q109 0 172 68t63 186t-63 187t-172 69t-171.5 -68.5t-62.5 -187.5zM727 1333q0 57 42.5 99.5t101.5 42.5t101 -41.5t42 -100.5q0 -62 -41 -103.5t-102 -41.5t-102.5 42t-41.5 103z" />
<glyph unicode="&#xe5;" horiz-adv-x="1352" d="M80 504q0 247 126.5 392.5t340.5 145.5q114 0 196.5 -48.5t141.5 -149.5v166h329v-1010h-327v164q-70 -105 -157.5 -154t-205.5 -49q-202 0 -323 147.5t-121 395.5zM418 1370q0 111 77 188.5t189 77.5q110 0 187 -77.5t77 -188.5t-77 -188.5t-187 -77.5q-112 0 -189 77 t-77 189zM432 506q0 -118 63 -186t171 -68q109 0 172 68t63 186t-63 187t-172 69t-171.5 -68.5t-62.5 -187.5zM571 1370q0 -46 33.5 -79.5t79.5 -33.5q47 0 79 33t32 80q0 48 -32 80.5t-79 32.5q-46 0 -79.5 -33.5t-33.5 -79.5z" />
<glyph unicode="&#xe6;" horiz-adv-x="1864" d="M66 303q0 156 102 250t270 94q88 0 159 -18.5t130 -57.5q0 5 1 14.5t1 14.5q0 95 -62.5 140.5t-191.5 45.5q-94 0 -180.5 -19.5t-151.5 -55.5l-2 262q99 35 190.5 52t178.5 17q127 0 213.5 -35.5t142.5 -111.5q65 75 151.5 111t203.5 36q256 0 404.5 -157.5t148.5 -433.5 v-17h-768q1 -117 60 -180.5t167 -63.5q81 0 137 30.5t84 88.5l268 -106q-50 -117 -171.5 -179.5t-301.5 -62.5q-145 0 -243 39t-158 121q-59 -75 -153.5 -113.5t-223.5 -38.5q-193 0 -299 88t-106 246zM401 317q0 -67 37.5 -102t110.5 -35q82 0 129 34.5t47 94.5t-43.5 94.5 t-118.5 34.5q-72 0 -117 -34t-45 -87zM1014 633h409q-10 86 -65.5 138t-136.5 52q-87 0 -138.5 -47.5t-68.5 -142.5z" />
<glyph unicode="&#xe7;" horiz-adv-x="944" d="M74 504q0 237 147.5 387.5t378.5 150.5q77 0 139 -15t117 -48v-301q-52 46 -100 67t-101 21q-106 0 -168.5 -70t-62.5 -190q0 -116 65 -185t175 -69q54 0 101.5 21.5t90.5 66.5v-309q-64 -36 -128 -53t-132 -17q-233 0 -377.5 149.5t-144.5 393.5zM309 -301 q80 -22 149.5 -33.5t121.5 -11.5q43 0 64.5 17.5t21.5 54.5q0 32 -28.5 47.5t-90.5 15.5q-21 0 -33 -0.5t-22 -1.5v213h114v-84h19q111 0 170 -49.5t59 -142.5q0 -100 -66 -154.5t-188 -54.5q-61 0 -134 11t-157 34v139z" />
<glyph unicode="&#xe8;" horiz-adv-x="1251" d="M74 494q0 236 159.5 392t403.5 156q251 0 396 -158t145 -433v-17h-768q1 -117 60 -180.5t167 -63.5q81 0 136.5 30.5t84.5 90.5l268 -108q-48 -116 -170 -179t-299 -63q-264 0 -423.5 146.5t-159.5 386.5zM338 1497h281l182 -350h-154zM418 635h409q-10 86 -65.5 138 t-136.5 52q-87 0 -138.5 -47.5t-68.5 -142.5z" />
<glyph unicode="&#xe9;" horiz-adv-x="1251" d="M74 494q0 236 159.5 392t403.5 156q251 0 396 -158t145 -433v-17h-768q1 -117 60 -180.5t167 -63.5q81 0 136.5 30.5t84.5 90.5l268 -108q-48 -116 -170 -179t-299 -63q-264 0 -423.5 146.5t-159.5 386.5zM418 635h409q-10 86 -65.5 138t-136.5 52q-87 0 -138.5 -47.5 t-68.5 -142.5zM453 1147l182 350h281l-309 -350h-154z" />
<glyph unicode="&#xea;" horiz-adv-x="1251" d="M74 494q0 236 159.5 392t403.5 156q251 0 396 -158t145 -433v-17h-768q1 -117 60 -180.5t167 -63.5q81 0 136.5 30.5t84.5 90.5l268 -108q-48 -116 -170 -179t-299 -63q-264 0 -423.5 146.5t-159.5 386.5zM305 1147l183 350h276l182 -350h-153l-166 180l-168 -180h-154z M418 635h409q-10 86 -65.5 138t-136.5 52q-87 0 -138.5 -47.5t-68.5 -142.5z" />
<glyph unicode="&#xeb;" horiz-adv-x="1251" d="M74 494q0 236 159.5 392t403.5 156q251 0 396 -158t145 -433v-17h-768q1 -117 60 -180.5t167 -63.5q81 0 136.5 30.5t84.5 90.5l268 -108q-48 -116 -170 -179t-299 -63q-264 0 -423.5 146.5t-159.5 386.5zM287 1333q0 57 43.5 99.5t101.5 42.5q60 0 101 -41.5t41 -100.5 q0 -63 -40 -104t-102 -41q-60 0 -102.5 42t-42.5 103zM418 635h409q-10 86 -65.5 138t-136.5 52q-87 0 -138.5 -47.5t-68.5 -142.5zM678 1333q0 57 42.5 99.5t101.5 42.5t101 -41.5t42 -100.5q0 -62 -41 -103.5t-102 -41.5t-102.5 42t-41.5 103z" />
<glyph unicode="&#xec;" horiz-adv-x="639" d="M30 1497h281l182 -350h-154zM141 0v1010h357v-1010h-357z" />
<glyph unicode="&#xed;" horiz-adv-x="639" d="M141 0v1010h357v-1010h-357zM145 1147l182 350h281l-309 -350h-154z" />
<glyph unicode="&#xee;" horiz-adv-x="639" d="M-3 1147l183 350h276l182 -350h-153l-166 180l-168 -180h-154zM141 0v1010h357v-1010h-357z" />
<glyph unicode="&#xef;" horiz-adv-x="639" d="M-21 1333q0 57 43.5 99.5t101.5 42.5q60 0 101 -41.5t41 -100.5q0 -63 -40 -104t-102 -41q-60 0 -102.5 42t-42.5 103zM141 0v1010h357v-1010h-357zM370 1333q0 57 42.5 99.5t101.5 42.5t101 -41.5t42 -100.5q0 -62 -41 -103.5t-102 -41.5t-102.5 42t-41.5 103z" />
<glyph unicode="&#xf0;" horiz-adv-x="1276" d="M74 465q0 106 41 199t123 167q70 66 161 101t193 35q61 0 116 -17t107 -51q-44 73 -98 136.5t-121 117.5l-297 -137l-70 127l242 106q-61 36 -97 56t-65 34l119 209q70 -30 147 -74t166 -104l314 146l71 -130l-262 -118q171 -160 254.5 -338t83.5 -381q0 -278 -149 -433 t-416 -155q-117 0 -218 37.5t-181 110.5q-81 72 -122.5 163t-41.5 193zM426 473q0 -99 56.5 -157t154.5 -58q97 0 154 58.5t57 156.5q0 100 -57 158.5t-154 58.5q-98 0 -154.5 -58.5t-56.5 -158.5z" />
<glyph unicode="&#xf1;" horiz-adv-x="1337" d="M131 0v1010h326v-205q71 123 164 180t223 57q98 0 174.5 -31.5t124.5 -90.5q40 -51 57 -124t17 -218v-578h-357v541q0 121 -39.5 176t-126.5 55q-111 0 -162 -82t-51 -266v-424h-350zM338 1188q28 128 80.5 189t134.5 61q16 0 38 -4t52 -13l95 -26q12 -5 26 -7t31 -2 q32 0 54.5 21t33.5 61h119q-30 -129 -83 -189t-136 -60q-23 0 -41.5 2.5t-35.5 7.5l-91 26l-3 1q-52 14 -65 14q-33 0 -54.5 -19.5t-35.5 -62.5h-119z" />
<glyph unicode="&#xf2;" horiz-adv-x="1276" d="M74 502q0 111 41.5 209t122.5 176q79 77 180.5 116t218.5 39t218 -39t181 -116q82 -79 124 -177t42 -208q0 -109 -42.5 -207t-123.5 -176q-82 -78 -183.5 -118t-215.5 -40q-116 0 -217.5 40t-181.5 118q-80 76 -122 174.5t-42 208.5zM350 1497h281l182 -350h-154z M426 502q0 -113 56 -177.5t155 -64.5q98 0 154.5 64.5t56.5 177.5t-57 178t-154 65q-98 0 -154.5 -65t-56.5 -178z" />
<glyph unicode="&#xf3;" horiz-adv-x="1276" d="M74 502q0 111 41.5 209t122.5 176q79 77 180.5 116t218.5 39t218 -39t181 -116q82 -79 124 -177t42 -208q0 -109 -42.5 -207t-123.5 -176q-82 -78 -183.5 -118t-215.5 -40q-116 0 -217.5 40t-181.5 118q-80 76 -122 174.5t-42 208.5zM426 502q0 -113 56 -177.5t155 -64.5 q98 0 154.5 64.5t56.5 177.5t-57 178t-154 65q-98 0 -154.5 -65t-56.5 -178zM465 1147l182 350h281l-309 -350h-154z" />
<glyph unicode="&#xf4;" horiz-adv-x="1276" d="M74 502q0 111 41.5 209t122.5 176q79 77 180.5 116t218.5 39t218 -39t181 -116q82 -79 124 -177t42 -208q0 -109 -42.5 -207t-123.5 -176q-82 -78 -183.5 -118t-215.5 -40q-116 0 -217.5 40t-181.5 118q-80 76 -122 174.5t-42 208.5zM317 1147l183 350h276l182 -350h-153 l-166 180l-168 -180h-154zM426 502q0 -113 56 -177.5t155 -64.5q98 0 154.5 64.5t56.5 177.5t-57 178t-154 65q-98 0 -154.5 -65t-56.5 -178z" />
<glyph unicode="&#xf5;" horiz-adv-x="1276" d="M74 502q0 111 41.5 209t122.5 176q79 77 180.5 116t218.5 39t218 -39t181 -116q82 -79 124 -177t42 -208q0 -109 -42.5 -207t-123.5 -176q-82 -78 -183.5 -118t-215.5 -40q-116 0 -217.5 40t-181.5 118q-80 76 -122 174.5t-42 208.5zM307 1188q28 128 80.5 189t134.5 61 q16 0 38 -4t52 -13l95 -26q12 -5 26 -7t31 -2q32 0 54.5 21t33.5 61h119q-30 -129 -83 -189t-136 -60q-23 0 -41.5 2.5t-35.5 7.5l-91 26l-3 1q-52 14 -65 14q-33 0 -54.5 -19.5t-35.5 -62.5h-119zM426 502q0 -113 56 -177.5t155 -64.5q98 0 154.5 64.5t56.5 177.5t-57 178 t-154 65q-98 0 -154.5 -65t-56.5 -178z" />
<glyph unicode="&#xf6;" horiz-adv-x="1276" d="M74 502q0 111 41.5 209t122.5 176q79 77 180.5 116t218.5 39t218 -39t181 -116q82 -79 124 -177t42 -208q0 -109 -42.5 -207t-123.5 -176q-82 -78 -183.5 -118t-215.5 -40q-116 0 -217.5 40t-181.5 118q-80 76 -122 174.5t-42 208.5zM299 1333q0 57 43.5 99.5t101.5 42.5 q60 0 101 -41.5t41 -100.5q0 -63 -40 -104t-102 -41q-60 0 -102.5 42t-42.5 103zM426 502q0 -113 56 -177.5t155 -64.5q98 0 154.5 64.5t56.5 177.5t-57 178t-154 65q-98 0 -154.5 -65t-56.5 -178zM690 1333q0 57 42.5 99.5t101.5 42.5t101 -41.5t42 -100.5 q0 -62 -41 -103.5t-102 -41.5t-102.5 42t-41.5 103z" />
<glyph unicode="&#xf7;" horiz-adv-x="1706" d="M254 496v231h1198v-231h-1198zM688 205q0 68 49 117t117 49t116 -48.5t48 -117.5q0 -68 -47.5 -116t-116.5 -48t-117.5 48t-48.5 116zM688 1016q0 68 49 117t117 49q67 0 115.5 -49t48.5 -117t-48.5 -116t-117.5 -48t-116.5 48t-47.5 116z" />
<glyph unicode="&#xf8;" horiz-adv-x="1276" d="M74 504q0 110 41.5 207.5t122.5 175.5q79 76 182 116.5t217 40.5q95 0 182 -27.5t162 -82.5l133 137l86 -76l-131 -139q65 -69 99 -160t34 -192q0 -110 -42.5 -208.5t-123.5 -174.5q-79 -77 -182 -117.5t-217 -40.5q-102 0 -188.5 27.5t-147.5 79.5l-117 -117l-84 84 l111 113q-70 84 -103.5 170.5t-33.5 183.5zM416 500q0 -47 5.5 -76t18.5 -51l336 344q-28 22 -61.5 32.5t-79.5 10.5q-99 0 -159 -71.5t-60 -188.5zM502 293q25 -23 60 -35t79 -12q101 0 161 70.5t60 189.5q0 32 -5.5 64.5t-16.5 64.5z" />
<glyph unicode="&#xf9;" horiz-adv-x="1292" d="M123 494v516h340v-539q0 -127 42 -183.5t136 -56.5q95 0 136.5 55.5t41.5 184.5v539h348v-516q0 -171 -27.5 -253.5t-92.5 -146.5q-67 -67 -167 -100t-235 -33q-134 0 -233.5 33t-169.5 100q-65 62 -92 145.5t-27 254.5zM358 1497h281l182 -350h-154z" />
<glyph unicode="&#xfa;" horiz-adv-x="1292" d="M123 494v516h340v-539q0 -127 42 -183.5t136 -56.5q95 0 136.5 55.5t41.5 184.5v539h348v-516q0 -171 -27.5 -253.5t-92.5 -146.5q-67 -67 -167 -100t-235 -33q-134 0 -233.5 33t-169.5 100q-65 62 -92 145.5t-27 254.5zM473 1147l182 350h281l-309 -350h-154z" />
<glyph unicode="&#xfb;" horiz-adv-x="1292" d="M123 494v516h340v-539q0 -127 42 -183.5t136 -56.5q95 0 136.5 55.5t41.5 184.5v539h348v-516q0 -171 -27.5 -253.5t-92.5 -146.5q-67 -67 -167 -100t-235 -33q-134 0 -233.5 33t-169.5 100q-65 62 -92 145.5t-27 254.5zM325 1147l183 350h276l182 -350h-153l-166 180 l-168 -180h-154z" />
<glyph unicode="&#xfc;" horiz-adv-x="1292" d="M123 494v516h340v-539q0 -127 42 -183.5t136 -56.5q95 0 136.5 55.5t41.5 184.5v539h348v-516q0 -171 -27.5 -253.5t-92.5 -146.5q-67 -67 -167 -100t-235 -33q-134 0 -233.5 33t-169.5 100q-65 62 -92 145.5t-27 254.5zM307 1333q0 57 43.5 99.5t101.5 42.5 q60 0 101 -41.5t41 -100.5q0 -63 -40 -104t-102 -41q-60 0 -102.5 42t-42.5 103zM698 1333q0 57 42.5 99.5t101.5 42.5t101 -41.5t42 -100.5q0 -62 -41 -103.5t-102 -41.5t-102.5 42t-41.5 103z" />
<glyph unicode="&#xfd;" horiz-adv-x="1090" d="M-47 1010h395l141 -365q18 -46 30 -85.5t18 -73.5q6 36 17.5 74.5t29.5 84.5l143 365h381l-635 -1456h-397l284 600zM371 1147l182 350h281l-309 -350h-154z" />
<glyph unicode="&#xfe;" horiz-adv-x="1352" d="M133 -446v1996h340v-540q0 -60 -3 -99t-9 -71q70 104 153 153t189 49q213 0 339 -145.5t126 -394.5q0 -242 -125.5 -391.5t-327.5 -149.5q-128 0 -208.5 47t-143.5 155q5 -33 7.5 -76t2.5 -103v-430h-340zM449 502q0 -118 61.5 -186t169.5 -68t170.5 68t62.5 186t-62 186 t-171 68q-108 0 -169.5 -68t-61.5 -186z" />
<glyph unicode="&#xff;" horiz-adv-x="1090" d="M-47 1010h395l141 -365q18 -46 30 -85.5t18 -73.5q6 36 17.5 74.5t29.5 84.5l143 365h381l-635 -1456h-397l284 600zM205 1333q0 57 43.5 99.5t101.5 42.5q60 0 101 -41.5t41 -100.5q0 -63 -40 -104t-102 -41q-60 0 -102.5 42t-42.5 103zM596 1333q0 57 42.5 99.5 t101.5 42.5t101 -41.5t42 -100.5q0 -62 -41 -103.5t-102 -41.5t-102.5 42t-41.5 103z" />
<glyph unicode="&#x152;" horiz-adv-x="2224" d="M94 731q0 164 58.5 312.5t164.5 252.5q105 104 237.5 155.5t297.5 51.5q143 0 255 -52t189 -155v168h861v-321h-508v-254h479v-314h-479v-247h508v-328h-861v199q-88 -122 -205 -180t-276 -58q-149 0 -271 50.5t-225 154.5q-112 114 -168.5 256t-56.5 309zM481 731 q0 -194 110.5 -318t285.5 -124q176 0 285.5 122t109.5 320t-110.5 321.5t-284.5 123.5q-171 0 -283.5 -127t-112.5 -318z" />
<glyph unicode="&#x153;" horiz-adv-x="2009" d="M74 492q0 237 157 394.5t390 157.5q130 0 227.5 -39.5t169.5 -121.5q62 82 154.5 121.5t220.5 39.5q253 0 398.5 -159t145.5 -439v-24h-765q1 -103 63 -163t166 -60q80 0 136 31t83 92l268 -111q-50 -120 -172.5 -185t-302.5 -65q-147 0 -244.5 39t-156.5 121 q-59 -83 -152.5 -121.5t-236.5 -38.5q-240 0 -394.5 149.5t-154.5 381.5zM426 502q0 -123 59 -193.5t162 -70.5q102 0 160.5 70t58.5 194t-58.5 195t-160.5 71t-161.5 -71.5t-59.5 -194.5zM1178 623h409q-10 90 -65.5 143t-137.5 53q-87 0 -139 -49t-67 -147z" />
<glyph unicode="&#x178;" horiz-adv-x="1223" d="M-96 1464h458l197 -377q2 -3 6 -11q31 -59 43 -113q10 49 43 109q6 11 8 15l195 377h459l-512 -796v-668h-385v668zM272 1806q0 57 43.5 99.5t101.5 42.5q60 0 101 -41.5t41 -100.5q0 -63 -40 -104t-102 -41q-60 0 -102.5 42t-42.5 103zM663 1806q0 57 42.5 99.5 t101.5 42.5t101 -41.5t42 -100.5q0 -62 -41 -103.5t-102 -41.5t-102.5 42t-41.5 103z" />
<glyph unicode="&#x2c6;" horiz-adv-x="1024" d="M190 1147l183 350h276l182 -350h-153l-166 180l-168 -180h-154z" />
<glyph unicode="&#x2dc;" horiz-adv-x="1024" d="M180 1188q28 128 80.5 189t134.5 61q16 0 38 -4t52 -13l95 -26q12 -5 26 -7t31 -2q32 0 54.5 21t33.5 61h119q-30 -129 -83 -189t-136 -60q-23 0 -41.5 2.5t-35.5 7.5l-91 26l-3 1q-52 14 -65 14q-33 0 -54.5 -19.5t-35.5 -62.5h-119z" />
<glyph unicode="&#x2000;" horiz-adv-x="986" />
<glyph unicode="&#x2001;" horiz-adv-x="1972" />
<glyph unicode="&#x2002;" horiz-adv-x="986" />
<glyph unicode="&#x2003;" horiz-adv-x="1972" />
<glyph unicode="&#x2004;" horiz-adv-x="657" />
<glyph unicode="&#x2005;" horiz-adv-x="493" />
<glyph unicode="&#x2006;" horiz-adv-x="328" />
<glyph unicode="&#x2007;" horiz-adv-x="328" />
<glyph unicode="&#x2008;" horiz-adv-x="246" />
<glyph unicode="&#x2009;" horiz-adv-x="394" />
<glyph unicode="&#x200a;" horiz-adv-x="109" />
<glyph unicode="&#x2010;" horiz-adv-x="934" d="M127 340v326h680v-326h-680z" />
<glyph unicode="&#x2011;" horiz-adv-x="934" d="M127 340v326h680v-326h-680z" />
<glyph unicode="&#x2012;" horiz-adv-x="934" d="M127 340v326h680v-326h-680z" />
<glyph unicode="&#x2013;" horiz-adv-x="1024" d="M0 367v272h1024v-272h-1024z" />
<glyph unicode="&#x2014;" horiz-adv-x="2048" d="M0 367v272h2048v-272h-2048z" />
<glyph unicode="&#x2018;" horiz-adv-x="639" d="M27 838l309 626h276l-211 -626h-374z" />
<glyph unicode="&#x2019;" horiz-adv-x="639" d="M27 838l213 626h372l-309 -626h-276z" />
<glyph unicode="&#x201a;" horiz-adv-x="639" d="M27 -295l213 627h372l-309 -627h-276z" />
<glyph unicode="&#x201c;" horiz-adv-x="1157" d="M27 838l309 626h276l-211 -626h-374zM545 838l309 626h276l-212 -626h-373z" />
<glyph unicode="&#x201d;" horiz-adv-x="1157" d="M27 838l213 626h372l-309 -626h-276zM545 838l211 626h374l-309 -626h-276z" />
<glyph unicode="&#x201e;" horiz-adv-x="1157" d="M27 -295l213 627h372l-309 -627h-276zM545 -295l211 627h374l-309 -627h-276z" />
<glyph unicode="&#x2022;" horiz-adv-x="1208" d="M307 762q0 123 87 209t210 86q122 0 208.5 -86.5t86.5 -208.5t-87.5 -209.5t-209.5 -87.5q-123 0 -209 87t-86 210z" />
<glyph unicode="&#x2026;" horiz-adv-x="2048" d="M142 164q0 85 57.5 143t142.5 58q87 0 145 -58t58 -143t-58.5 -144t-144.5 -59q-84 0 -142 59t-58 144zM824 164q0 85 57.5 143t142.5 58q87 0 145 -58t58 -143t-58.5 -144t-144.5 -59q-84 0 -142 59t-58 144zM1508 164q0 85 57.5 143t142.5 58q87 0 145 -58t58 -143 t-58.5 -144t-144.5 -59q-84 0 -142 59t-58 144z" />
<glyph unicode="&#x202f;" horiz-adv-x="394" />
<glyph unicode="&#x2039;" horiz-adv-x="639" d="M45 502l358 489l193 -139l-264 -350l264 -355l-193 -133z" />
<glyph unicode="&#x203a;" horiz-adv-x="639" d="M45 147l262 355l-262 350l191 139l360 -489l-360 -488z" />
<glyph unicode="&#x205f;" horiz-adv-x="493" />
<glyph unicode="&#x20ac;" d="M0 537l27 122l131 1q-1 11 -1.5 25t-0.5 40q0 11 2 43q1 15 2 25h-160l27 125h147q55 263 238.5 412t453.5 149q94 0 183.5 -27t167.5 -78v-346q-72 71 -152.5 107t-169.5 36q-123 0 -211 -66.5t-125 -186.5h498l-43 -125h-477q-3 -24 -5 -44.5t-2 -33.5q0 -15 0.5 -28 t1.5 -27l439 -1l-45 -122h-375q29 -124 121.5 -195.5t222.5 -71.5q80 0 159 32.5t171 103.5l-13 -351q-83 -46 -172 -70t-178 -24q-273 0 -456.5 153.5t-231.5 422.5h-174z" />
<glyph unicode="&#x2122;" horiz-adv-x="1706" d="M188 1337v127h502v-127h-164v-424h-174v424h-164zM797 913v551h223l113 -303l114 303h221v-551h-155v390l-146 -390h-65l-150 390v-390h-155z" />
<glyph unicode="&#xe000;" horiz-adv-x="1010" d="M0 0v1010h1010v-1010h-1010z" />
</font>
</defs>
</svg>
