<?xml version="1.0" standalone="no"?>
<!DOCTYPE svg PUBLIC "-//W3C//DTD SVG 1.1//EN" "http://www.w3.org/Graphics/SVG/1.1/DTD/svg11.dtd" >
<svg xmlns="http://www.w3.org/2000/svg">
<metadata></metadata>
<defs>
<font id="interstateregular" horiz-adv-x="1224" >
<font-face units-per-em="2048" ascent="1638" descent="-410" />
<missing-glyph horiz-adv-x="382" />
<glyph horiz-adv-x="2048" />
<glyph horiz-adv-x="2048" />
<glyph unicode="&#xd;" horiz-adv-x="382" />
<glyph unicode=" "  horiz-adv-x="382" />
<glyph unicode="&#x09;" horiz-adv-x="382" />
<glyph unicode="&#xa0;" horiz-adv-x="382" />
<glyph unicode="!" horiz-adv-x="413" d="M72 113q0 59 37.5 97t97.5 38q59 0 96 -38t37 -97t-37 -97.5t-96 -38.5t-97 38t-38 98zM96 745v689h221v-689l-36 -368h-148z" />
<glyph unicode="&#x22;" horiz-adv-x="835" d="M98 1434h252l-51 -670h-149zM485 1434h252l-51 -670h-149z" />
<glyph unicode="#" horiz-adv-x="935" d="M57 319v193h125v410h-125v192h125v320h207v-320h158v320h207v-320h125v-192h-125v-410h125v-193h-125v-319h-207v319h-158v-319h-207v319h-125zM389 512h158v410h-158v-410z" />
<glyph unicode="$" horiz-adv-x="704" d="M39 365l219 38q6 -66 14.5 -106.5t20.5 -63t27.5 -30.5t35.5 -8q47 0 66.5 27.5t19.5 99.5q0 49 -9 88t-29.5 76.5t-54.5 78.5t-83 94q-111 111 -164 214.5t-53 226.5q0 119 47 204t142 117v148h217v-146q92 -29 137 -108.5t61 -204.5l-217 -45q-12 106 -31.5 141 t-58.5 35q-41 0 -59.5 -27.5t-18.5 -95.5q0 -35 7.5 -65.5t24.5 -61t46 -66.5t72 -81q61 -63 107 -121.5t77 -119t46.5 -124t15.5 -137.5q0 -129 -54.5 -215t-150.5 -117v-145h-219v147q-92 33 -140.5 120t-60.5 233z" />
<glyph unicode="%" horiz-adv-x="1464" d="M61 1008q0 209 60.5 328.5t202.5 119.5q141 0 199.5 -117.5t58.5 -326.5t-60.5 -329t-202.5 -120q-141 0 -199.5 118t-58.5 327zM258 1012q0 -147 12.5 -211t53.5 -64t52 62t11 209t-12.5 210.5t-52.5 63.5q-41 0 -52.5 -61.5t-11.5 -208.5zM307 0l651 1434h199 l-651 -1434h-199zM883 422q0 209 60.5 328.5t201.5 119.5t199.5 -117.5t58.5 -326.5t-60.5 -329t-201.5 -120t-199.5 118t-58.5 327zM1079 426q0 -147 12.5 -210.5t53.5 -63.5t52 61.5t11 208.5t-12 210.5t-53 63.5t-52.5 -61.5t-11.5 -208.5z" />
<glyph unicode="&#x26;" horiz-adv-x="753" d="M41 348q0 119 42 235.5t126 221.5l-49 125q-29 74 -46.5 131t-17.5 117q0 129 75 203.5t200 74.5q61 0 106 -16.5t77 -48t54.5 -78.5t38.5 -107l-190 -88q-14 45 -25.5 73t-22 43t-21.5 20.5t-28 5.5q-57 0 -57 -78q0 -41 11.5 -84t33.5 -97l139 -354q8 39 17.5 84 t19.5 94l178 -43q-27 -129 -52 -232.5t-50 -189.5l141 -360h-209l-40 104q-43 -68 -91.5 -97.5t-107.5 -29.5q-139 0 -195.5 95.5t-56.5 275.5zM248 367q0 -190 65 -191q25 0 46.5 27.5t46.5 111.5l-111 277q-47 -111 -47 -225z" />
<glyph unicode="'" horiz-adv-x="452" d="M98 1434h256l-51 -670h-153z" />
<glyph unicode="(" horiz-adv-x="512" d="M57 618q0 469 277 848l139 -86q-49 -80 -85 -172t-57.5 -190t-31.5 -197.5t-10 -195.5q0 -199 42 -400.5t142 -363.5l-139 -86q-139 190 -208 401t-69 442z" />
<glyph unicode=")" horiz-adv-x="512" d="M39 -139q49 80 85 172t57.5 189t31.5 196.5t10 195.5q0 199 -42 401t-142 363l139 86q277 -378 277 -843q0 -471 -277 -848z" />
<glyph unicode="*" horiz-adv-x="731" d="M43 1044l223 80l-223 84l92 154l182 -158l-45 236h185l-45 -236l182 158l90 -154l-223 -84l223 -80l-90 -153l-182 153l45 -233h-185l45 233l-182 -153z" />
<glyph unicode="+" horiz-adv-x="731" d="M43 602v205h217v254h211v-254h217v-205h-217v-254h-211v254h-217z" />
<glyph unicode="," horiz-adv-x="419" d="M76 -215l28 457h236l-131 -457h-133z" />
<glyph unicode="-" horiz-adv-x="516" d="M66 641v217h385v-217h-385z" />
<glyph unicode="." horiz-adv-x="419" d="M76 115q0 59 39 99t98 40t98 -40t39 -99t-39 -98.5t-98 -39.5t-98 39t-39 99z" />
<glyph unicode="/" horiz-adv-x="567" d="M-23 -184l402 1802h211l-402 -1802h-211z" />
<glyph unicode="0" horiz-adv-x="757" d="M57 713q0 184 15.5 322.5t52.5 232.5t98.5 141t153.5 47t154.5 -47t99.5 -140t52 -230.5t15 -317.5q0 -184 -15 -322.5t-52 -232.5t-99.5 -141.5t-156.5 -47.5q-92 0 -152.5 46.5t-97.5 138.5t-52.5 230t-15.5 321zM287 721q0 -170 4 -275.5t15 -163t28.5 -77t44.5 -19.5 t44 19.5t27.5 76t15.5 160t5 271.5t-5 272.5t-16.5 162.5t-30 78.5t-44.5 20.5q-25 0 -42.5 -20.5t-27.5 -77.5t-14 -159.5t-4 -268.5z" />
<glyph unicode="1" horiz-adv-x="493" d="M27 1141v141q84 10 123.5 45t56.5 107h188v-1434h-227v1141h-141z" />
<glyph unicode="2" horiz-adv-x="706" d="M51 0q6 160 21.5 271.5t45 200.5t77 165t116.5 164q61 78 89 150.5t28 150.5t-13.5 112.5t-52.5 34.5q-41 0 -59 -43t-31 -159l-217 30q8 84 27.5 153.5t55.5 120t91.5 78t137.5 27.5q74 0 127 -26.5t86.5 -72.5t50 -110.5t16.5 -138.5q0 -106 -38 -206.5t-124 -213.5 q-55 -72 -92 -131t-59.5 -115.5t-33.5 -113t-13 -121.5h362v-207h-598z" />
<glyph unicode="3" horiz-adv-x="727" d="M49 354l217 29q8 -104 25.5 -151.5t64.5 -47.5q49 0 68.5 52.5t19.5 169.5q0 76 -6 126t-24.5 78.5t-49 40t-79.5 11.5h-47v200h53q41 0 68.5 12.5t44 41t22.5 77.5t6 123q0 70 -15.5 101.5t-60.5 31.5q-43 0 -60 -42t-32 -146l-211 29q10 82 30.5 149.5t56.5 115.5 t90.5 74.5t131.5 26.5q143 0 218 -93t75 -241q0 -160 -42 -238.5t-121 -107.5q37 -12 69.5 -32.5t56 -59.5t37 -101.5t13.5 -160.5q0 -209 -81 -327t-235 -118q-76 0 -130 28t-91 78t-56.5 118.5t-25.5 152.5z" />
<glyph unicode="4" horiz-adv-x="712" d="M23 340v152l391 942h194v-908h80v-190h-80v-336h-196v340h-389zM231 524q29 0 54.5 1t60.5 1h68v254q0 66 2 142t6 131q-14 -57 -41 -137t-53 -152l-23 -62q-20 -53 -37.5 -95t-36.5 -83z" />
<glyph unicode="5" horiz-adv-x="737" d="M61 342l218 29q10 -96 25 -141.5t63 -45.5q59 0 71.5 73t12.5 224q0 152 -18.5 221.5t-78.5 69.5q-41 0 -65.5 -26.5t-44.5 -79.5l-174 22l28 746h547v-205h-352l-14 -305q23 25 53 40t82 15q141 0 199.5 -123t58.5 -369q0 -119 -16.5 -213t-53.5 -160.5t-97.5 -101.5 t-148.5 -35q-72 0 -124 27t-87.5 75t-55 114.5t-28.5 148.5z" />
<glyph unicode="6" horiz-adv-x="727" d="M59 469q0 209 32 366.5t87 276.5t129 205t158 149l133 -168q-131 -90 -213 -219t-104 -276q25 35 60.5 58.5t82.5 23.5q63 0 111.5 -32t81 -90t49 -140.5t16.5 -180.5q0 -217 -83 -341t-239 -124q-145 0 -223 124t-78 368zM274 422q0 -125 25 -183.5t68 -58.5 q94 0 94 250q0 117 -20.5 185.5t-71.5 68.5q-53 0 -74 -65.5t-21 -196.5z" />
<glyph unicode="7" horiz-adv-x="702" d="M31 1227v207h618v-201q-90 -147 -142 -283.5t-79 -281t-34 -307t-7 -361.5h-221q0 147 8 302t36 311.5t80 311t142 302.5h-401z" />
<glyph unicode="8" horiz-adv-x="720" d="M53 426q0 145 37 226t96 132q-51 41 -85.5 112t-34.5 181q0 78 19 146.5t57 121t92.5 82t125.5 29.5q76 0 132.5 -31.5t93.5 -84t54 -120t17 -141.5q0 -111 -34.5 -178t-87.5 -113q61 -49 97 -133t36 -227q0 -229 -82 -340t-230 -111q-139 0 -221 113t-82 336zM272 434 q0 -139 23.5 -194.5t66.5 -55.5q39 0 63 53.5t24 192.5q0 135 -25 192.5t-66 57.5t-63.5 -58.5t-22.5 -187.5zM281 1075q0 -80 20.5 -133t58.5 -53q39 0 59.5 51t20.5 129q0 100 -21.5 142t-58.5 42t-58 -38.5t-21 -139.5z" />
<glyph unicode="9" horiz-adv-x="727" d="M45 991q0 217 83 341t239 124q145 0 224 -123.5t79 -367.5q0 -209 -33 -367t-88 -276.5t-129 -204.5t-158 -150l-133 168q133 90 214 219t103 277q-25 -35 -60.5 -58.5t-82.5 -23.5q-63 0 -111.5 31.5t-81 90t-49 140.5t-16.5 180zM266 1004q0 -117 21.5 -185.5 t70.5 -68.5q53 0 74 65.5t21 196.5q0 125 -25 183t-66 58q-96 0 -96 -249z" />
<glyph unicode=":" horiz-adv-x="419" d="M76 115q0 59 39 99t98 40t98 -40t39 -99t-39 -98.5t-98 -39.5t-98 39t-39 99zM76 961q0 59 39 98t98 39t98 -39t39 -98t-39 -99.5t-98 -40.5t-98 40t-39 100z" />
<glyph unicode=";" horiz-adv-x="419" d="M70 -215l28 457h236l-131 -457h-133zM76 961q0 59 39 98t98 39t98 -39t39 -98t-39 -99.5t-98 -40.5t-98 40t-39 100z" />
<glyph unicode="&#x3c;" horiz-adv-x="540" d="M47 602v205l430 401v-280l-256 -221l256 -224v-282z" />
<glyph unicode="=" horiz-adv-x="817" d="M100 397v213h617v-213h-617zM100 799v213h617v-213h-617z" />
<glyph unicode="&#x3e;" horiz-adv-x="540" d="M63 201v280l256 221l-256 224v282l431 -401v-205z" />
<glyph unicode="?" horiz-adv-x="669" d="M20 1133q29 152 104 237.5t216 85.5q147 0 220 -93.5t73 -240.5q0 -113 -32 -193.5t-97 -166.5q-35 -49 -56.5 -88t-34 -81t-16.5 -93t-4 -123h-200q0 90 5 156.5t20 121t40 102.5t66 103q49 68 71.5 124t22.5 126q0 139 -82 139q-47 0 -69.5 -40t-43.5 -134zM160 113 q0 59 36.5 97t96.5 38q59 0 97 -38t38 -97t-38 -97.5t-97 -38.5t-96 38t-37 98z" />
<glyph unicode="@" horiz-adv-x="989" d="M57 717q0 174 30 311t85 232.5t137 145.5t187 50q104 0 186 -52t137 -147.5t84 -227.5t29 -292q0 -123 -12.5 -203.5t-36 -130t-58 -69t-80.5 -19.5q-57 0 -93 21.5t-58 54.5q-35 -41 -70 -60.5t-78 -19.5q-154 0 -153 267q0 137 41 203.5t119 66.5q31 0 50 -6t42 -23 v105q0 51 -12.5 72.5t-51.5 21.5q-27 0 -51 -11.5t-59 -39.5l-56 98q39 37 88.5 60.5t100.5 23.5q84 0 127 -45t43 -160v-399q0 -123 65 -123q20 0 34.5 13.5t25 48t15.5 97t5 158.5q0 303 -86 457t-237 154q-166 0 -246 -163t-80 -468q0 -307 80 -471t252 -164 q47 0 88 16.5t74 40.5l51 -86q-43 -35 -99.5 -56.5t-119.5 -21.5q-104 0 -186.5 50.5t-137.5 145.5t-85 232.5t-30 311.5zM424 580q0 -74 14.5 -107t44.5 -33q20 0 34.5 10.5t27.5 24.5v223q-14 10 -25.5 15.5t-34.5 5.5q-35 0 -48 -31t-13 -108z" />
<glyph unicode="A" horiz-adv-x="751" d="M27 0l227 1434h246l227 -1434h-229l-39 315h-168l-37 -315h-227zM309 522h127l-33 262q-10 78 -19 162t-13 170q-4 -86 -12.5 -171t-18.5 -163z" />
<glyph unicode="B" horiz-adv-x="768" d="M92 0v1434h277q160 0 246.5 -92.5t86.5 -290.5q0 -119 -40.5 -192t-118.5 -114q78 -39 125 -112.5t47 -212.5q0 -199 -86 -309.5t-264 -110.5h-273zM313 195h49q68 0 95.5 51t27.5 172q0 127 -29.5 179t-101.5 52h-41v-454zM313 838h49q53 0 83 45.5t30 160.5 q0 111 -27.5 153t-87.5 42h-47v-401z" />
<glyph unicode="C" horiz-adv-x="759" d="M61 713q0 190 16.5 330.5t55.5 232.5t103.5 136t158.5 44q84 0 141.5 -31.5t93.5 -90t53 -138.5t22 -176l-226 -33q-10 143 -25.5 200.5t-60.5 57.5q-27 0 -45 -19.5t-29.5 -75.5t-16.5 -159.5t-5 -269.5q0 -168 5 -271.5t17.5 -162t32 -79t47.5 -20.5q18 0 31.5 10.5 t24 39t17.5 76.5t15 126l222 -32q-12 -102 -32 -182.5t-55.5 -135.5t-92 -84t-138.5 -29q-92 0 -154.5 43t-101.5 133.5t-56.5 228.5t-17.5 331z" />
<glyph unicode="D" horiz-adv-x="790" d="M92 0v1434h285q104 0 172.5 -48.5t108.5 -138.5t56.5 -222t16.5 -298q0 -371 -90 -549t-287 -178h-262zM319 199h35q35 0 61.5 21.5t44 78.5t27 159.5t9.5 266.5q0 158 -8.5 257t-25 154.5t-42 76t-62.5 20.5h-39v-1034z" />
<glyph unicode="E" horiz-adv-x="688" d="M92 0v1434h537v-213h-307v-359h235v-213h-235v-436h325v-213h-555z" />
<glyph unicode="F" horiz-adv-x="677" d="M92 0v1434h545v-213h-315v-359h237v-213h-237v-649h-230z" />
<glyph unicode="G" horiz-adv-x="782" d="M61 717q0 190 16.5 329.5t56.5 230.5t103.5 135t159.5 44q82 0 138.5 -30.5t92.5 -88t53 -136.5t24 -173l-226 -37q-10 139 -25.5 196.5t-58.5 57.5q-29 0 -47 -20.5t-29.5 -77.5t-16.5 -160.5t-5 -269.5q0 -154 4 -256.5t15.5 -162.5t32 -86t52.5 -26q51 0 73 49.5 t22 167.5v142h-103v200h324v-303q0 -94 -16.5 -179t-53.5 -148.5t-98.5 -100.5t-153.5 -37q-98 0 -161.5 47.5t-102.5 141.5t-54.5 231.5t-15.5 319.5z" />
<glyph unicode="H" horiz-adv-x="829" d="M92 0v1434h230v-564h188v564h229v-1434h-229v657h-188v-657h-230z" />
<glyph unicode="I" horiz-adv-x="421" d="M96 0v1434h230v-1434h-230z" />
<glyph unicode="J" horiz-adv-x="724" d="M23 358l219 45q4 -63 11 -104t17.5 -65.5t25.5 -35t38 -10.5q41 0 57.5 38t16.5 134v1074h231v-1055q0 -209 -78 -305.5t-231 -96.5q-82 0 -138.5 29t-92.5 80t-53 120.5t-23 151.5z" />
<glyph unicode="K" horiz-adv-x="757" d="M92 0v1434h227v-265q0 -80 -1 -154.5t-3 -140.5q8 33 18.5 73t23 81t25.5 81t24 71l88 254h235l-203 -533l207 -901h-237l-142 647l-35 -94v-553h-227z" />
<glyph unicode="L" horiz-adv-x="630" d="M92 0v1434h230v-1221h272v-213h-502z" />
<glyph unicode="M" horiz-adv-x="976" d="M92 0v1434h225l95 -437q23 -98 44 -210.5t31 -200.5q10 88 33 201.5t45 211.5l97 435h225v-1434h-205v375q0 131 3 254t7 233q-8 -43 -19 -101.5t-25.5 -122t-29 -128t-28.5 -119.5l-103 -434l-100 434q-12 51 -26.5 116.5t-29 130t-25.5 124t-19 100.5q2 -102 6 -231 t4 -256v-375h-205z" />
<glyph unicode="N" horiz-adv-x="831" d="M92 0v1434h207l113 -351q14 -43 31.5 -98t34 -110.5t30.5 -108.5t24 -94q0 37 -1 89t-2 108.5t-2 109.5t-1 94v361h213v-1434h-174l-139 440q-16 53 -34.5 114.5t-35 123t-32 116t-25.5 95.5q0 -39 1 -92.5t2 -111.5t2 -116.5t1 -105.5v-463h-213z" />
<glyph unicode="O" horiz-adv-x="790" d="M61 713q0 186 16.5 326.5t55.5 232.5t102.5 138t159.5 46q190 0 263 -184t73 -551q0 -188 -16.5 -327.5t-56.5 -231.5t-105.5 -138.5t-161.5 -46.5q-94 0 -157.5 45.5t-101.5 136.5t-54.5 229t-16.5 325zM297 721q0 -164 5 -268.5t17.5 -163t31 -80t44.5 -21.5 q27 0 46.5 20.5t30.5 79t16.5 160t5.5 265.5t-5.5 268t-17.5 162.5t-31.5 80t-46.5 21.5q-29 0 -47 -20.5t-29.5 -79t-15.5 -160.5t-4 -264z" />
<glyph unicode="P" horiz-adv-x="749" d="M92 0v1434h301q66 0 124 -20.5t102.5 -68t70 -125t25.5 -192.5t-26.5 -195.5t-72 -133t-106.5 -77t-131 -24.5h-60v-598h-227zM319 795h48q59 0 87.5 52t28.5 171q0 123 -25.5 172t-84.5 49h-54v-444z" />
<glyph unicode="Q" horiz-adv-x="790" d="M61 713q0 186 16.5 326.5t55.5 232.5t102.5 138t159.5 46q190 0 263 -184.5t73 -550.5q0 -385 -84 -565l86 -86l-135 -127l-57 77q-66 -43 -150 -43q-94 0 -157.5 45.5t-101.5 136.5t-54.5 229t-16.5 325zM297 721q0 -164 5 -269.5t17.5 -167t31 -85t44.5 -23.5h27 l-68 90l92 88l41 -41q4 59 5.5 156t1.5 244q0 164 -5.5 268t-17.5 162.5t-31.5 80t-46.5 21.5q-29 0 -47 -20.5t-29.5 -79t-15.5 -160.5t-4 -264z" />
<glyph unicode="R" horiz-adv-x="782" d="M92 0v1434h299q68 0 126 -19.5t102.5 -65.5t70 -122t25.5 -189q0 -125 -34 -210t-93 -132l141 -696h-233l-119 631h-58v-631h-227zM319 819h48q59 0 87.5 47t28.5 162q0 119 -25.5 165t-84.5 46h-54v-420z" />
<glyph unicode="S" horiz-adv-x="714" d="M45 365l219 38q6 -66 15.5 -107.5t21.5 -66t27.5 -34t33.5 -9.5q43 0 62.5 30t19.5 99q0 51 -9 91t-28.5 79t-52 80t-82.5 94q-111 111 -164 217.5t-53 229.5q0 76 18.5 139.5t55.5 110.5t92 73.5t129 26.5q76 0 129 -24.5t90 -69.5t57.5 -108.5t30.5 -143.5l-215 -45 q-12 106 -32.5 145t-59.5 39q-37 0 -55.5 -28.5t-18.5 -96.5q0 -37 7.5 -68.5t25 -63t45 -67.5t70.5 -81q61 -63 107.5 -122.5t77 -121t45 -126t14.5 -138.5q0 -80 -20.5 -145.5t-59.5 -112.5t-95.5 -74t-130.5 -27q-154 0 -227.5 101.5t-89.5 286.5z" />
<glyph unicode="T" horiz-adv-x="671" d="M29 1221v213h616v-213h-194v-1221h-230v1221h-192z" />
<glyph unicode="U" horiz-adv-x="823" d="M88 352v1082h229v-1084q0 -90 25 -126t72 -36q51 0 71.5 36t20.5 124v1086h229v-1067q0 -188 -78.5 -289t-246.5 -101q-156 0 -239 100.5t-83 274.5z" />
<glyph unicode="V" horiz-adv-x="743" d="M27 1434h233l84 -701q10 -92 18.5 -195.5t14.5 -183.5q4 80 11 183.5t18 197.5l75 699h236l-232 -1434h-227z" />
<glyph unicode="W" horiz-adv-x="987" d="M29 1434h211l47 -469q4 -43 8 -96.5t8 -110t7 -112.5t5 -107q4 51 9.5 107t10.5 112.5t10 110t9 96.5l52 469h176l53 -469q4 -43 9 -96.5t10 -110t10.5 -112.5t9.5 -107q2 51 5 107t7 112.5t8 110t8 96.5l46 469h213l-173 -1434h-192l-51 379q-8 55 -15.5 116.5 t-14.5 123t-12 119t-9 102.5q-4 -45 -9.5 -101.5t-11.5 -118t-13 -123t-16 -116.5l-53 -381h-192z" />
<glyph unicode="X" horiz-adv-x="710" d="M23 0l215 735l-203 699h233l39 -170q16 -70 29.5 -141.5t21.5 -143.5q10 72 23.5 143.5t30.5 139.5l39 172h225l-203 -689l217 -745h-233l-47 207q-18 84 -33 156.5t-23 138.5q-10 -63 -25.5 -137t-33.5 -160l-45 -205h-227z" />
<glyph unicode="Y" horiz-adv-x="753" d="M14 1434h250l60 -273q23 -102 38 -191t25 -169q8 80 22.5 169t34.5 191l56 273h239l-239 -828v-606h-232v596z" />
<glyph unicode="Z" horiz-adv-x="659" d="M53 0v197l240 768q10 31 22.5 68.5t23.5 74.5t22.5 68.5t17.5 52.5q-29 0 -70 -1t-86 -1h-149v207h530v-197l-237 -760q-10 -33 -22.5 -71.5t-24 -76.5t-22.5 -71t-17 -53q29 0 65.5 1t83.5 1h174v-207h-551z" />
<glyph unicode="[" horiz-adv-x="557" d="M92 -190v1624h391v-195h-174v-1235h174v-194h-391z" />
<glyph unicode="\" horiz-adv-x="567" d="M-23 1618h211l402 -1802h-211z" />
<glyph unicode="]" horiz-adv-x="557" d="M76 4h172v1235h-172v195h391v-1624h-391v194z" />
<glyph unicode="^" horiz-adv-x="704" d="M39 782l217 652h193l219 -652h-226l-92 406l-88 -406h-223z" />
<glyph unicode="_" horiz-adv-x="501" d="M0 -154h502v-192h-502v192z" />
<glyph unicode="`" horiz-adv-x="675" d="M102 1534h252l150 -328h-150z" />
<glyph unicode="a" horiz-adv-x="694" d="M39 332q0 178 60.5 269t185.5 91q41 0 69.5 -9t51.5 -24v129q0 59 -18.5 83t-63.5 24q-41 0 -78 -20.5t-84 -61.5l-90 160q57 53 130.5 89t151.5 36q137 0 206 -64.5t69 -222.5v-811h-223v51q-33 -37 -67 -55.5t-83 -18.5q-217 0 -217 355zM250 336q0 -90 18.5 -131 t63.5 -41q47 0 74 33v292q-16 10 -33 15.5t-45 5.5q-41 0 -59.5 -39t-18.5 -135z" />
<glyph unicode="b" horiz-adv-x="720" d="M72 0v1397l217 96v-469q25 31 61.5 52.5t85.5 21.5q68 0 112 -38t70.5 -108.5t37 -174t10.5 -232.5q0 -289 -55.5 -428.5t-176.5 -139.5q-41 0 -79 19.5t-66 50.5v-47h-217zM289 217q16 -16 34.5 -26.5t45.5 -10.5q20 0 35.5 15.5t24.5 55.5t13 108.5t4 177.5 q0 104 -4 173.5t-13 111.5t-24.5 59.5t-37.5 17.5q-23 0 -42.5 -10t-35.5 -27v-645z" />
<glyph unicode="c" horiz-adv-x="673" d="M51 530q0 154 19.5 261.5t57.5 176t96.5 99.5t137.5 31q66 0 113 -25.5t79 -71t50.5 -105.5t26.5 -128l-201 -55q-10 92 -24.5 137t-49.5 45q-55 0 -70.5 -87t-15.5 -273q0 -190 15.5 -272.5t72.5 -82.5q31 0 48.5 39t33.5 146l195 -62q-29 -160 -95.5 -243t-183.5 -83 q-70 0 -126 30t-96 95.5t-61.5 171t-21.5 256.5z" />
<glyph unicode="d" horiz-adv-x="720" d="M55 530q0 289 54.5 428.5t177.5 139.5q41 0 78.5 -19.5t66.5 -50.5v369l217 96v-1493h-217v51q-25 -31 -61.5 -52.5t-85.5 -21.5q-68 0 -112 38t-70.5 109t-37 174t-10.5 232zM274 539q0 -104 3.5 -174t12.5 -112t25.5 -59.5t40.5 -17.5q23 0 41.5 10.5t34.5 26.5v645 q-16 16 -34.5 26.5t-45.5 10.5q-23 0 -37 -15.5t-23 -55.5t-13.5 -108.5t-4.5 -176.5z" />
<glyph unicode="e" horiz-adv-x="690" d="M51 530q0 274 68.5 421t234.5 147q147 0 217 -143.5t70 -419.5v-66h-381q2 -84 8 -141.5t17.5 -92t29 -49t39.5 -14.5q35 0 52.5 30.5t39.5 114.5l189 -63q-18 -61 -42 -112.5t-56.5 -87.5t-78.5 -56.5t-112 -20.5q-80 0 -136 40t-92 113t-51.5 174.5t-15.5 225.5z M262 641h170q-6 272 -84 272q-41 0 -61.5 -60t-24.5 -212z" />
<glyph unicode="f" horiz-adv-x="468" d="M31 872v203h80v160q0 127 64.5 189.5t154.5 62.5q53 0 82.5 -2t58.5 -12v-199q-31 12 -76 12q-70 0 -69 -82v-129h116v-203h-116v-872h-215v872h-80z" />
<glyph unicode="g" horiz-adv-x="720" d="M55 530q0 289 54.5 428.5t177.5 139.5q41 0 78.5 -19.5t66.5 -50.5v47h217v-999q0 -115 -22.5 -196t-72.5 -136t-128 -88t-188 -51l-50 172q74 14 122 33.5t75 49t37 70.5t10 103v18q-25 -31 -61.5 -52.5t-85.5 -21.5q-68 0 -112 38t-70.5 109t-37 174t-10.5 232z M274 539q0 -104 3.5 -174t12.5 -112t25.5 -59.5t40.5 -17.5q23 0 41.5 10.5t34.5 26.5v645q-16 16 -34.5 26.5t-45.5 10.5q-23 0 -37 -15.5t-23 -55.5t-13.5 -108.5t-4.5 -176.5z" />
<glyph unicode="h" horiz-adv-x="714" d="M72 0v1397l217 96v-471q33 33 71.5 54.5t98.5 21.5q98 0 143 -59.5t45 -211.5v-827h-217v795q0 51 -11 76.5t-42 25.5q-27 0 -46.5 -9t-41.5 -26v-862h-217z" />
<glyph unicode="i" horiz-adv-x="372" d="M59 1356q0 55 37 93t90 38t90 -38t37 -93q0 -53 -36.5 -91t-90.5 -38q-53 0 -90 38t-37 91zM76 0v1075h219v-1075h-219z" />
<glyph unicode="j" horiz-adv-x="372" d="M-82 -221q49 10 80 22.5t48 33t23.5 50t6.5 76.5v1114h219v-1089q0 -106 -21.5 -174t-63.5 -109t-105.5 -62.5t-147.5 -35.5zM59 1356q0 55 37 93t90 38t90 -38t37 -93q0 -53 -36.5 -91t-90.5 -38q-53 0 -90 38t-37 91z" />
<glyph unicode="k" horiz-adv-x="694" d="M72 0v1397l217 96v-524q0 -74 -1 -157t-5 -142q8 27 22 66.5t30.5 81.5t33 83t28.5 70l45 104h224l-177 -362l187 -713h-225l-111 475l-51 -106v-369h-217z" />
<glyph unicode="l" horiz-adv-x="372" d="M76 0v1397l219 96v-1493h-219z" />
<glyph unicode="m" horiz-adv-x="1060" d="M72 0v1075h217v-53q29 31 67.5 53.5t98.5 22.5q66 0 101.5 -18.5t64.5 -63.5q43 41 89 61.5t99 20.5q96 0 141 -58.5t45 -205.5v-834h-217v799q0 49 -10 73.5t-41 24.5q-25 0 -45 -9t-41 -26v-862h-217v799q0 49 -10.5 73.5t-38.5 24.5q-27 0 -46.5 -9t-39.5 -26v-862 h-217z" />
<glyph unicode="n" horiz-adv-x="714" d="M72 0v1075h217v-53q33 33 71.5 54.5t98.5 21.5q98 0 143 -59.5t45 -211.5v-827h-217v795q0 51 -11 76.5t-42 25.5q-27 0 -46.5 -9t-41.5 -26v-862h-217z" />
<glyph unicode="o" horiz-adv-x="718" d="M51 532q0 123 13.5 227.5t48 179.5t95 117t157.5 42q86 0 144 -40t94 -114t50.5 -176t14.5 -227q0 -127 -14.5 -231.5t-50.5 -178.5t-96.5 -114t-150.5 -40q-84 0 -142 39t-94 112t-52.5 175.5t-16.5 228.5zM270 541q0 -88 2 -156t11.5 -114t28 -70.5t50.5 -24.5 q57 0 73 94.5t16 264.5q0 180 -16.5 272t-74.5 92q-59 0 -74.5 -93t-15.5 -265z" />
<glyph unicode="p" horiz-adv-x="720" d="M72 -395v1470h217v-51q25 31 61.5 52.5t85.5 21.5q68 0 112 -38t70.5 -108.5t37 -174t10.5 -232.5q0 -289 -55.5 -428.5t-176.5 -139.5q-41 0 -79 19.5t-66 50.5v-344zM289 217q16 -16 34.5 -26.5t45.5 -10.5q20 0 35.5 15.5t24.5 55.5t13 108.5t4 177.5q0 104 -4 173.5 t-13 111.5t-24.5 59.5t-37.5 17.5q-23 0 -42.5 -10t-35.5 -27v-645z" />
<glyph unicode="q" horiz-adv-x="720" d="M55 530q0 289 54.5 428.5t177.5 139.5q41 0 78.5 -19.5t66.5 -50.5v47h217v-1374l-217 -96v446q-25 -31 -61.5 -52.5t-85.5 -21.5q-68 0 -112 38t-70.5 109t-37 174t-10.5 232zM274 539q0 -104 3.5 -174t12.5 -112t25.5 -59.5t40.5 -17.5q23 0 41.5 10.5t34.5 26.5v645 q-16 16 -34.5 26.5t-45.5 10.5q-23 0 -37 -15.5t-23 -55.5t-13.5 -108.5t-4.5 -176.5z" />
<glyph unicode="r" horiz-adv-x="538" d="M72 0v1075h217v-53q29 35 62.5 55.5t76.5 20.5q39 0 57.5 -5.5t34.5 -15.5l-28 -235q-25 20 -49.5 29.5t-59.5 9.5q-57 0 -94 -41v-840h-217z" />
<glyph unicode="s" horiz-adv-x="643" d="M39 246l186 69q18 -76 40 -114.5t57 -38.5t55 22.5t20 63.5q0 33 -6 58.5t-20.5 49t-39 46t-61.5 51.5q-63 45 -106 88t-68.5 86t-36 88t-10.5 98q0 127 70.5 206t199.5 79q115 0 174.5 -64.5t92.5 -177.5l-185 -70q-16 59 -36.5 93t-51.5 34t-48 -21.5t-17 -55.5 q0 -29 6 -51.5t21.5 -44t41 -43t64.5 -50.5q68 -49 109.5 -94t66.5 -90t34 -93.5t9 -103.5q0 -139 -81 -214t-208 -75q-61 0 -106 19.5t-78 55.5t-53.5 85t-34.5 109z" />
<glyph unicode="t" horiz-adv-x="514" d="M27 872v203h79v322l218 96v-418h141v-203h-141v-602q0 -86 55 -86q29 0 49.5 7.5t46.5 23.5l-20 -203q-35 -16 -69 -25.5t-79 -9.5q-201 0 -201 242v653h-79z" />
<glyph unicode="u" horiz-adv-x="714" d="M66 248v827h217v-794q0 -51 12 -77t43 -26q27 0 46 9.5t42 25.5v862h217v-1075h-217v53q-33 -33 -72 -54.5t-98 -21.5q-98 0 -144 59.5t-46 211.5z" />
<glyph unicode="v" horiz-adv-x="679" d="M20 1075h226l41 -289q8 -55 16 -121.5t15.5 -137t13.5 -139.5t10 -124q2 55 8 124t13.5 139.5t15.5 137t16 121.5l41 289h223l-208 -1075h-222z" />
<glyph unicode="w" horiz-adv-x="946" d="M29 1075h202l15 -188q4 -49 9 -123t11 -151.5t10.5 -151.5t6.5 -121q2 47 10 121t17 152.5t18.5 151.5t15.5 120l27 190h209l26 -190q6 -47 15.5 -120t18.5 -151.5t15.5 -152.5t10.5 -121q2 47 7 121t11 152.5t11 152.5t10 121l14 188h199l-136 -1075h-217l-33 233 q-18 135 -33.5 276.5t-25.5 250.5q-10 -109 -26.5 -251t-34.5 -276l-33 -233h-213z" />
<glyph unicode="x" horiz-adv-x="675" d="M20 0l197 555l-178 520h223l12 -45q16 -59 34 -140t30 -147q10 66 28.5 147t34.5 140l13 45h223l-180 -514l196 -561h-225l-27 106q-8 31 -16 67t-16.5 75t-16.5 75.5t-14 69.5q-12 -66 -29.5 -146.5t-34.5 -140.5l-26 -106h-228z" />
<glyph unicode="y" horiz-adv-x="692" d="M20 1075h226l41 -289q8 -55 16 -123.5t16.5 -138t14.5 -137.5t10 -123q2 55 9 123t16.5 138.5t18.5 138t18 122.5l43 289h223l-305 -1454h-215l92 365z" />
<glyph unicode="z" horiz-adv-x="616" d="M41 0v180l211 504q23 51 47.5 107.5t40.5 91.5q-31 -2 -66.5 -2h-78.5h-125v194h491v-180l-209 -504q-20 -49 -45.5 -106.5t-44.5 -91.5q31 2 67 2h79h153v-195h-520z" />
<glyph unicode="{" horiz-adv-x="587" d="M23 518v195h53q41 0 68.5 34.5t27.5 131.5v178q0 100 17.5 175t60.5 124t114.5 73.5t180.5 26.5v-182q-49 -6 -79 -18.5t-47.5 -34t-23.5 -57.5t-6 -89v-139q0 -72 -6 -125t-23.5 -91t-48 -62.5t-78.5 -41.5q47 -16 78 -41.5t48.5 -63.5t23.5 -91t6 -125v-139 q0 -53 6 -89t23.5 -57.5t47.5 -34t79 -18.5v-182q-109 2 -180.5 26.5t-114.5 73.5t-60.5 124t-17.5 175v178q0 96 -27.5 131t-68.5 35h-53z" />
<glyph unicode="|" horiz-adv-x="425" d="M106 -379v2017h213v-2017h-213z" />
<glyph unicode="}" horiz-adv-x="587" d="M43 -43q49 6 79 18.5t47 34t23.5 57t6.5 89.5v139q0 72 6 125t23.5 91t48 62.5t77.5 40.5q-47 16 -77.5 42t-48 64t-23.5 91t-6 125v139q0 53 -6.5 89t-23.5 57.5t-47 34t-79 18.5v182q109 -2 180.5 -26.5t114.5 -73.5t60.5 -124t17.5 -175v-178q0 -96 27.5 -131 t68.5 -35h53v-195h-53q-41 0 -68.5 -34.5t-27.5 -131.5v-178q0 -100 -17.5 -175t-60.5 -124t-114.5 -73.5t-180.5 -26.5v182z" />
<glyph unicode="~" horiz-adv-x="720" d="M35 645q29 143 79 209t132 66q57 0 90 -21.5t74 -64.5q18 -20 30.5 -29.5t24.5 -9.5q8 0 15 3t14.5 16t15.5 39t18 71l158 -35q-29 -143 -79 -210t-132 -67q-55 0 -89 21.5t-75 66.5q-18 20 -29.5 29.5t-25.5 9.5q-10 0 -16.5 -3t-13.5 -16t-14 -40t-19 -72z" />
<glyph unicode="&#xa1;" horiz-adv-x="413" d="M74 1321q0 59 36.5 97t96.5 38q59 0 97 -38t38 -97t-38 -97t-97 -38t-96 38t-37 97zM96 0v688l37 369h148l36 -369v-688h-221z" />
<glyph unicode="&#xa2;" horiz-adv-x="673" d="M51 721q0 244 47 374t146 171v196h217v-192q78 -35 116.5 -119t53.5 -193l-201 -55q-10 92 -24.5 137t-49.5 45q-55 0 -70.5 -87t-15.5 -273q0 -190 15.5 -272t72.5 -82q31 0 48.5 39t33.5 145l195 -61q-20 -121 -62.5 -197t-111.5 -109v-211h-217v213q-92 41 -142.5 167 t-50.5 364z" />
<glyph unicode="&#xa3;" horiz-adv-x="739" d="M63 0v203q25 45 45.5 86t35 84t22.5 92t12 108h-102v185h86q-6 29 -16.5 59.5t-22.5 63.5q-18 47 -32.5 103t-14.5 124q0 72 18.5 135.5t55 110.5t93 74.5t134.5 27.5q141 0 214 -91t97 -271l-213 -35q-14 115 -36.5 158t-67.5 43t-59.5 -38t-14.5 -102q0 -47 9 -99 t24 -91q14 -39 26.5 -82t22.5 -90h168v-185h-162q-4 -121 -31.5 -203.5t-68.5 -164.5h393v-205h-615z" />
<glyph unicode="&#xa4;" d="M20 719l295 242q33 23 56 10q27 -18 12 -60l-29 -96h162v330l-96 -31q-25 -6 -37 -3t-23 15q-12 25 11 56l241 295l242 -295q25 -31 10 -56q-18 -25 -57 -12l-96 31v-330h161l-30 96q-10 41 12 60q25 12 55 -10l295 -242l-295 -242q-31 -25 -55 -12q-23 20 -12 59l30 97 h-161v-332l96 30q41 10 57 -12q14 -25 -10 -55l-242 -295l-241 295q-23 31 -11 55q10 12 22.5 15.5t37.5 -3.5l96 -30v332h-162l29 -97q8 -23 5 -36t-17 -23q-25 -14 -56 12z" />
<glyph unicode="&#xa5;" horiz-adv-x="743" d="M14 1434h250l60 -273q18 -88 34.5 -184t22.5 -176q4 80 19.5 177t31.5 183l55 273h242l-242 -848v-146h170v-200h-170v-240h-219v240h-170v200h170v135z" />
<glyph unicode="&#xa6;" d="M20 719l295 242q33 23 56 10q27 -18 12 -60l-29 -96h162v330l-96 -31q-25 -6 -37 -3t-23 15q-12 25 11 56l241 295l242 -295q25 -31 10 -56q-18 -25 -57 -12l-96 31v-330h161l-30 96q-10 41 12 60q25 12 55 -10l295 -242l-295 -242q-31 -25 -55 -12q-23 20 -12 59l30 97 h-161v-332l96 30q41 10 57 -12q14 -25 -10 -55l-242 -295l-241 295q-23 31 -11 55q10 12 22.5 15.5t37.5 -3.5l96 -30v332h-162l29 -97q8 -23 5 -36t-17 -23q-25 -14 -56 12z" />
<glyph unicode="&#xa7;" horiz-adv-x="788" d="M63 571q0 98 33 176t86 138q-35 47 -56.5 105.5t-21.5 135.5q0 143 74 236.5t221 93.5q135 0 208 -86t100 -266l-213 -33q-18 102 -38 145.5t-63 43.5q-41 0 -59.5 -32t-18.5 -89q0 -63 28 -110.5t106 -94.5q57 -37 108 -72t89 -78t59.5 -99t21.5 -136q0 -98 -34 -176 t-87 -137q37 -47 58.5 -105.5t21.5 -136.5q0 -72 -18.5 -132.5t-55.5 -104.5t-92 -68.5t-129 -24.5q-135 0 -208.5 86t-98.5 266l213 33q16 -102 36.5 -145t63.5 -43q41 0 58.5 31.5t17.5 89.5q0 63 -27.5 110t-103.5 94q-57 37 -108.5 72t-89.5 78t-59.5 99.5t-21.5 135.5z M274 596q0 -82 42 -130t120 -93q10 -6 16.5 -11.5t14.5 -9.5q47 76 47 172q0 82 -41 130t-119 94q-20 12 -32 18q-47 -72 -48 -170z" />
<glyph unicode="&#xa8;" horiz-adv-x="675" d="M51 1333q0 51 37 88t90 37q51 0 88 -37t37 -88q0 -53 -37 -90t-88 -37q-53 0 -90 37t-37 90zM373 1333q0 51 36.5 88t90.5 37q51 0 88 -37t37 -88q0 -53 -37 -90t-88 -37q-53 0 -90 37t-37 90z" />
<glyph unicode="&#xa9;" horiz-adv-x="989" d="M57 717q0 166 28 302t82 233.5t136 150.5t191 53t190.5 -53t137 -150.5t83 -233.5t27.5 -302t-27.5 -302t-83 -233.5t-137.5 -151t-190 -53.5q-109 0 -191 53.5t-136 151t-82 233.5t-28 302zM170 717q0 -139 18.5 -255t57.5 -200t100.5 -131t147.5 -47t148.5 47t101 131 t57 200t18.5 255t-18.5 254.5t-57 199.5t-101 131.5t-148.5 47.5t-147.5 -47.5t-100.5 -131.5t-57.5 -199.5t-18.5 -254.5zM301 719q0 219 45 318.5t148 99.5q94 0 132 -66.5t48 -179.5l-133 -23q-10 86 -18.5 117t-30.5 31q-16 0 -25.5 -13.5t-15 -47t-7.5 -90t-2 -144.5 q0 -90 2 -147.5t8.5 -90t16.5 -45t27 -12.5q20 0 30.5 26.5t18.5 118.5l131 -26q-16 -123 -55 -183.5t-129 -60.5q-102 0 -146.5 98.5t-44.5 319.5z" />
<glyph unicode="&#xaa;" horiz-adv-x="628" d="M70 844q0 141 49 215t149 74q33 0 55.5 -7.5t38.5 -17.5v100q0 45 -13 63.5t-48 18.5t-64.5 -16.5t-68.5 -48.5l-74 129q47 43 108.5 72.5t127.5 29.5q106 0 160.5 -51t54.5 -178v-649h-183v36q-25 -29 -51 -42t-67 -13q-174 0 -174 285zM244 846q0 -72 14 -104.5 t49 -32.5q33 0 55 24v236q-12 8 -24 12t-35 4q-33 0 -46 -31.5t-13 -107.5z" />
<glyph unicode="&#xab;" horiz-adv-x="870" d="M27 537l229 538h209l-223 -536l223 -539h-209zM379 537l229 538h209l-223 -536l223 -539h-209z" />
<glyph unicode="&#xac;" horiz-adv-x="759" d="M45 616v203h361l-29 92q-12 43 12 60q25 14 53 -10l297 -242l-297 -242q-29 -27 -53 -12q-14 10 -16 23.5t4 35.5l29 92h-361z" />
<glyph unicode="&#xad;" horiz-adv-x="516" d="M66 641v217h385v-217h-385z" />
<glyph unicode="&#xae;" horiz-adv-x="989" d="M57 717q0 166 28 302t82 233.5t136 150.5t191 53t190.5 -53t137 -150.5t83 -233.5t27.5 -302t-27.5 -302t-83 -233.5t-137.5 -151t-190 -53.5q-109 0 -191 53.5t-136 151t-82 233.5t-28 302zM170 717q0 -139 18.5 -255t57.5 -200t100.5 -131t147.5 -47t148.5 47t101 131 t57 200t18.5 255t-18.5 254.5t-57 199.5t-101 131.5t-148.5 47.5t-147.5 -47.5t-100.5 -131.5t-57.5 -199.5t-18.5 -254.5zM326 330v811h172q78 0 134 -51.5t56 -171.5q0 -68 -19.5 -115t-54.5 -76l82 -397h-139l-70 356q-4 -2 -13 -2h-13v-354h-135zM461 793h20 q68 -1 68 120q0 63 -15.5 90t-52.5 27h-20v-237z" />
<glyph unicode="&#xaf;" horiz-adv-x="675" d="M80 1243v162h516v-162h-516z" />
<glyph unicode="&#xb0;" horiz-adv-x="718" d="M55 1145q0 66 22.5 122t63.5 98t96.5 66.5t122.5 24.5q68 0 123.5 -24.5t96.5 -66.5t63.5 -98t22.5 -122q0 -68 -22.5 -125t-63.5 -99t-96.5 -67t-123.5 -25t-123 25t-96 67t-63.5 99t-22.5 125zM211 1145q0 -72 42 -120t107 -48q66 0 108 48t42 120t-42 117t-108 45 t-107.5 -45t-41.5 -117z" />
<glyph unicode="&#xb1;" d="M20 719l295 242q33 23 56 10q27 -18 12 -60l-29 -96h162v330l-96 -31q-25 -6 -37 -3t-23 15q-12 25 11 56l241 295l242 -295q25 -31 10 -56q-18 -25 -57 -12l-96 31v-330h161l-30 96q-10 41 12 60q25 12 55 -10l295 -242l-295 -242q-31 -25 -55 -12q-23 20 -12 59l30 97 h-161v-332l96 30q41 10 57 -12q14 -25 -10 -55l-242 -295l-241 295q-23 31 -11 55q10 12 22.5 15.5t37.5 -3.5l96 -30v332h-162l29 -97q8 -23 5 -36t-17 -23q-25 -14 -56 12z" />
<glyph unicode="&#xb2;" d="M20 719l295 242q33 23 56 10q27 -18 12 -60l-29 -96h162v330l-96 -31q-25 -6 -37 -3t-23 15q-12 25 11 56l241 295l242 -295q25 -31 10 -56q-18 -25 -57 -12l-96 31v-330h161l-30 96q-10 41 12 60q25 12 55 -10l295 -242l-295 -242q-31 -25 -55 -12q-23 20 -12 59l30 97 h-161v-332l96 30q41 10 57 -12q14 -25 -10 -55l-242 -295l-241 295q-23 31 -11 55q10 12 22.5 15.5t37.5 -3.5l96 -30v332h-162l29 -97q8 -23 5 -36t-17 -23q-25 -14 -56 12z" />
<glyph unicode="&#xb3;" d="M20 719l295 242q33 23 56 10q27 -18 12 -60l-29 -96h162v330l-96 -31q-25 -6 -37 -3t-23 15q-12 25 11 56l241 295l242 -295q25 -31 10 -56q-18 -25 -57 -12l-96 31v-330h161l-30 96q-10 41 12 60q25 12 55 -10l295 -242l-295 -242q-31 -25 -55 -12q-23 20 -12 59l30 97 h-161v-332l96 30q41 10 57 -12q14 -25 -10 -55l-242 -295l-241 295q-23 31 -11 55q10 12 22.5 15.5t37.5 -3.5l96 -30v332h-162l29 -97q8 -23 5 -36t-17 -23q-25 -14 -56 12z" />
<glyph unicode="&#xb4;" horiz-adv-x="675" d="M172 1206l150 328h251l-251 -328h-150z" />
<glyph unicode="&#xb5;" horiz-adv-x="1095" d="M20 719l295 242q33 23 56 10q27 -18 12 -60l-27 -92h383l-28 92q-10 41 12 60q27 12 55 -10l297 -242l-297 -242q-29 -27 -55 -12q-12 10 -15 23.5t3 35.5l28 92h-383l27 -92q8 -23 5 -36t-17 -23q-25 -14 -56 12z" />
<glyph unicode="&#xb6;" horiz-adv-x="1005" d="M55 1034q0 98 30 173t81 125t119.5 76t144.5 26h479v-1813h-176v1655h-110v-1655h-174v1010h-33q-76 0 -141.5 25.5t-114.5 75.5t-77 126t-28 176z" />
<glyph unicode="&#xb7;" horiz-adv-x="419" d="M76 752q0 59 39 99t98 40t98 -40t39 -99t-39 -98.5t-98 -39.5t-98 39t-39 99z" />
<glyph unicode="&#xb8;" horiz-adv-x="675" d="M143 -334l39 68q39 -23 68 -34t61 -11q35 0 56.5 21.5t21.5 56.5q0 33 -15.5 46t-35.5 13q-35 0 -59 -23l-68 39l57 158h86l-37 -102q14 8 34 13t46 5q47 0 85 -37.5t38 -109.5q0 -86 -56 -125t-136 -39q-49 0 -98.5 17.5t-86.5 43.5z" />
<glyph unicode="&#xb9;" d="M20 719l295 242q33 23 56 10q27 -18 12 -60l-29 -96h162v330l-96 -31q-25 -6 -37 -3t-23 15q-12 25 11 56l241 295l242 -295q25 -31 10 -56q-18 -25 -57 -12l-96 31v-330h161l-30 96q-10 41 12 60q25 12 55 -10l295 -242l-295 -242q-31 -25 -55 -12q-23 20 -12 59l30 97 h-161v-332l96 30q41 10 57 -12q14 -25 -10 -55l-242 -295l-241 295q-23 31 -11 55q10 12 22.5 15.5t37.5 -3.5l96 -30v332h-162l29 -97q8 -23 5 -36t-17 -23q-25 -14 -56 12z" />
<glyph unicode="&#xba;" horiz-adv-x="649" d="M76 1004q0 98 11 182t40 143.5t77 93t124 33.5q68 0 114.5 -31.5t75.5 -90t42 -140.5t13 -182q0 -102 -13 -186.5t-43 -142.5t-78 -90t-120 -32q-66 0 -112.5 31t-75.5 89t-42 139t-13 184zM256 1012q0 -141 10 -217t60 -76q45 0 56 76t11 211q0 143 -13 217.5t-56 74.5 q-45 0 -56.5 -75.5t-11.5 -210.5z" />
<glyph unicode="&#xbb;" horiz-adv-x="870" d="M53 0l223 537l-223 538h209l230 -536l-230 -539h-209zM406 0l223 537l-223 538h208l230 -536l-230 -539h-208z" />
<glyph unicode="&#xbc;" d="M20 719l295 242q33 23 56 10q27 -18 12 -60l-29 -96h162v330l-96 -31q-25 -6 -37 -3t-23 15q-12 25 11 56l241 295l242 -295q25 -31 10 -56q-18 -25 -57 -12l-96 31v-330h161l-30 96q-10 41 12 60q25 12 55 -10l295 -242l-295 -242q-31 -25 -55 -12q-23 20 -12 59l30 97 h-161v-332l96 30q41 10 57 -12q14 -25 -10 -55l-242 -295l-241 295q-23 31 -11 55q10 12 22.5 15.5t37.5 -3.5l96 -30v332h-162l29 -97q8 -23 5 -36t-17 -23q-25 -14 -56 12z" />
<glyph unicode="&#xbd;" d="M20 719l295 242q33 23 56 10q27 -18 12 -60l-29 -96h162v330l-96 -31q-25 -6 -37 -3t-23 15q-12 25 11 56l241 295l242 -295q25 -31 10 -56q-18 -25 -57 -12l-96 31v-330h161l-30 96q-10 41 12 60q25 12 55 -10l295 -242l-295 -242q-31 -25 -55 -12q-23 20 -12 59l30 97 h-161v-332l96 30q41 10 57 -12q14 -25 -10 -55l-242 -295l-241 295q-23 31 -11 55q10 12 22.5 15.5t37.5 -3.5l96 -30v332h-162l29 -97q8 -23 5 -36t-17 -23q-25 -14 -56 12z" />
<glyph unicode="&#xbe;" d="M20 719l295 242q33 23 56 10q27 -18 12 -60l-29 -96h162v330l-96 -31q-25 -6 -37 -3t-23 15q-12 25 11 56l241 295l242 -295q25 -31 10 -56q-18 -25 -57 -12l-96 31v-330h161l-30 96q-10 41 12 60q25 12 55 -10l295 -242l-295 -242q-31 -25 -55 -12q-23 20 -12 59l30 97 h-161v-332l96 30q41 10 57 -12q14 -25 -10 -55l-242 -295l-241 295q-23 31 -11 55q10 12 22.5 15.5t37.5 -3.5l96 -30v332h-162l29 -97q8 -23 5 -36t-17 -23q-25 -14 -56 12z" />
<glyph unicode="&#xbf;" horiz-adv-x="669" d="M37 311q0 113 31.5 194t97.5 167q35 49 56.5 88t33.5 81t16 93t4 123h201q0 -90 -5 -156.5t-20.5 -121t-41 -102.5t-64.5 -104q-49 -68 -71.5 -124t-22.5 -125q0 -139 82 -140q25 0 41 9.5t28.5 30t22.5 54t20 80.5l203 -57q-29 -152 -103.5 -238t-215.5 -86 q-147 0 -220 93.5t-73 240.5zM242 1321q0 59 37.5 97t97.5 38q59 0 96 -38t37 -97t-37 -97t-96 -38t-97 38t-38 97z" />
<glyph unicode="&#xc0;" horiz-adv-x="751" d="M27 0l227 1434h246l227 -1434h-229l-39 315h-168l-37 -315h-227zM59 1841h252l150 -328h-150zM309 522h127l-33 262q-10 78 -19 162t-13 170q-4 -86 -12.5 -171t-18.5 -163z" />
<glyph unicode="&#xc1;" horiz-adv-x="751" d="M27 0l227 1434h246l227 -1434h-229l-39 315h-168l-37 -315h-227zM293 1513l150 328h251l-251 -328h-150zM309 522h127l-33 262q-10 78 -19 162t-13 170q-4 -86 -12.5 -171t-18.5 -163z" />
<glyph unicode="&#xc2;" horiz-adv-x="751" d="M27 0l227 1434h246l227 -1434h-229l-39 315h-168l-37 -315h-227zM119 1495l178 328h160l178 -328h-158l-102 160l-103 -160h-153zM309 522h127l-33 262q-10 78 -19 162t-13 170q-4 -86 -12.5 -171t-18.5 -163z" />
<glyph unicode="&#xc3;" horiz-adv-x="751" d="M27 0l227 1434h246l227 -1434h-229l-39 315h-168l-37 -315h-227zM82 1517q0 139 50 199.5t120 60.5q41 0 72.5 -13t68.5 -42q31 -27 48.5 -38t33.5 -11q23 0 35 20.5t16 77.5h146q0 -139 -50.5 -199.5t-119.5 -60.5q-41 0 -73 13.5t-68 42.5q-31 27 -47.5 38t-34.5 11 q-23 0 -35 -19.5t-17 -79.5h-145zM309 522h127l-33 262q-10 78 -19 162t-13 170q-4 -86 -12.5 -171t-18.5 -163z" />
<glyph unicode="&#xc4;" horiz-adv-x="751" d="M27 0l227 1434h246l227 -1434h-229l-39 315h-168l-37 -315h-227zM90 1640q0 51 37 88t90 37q51 0 88 -37t37 -88q0 -53 -37 -90t-88 -37q-53 0 -90 37t-37 90zM309 522h127l-33 262q-10 78 -19 162t-13 170q-4 -86 -12.5 -171t-18.5 -163zM412 1640q0 51 36.5 88t90.5 37 q51 0 88 -37t37 -88q0 -53 -37 -90t-88 -37q-53 0 -90 37t-37 90z" />
<glyph unicode="&#xc5;" horiz-adv-x="751" d="M27 0l213 1339q-68 57 -68 156q0 88 57.5 146.5t147.5 58.5t147.5 -58.5t57.5 -146.5q0 -98 -68 -156l213 -1339h-229l-39 315h-168l-37 -315h-227zM287 1495q0 -41 25.5 -68.5t64.5 -27.5t64.5 27.5t25.5 68.5t-25.5 67.5t-64.5 26.5t-64.5 -26.5t-25.5 -67.5zM309 522 h127l-33 262q-10 78 -19 162t-13 170q-4 -86 -12.5 -171t-18.5 -163z" />
<glyph unicode="&#xc6;" horiz-adv-x="1069" d="M12 0l342 1434h656v-213h-308v-359h236v-213h-236v-436h326v-213h-545v315h-178l-67 -315h-226zM348 522h135v436q0 66 1 135.5t3 112.5q-10 -53 -24 -125.5t-29 -138.5z" />
<glyph unicode="&#xc7;" horiz-adv-x="759" d="M61 713q0 190 16.5 330.5t55.5 232.5t103.5 136t158.5 44q84 0 141.5 -31.5t93.5 -90t53 -138.5t22 -176l-226 -33q-8 137 -24.5 197.5t-61.5 60.5q-27 0 -45 -19.5t-29.5 -75.5t-16.5 -159.5t-5 -269.5q0 -168 5 -271.5t17.5 -162t32 -79t47.5 -20.5q18 0 32.5 11.5 t25 40t17.5 77t13 123.5l222 -32q-10 -98 -28.5 -176t-52.5 -133.5t-85 -86t-127 -35.5l-27 -79q29 18 78 18q47 0 85 -38t38 -109q0 -86 -56.5 -125t-134.5 -39q-51 0 -100 17.5t-86 43.5l39 68q39 -23 67.5 -34t61.5 -11q37 0 57.5 21.5t20.5 56.5q0 33 -14.5 46t-36.5 13 q-35 0 -60 -23l-65 39l49 140q-150 27 -210.5 203.5t-60.5 527.5z" />
<glyph unicode="&#xc8;" horiz-adv-x="688" d="M61 1841h252l150 -328h-150zM92 0v1434h537v-213h-307v-359h235v-213h-235v-436h325v-213h-555z" />
<glyph unicode="&#xc9;" horiz-adv-x="688" d="M92 0v1434h537v-213h-307v-359h235v-213h-235v-436h325v-213h-555zM254 1513l150 328h251l-251 -328h-150z" />
<glyph unicode="&#xca;" horiz-adv-x="688" d="M92 0v1434h537v-213h-307v-359h235v-213h-235v-436h325v-213h-555zM100 1513l178 328h160l178 -328h-158l-102 160l-103 -160h-153z" />
<glyph unicode="&#xcb;" horiz-adv-x="688" d="M71 1640q0 51 37 88t90 37q51 0 88 -37t37 -88q0 -53 -37 -90t-88 -37q-53 0 -90 37t-37 90zM92 0v1434h537v-213h-307v-359h235v-213h-235v-436h325v-213h-555zM393 1640q0 51 36.5 88t90.5 37q51 0 88 -37t37 -88q0 -53 -37 -90t-88 -37q-53 0 -90 37t-37 90z" />
<glyph unicode="&#xcc;" horiz-adv-x="421" d="M-111 1841h252l150 -328h-150zM96 0v1434h230v-1434h-230z" />
<glyph unicode="&#xcd;" horiz-adv-x="421" d="M96 0v1434h230v-1434h-230zM135 1513l150 328h251l-251 -328h-150z" />
<glyph unicode="&#xce;" horiz-adv-x="421" d="M-45 1507l178 328h160l178 -328h-158l-102 160l-103 -160h-153zM96 0v1434h230v-1434h-230z" />
<glyph unicode="&#xcf;" horiz-adv-x="421" d="M-74 1648q0 51 37 88t90 37q51 0 88 -37t37 -88q0 -53 -37 -90t-88 -37q-53 0 -90 37t-37 90zM96 0v1434h230v-1434h-230zM248 1648q0 51 36.5 88t90.5 37q51 0 88 -37t37 -88q0 -53 -37 -90t-88 -37q-53 0 -90 37t-37 90z" />
<glyph unicode="&#xd0;" horiz-adv-x="815" d="M43 653v193h74v588h284q104 0 173 -48.5t109 -138.5t56.5 -222t16.5 -298q0 -371 -90.5 -549t-286.5 -178h-262v653h-74zM336 199h45q33 0 59.5 21.5t44 78.5t26.5 159.5t9 266.5q0 158 -8 257t-24.5 154.5t-42 76t-60.5 20.5h-49v-387h92v-193h-92v-454z" />
<glyph unicode="&#xd1;" horiz-adv-x="831" d="M92 0v1434h207l113 -351q14 -43 31.5 -98t34 -110.5t30.5 -108.5t24 -94q0 37 -1 89t-2 108.5t-2 109.5t-1 94v361h213v-1434h-174l-139 440q-16 53 -34.5 114.5t-35 123t-32 116t-25.5 95.5q0 -39 1 -92.5t2 -111.5t2 -116.5t1 -105.5v-463h-213zM131 1521 q0 139 50 199.5t120 60.5q41 0 72.5 -13t68.5 -42q31 -27 48.5 -38t33.5 -11q23 0 35 20.5t16 77.5h146q0 -139 -50.5 -199.5t-119.5 -60.5q-41 0 -73 13.5t-68 42.5q-31 27 -47.5 38t-34.5 11q-23 0 -35 -19.5t-17 -79.5h-145z" />
<glyph unicode="&#xd2;" horiz-adv-x="790" d="M61 713q0 186 16.5 326.5t55.5 232.5t102.5 138t159.5 46q190 0 263 -184t73 -551q0 -188 -16.5 -327.5t-56.5 -231.5t-105.5 -138.5t-161.5 -46.5q-94 0 -157.5 45.5t-101.5 136.5t-54.5 229t-16.5 325zM75 1845h252l150 -328h-150zM297 721q0 -164 5 -268.5t17.5 -163 t31 -80t44.5 -21.5q27 0 46.5 20.5t30.5 79t16.5 160t5.5 265.5t-5.5 268t-17.5 162.5t-31.5 80t-46.5 21.5q-29 0 -47 -20.5t-29.5 -79t-15.5 -160.5t-4 -264z" />
<glyph unicode="&#xd3;" horiz-adv-x="790" d="M61 713q0 186 16.5 326.5t55.5 232.5t102.5 138t159.5 46q190 0 263 -184t73 -551q0 -188 -16.5 -327.5t-56.5 -231.5t-105.5 -138.5t-161.5 -46.5q-94 0 -157.5 45.5t-101.5 136.5t-54.5 229t-16.5 325zM297 721q0 -164 5 -268.5t17.5 -163t31 -80t44.5 -21.5 q27 0 46.5 20.5t30.5 79t16.5 160t5.5 265.5t-5.5 268t-17.5 162.5t-31.5 80t-46.5 21.5q-29 0 -47 -20.5t-29.5 -79t-15.5 -160.5t-4 -264zM307 1517l150 328h251l-251 -328h-150z" />
<glyph unicode="&#xd4;" horiz-adv-x="790" d="M61 713q0 186 16.5 326.5t55.5 232.5t102.5 138t159.5 46q190 0 263 -184t73 -551q0 -188 -16.5 -327.5t-56.5 -231.5t-105.5 -138.5t-161.5 -46.5q-94 0 -157.5 45.5t-101.5 136.5t-54.5 229t-16.5 325zM137 1511l178 328h160l178 -328h-158l-102 160l-103 -160h-153z M297 721q0 -164 5 -268.5t17.5 -163t31 -80t44.5 -21.5q27 0 46.5 20.5t30.5 79t16.5 160t5.5 265.5t-5.5 268t-17.5 162.5t-31.5 80t-46.5 21.5q-29 0 -47 -20.5t-29.5 -79t-15.5 -160.5t-4 -264z" />
<glyph unicode="&#xd5;" horiz-adv-x="790" d="M61 713q0 186 16.5 326.5t55.5 232.5t102.5 138t159.5 46q190 0 263 -184t73 -551q0 -188 -16.5 -327.5t-56.5 -231.5t-105.5 -138.5t-161.5 -46.5q-94 0 -157.5 45.5t-101.5 136.5t-54.5 229t-16.5 325zM100 1517q0 139 50 199.5t120 60.5q41 0 72.5 -13t68.5 -42 q31 -27 48.5 -38t33.5 -11q23 0 35 20.5t16 77.5h146q0 -139 -50.5 -199.5t-119.5 -60.5q-41 0 -73 13.5t-68 42.5q-31 27 -47.5 38t-34.5 11q-23 0 -35 -19.5t-17 -79.5h-145zM297 721q0 -164 5 -268.5t17.5 -163t31 -80t44.5 -21.5q27 0 46.5 20.5t30.5 79t16.5 160 t5.5 265.5t-5.5 268t-17.5 162.5t-31.5 80t-46.5 21.5q-29 0 -47 -20.5t-29.5 -79t-15.5 -160.5t-4 -264z" />
<glyph unicode="&#xd6;" horiz-adv-x="790" d="M61 713q0 186 16.5 326.5t55.5 232.5t102.5 138t159.5 46q190 0 263 -184t73 -551q0 -188 -16.5 -327.5t-56.5 -231.5t-105.5 -138.5t-161.5 -46.5q-94 0 -157.5 45.5t-101.5 136.5t-54.5 229t-16.5 325zM108 1640q0 51 37 88t90 37q51 0 88 -37t37 -88q0 -53 -37 -90 t-88 -37q-53 0 -90 37t-37 90zM297 721q0 -164 5 -268.5t17.5 -163t31 -80t44.5 -21.5q27 0 46.5 20.5t30.5 79t16.5 160t5.5 265.5t-5.5 268t-17.5 162.5t-31.5 80t-46.5 21.5q-29 0 -47 -20.5t-29.5 -79t-15.5 -160.5t-4 -264zM430 1640q0 51 36.5 88t90.5 37q51 0 88 -37 t37 -88q0 -53 -37 -90t-88 -37q-53 0 -90 37t-37 90z" />
<glyph unicode="&#xd7;" d="M20 719l295 242q33 23 56 10q27 -18 12 -60l-29 -96h162v330l-96 -31q-25 -6 -37 -3t-23 15q-12 25 11 56l241 295l242 -295q25 -31 10 -56q-18 -25 -57 -12l-96 31v-330h161l-30 96q-10 41 12 60q25 12 55 -10l295 -242l-295 -242q-31 -25 -55 -12q-23 20 -12 59l30 97 h-161v-332l96 30q41 10 57 -12q14 -25 -10 -55l-242 -295l-241 295q-23 31 -11 55q10 12 22.5 15.5t37.5 -3.5l96 -30v332h-162l29 -97q8 -23 5 -36t-17 -23q-25 -14 -56 12z" />
<glyph unicode="&#xd8;" horiz-adv-x="790" d="M41 -102l84 276q-35 92 -49.5 225t-14.5 314q0 186 16.5 326.5t55.5 232.5t102.5 138t159.5 46q61 0 117 -22l31 102h209l-86 -281q35 -92 50 -225t15 -309q0 -188 -16.5 -327.5t-56.5 -231.5t-105.5 -138.5t-161.5 -46.5q-63 0 -110 21l-31 -100h-209zM297 721 q0 -164 5 -268.5t17.5 -163t31 -80t44.5 -21.5q27 0 46.5 20.5t30.5 79t16.5 160t5.5 265.5t-5.5 268t-17.5 162.5t-31.5 80t-46.5 21.5q-29 0 -47 -20.5t-29.5 -79t-15.5 -160.5t-4 -264z" />
<glyph unicode="&#xd9;" horiz-adv-x="823" d="M88 352v1082h229v-1084q0 -90 25 -126t72 -36q51 0 71.5 36t20.5 124v1086h229v-1067q0 -188 -78.5 -289t-246.5 -101q-156 0 -239 100.5t-83 274.5zM98 1837h252l150 -328h-150z" />
<glyph unicode="&#xda;" horiz-adv-x="823" d="M88 352v1082h229v-1084q0 -90 25 -126t72 -36q51 0 71.5 36t20.5 124v1086h229v-1067q0 -188 -78.5 -289t-246.5 -101q-156 0 -239 100.5t-83 274.5zM326 1509l150 328h251l-251 -328h-150z" />
<glyph unicode="&#xdb;" horiz-adv-x="823" d="M88 352v1082h229v-1084q0 -90 25 -126t72 -36q51 0 71.5 36t20.5 124v1086h229v-1067q0 -188 -78.5 -289t-246.5 -101q-156 0 -239 100.5t-83 274.5zM154 1513l178 328h160l178 -328h-158l-102 160l-103 -160h-153z" />
<glyph unicode="&#xdc;" horiz-adv-x="823" d="M88 352v1082h229v-1084q0 -90 25 -126t72 -36q51 0 71.5 36t20.5 124v1086h229v-1067q0 -188 -78.5 -289t-246.5 -101q-156 0 -239 100.5t-83 274.5zM125 1640q0 51 37 88t90 37q51 0 88 -37t37 -88q0 -53 -37 -90t-88 -37q-53 0 -90 37t-37 90zM447 1640q0 51 36.5 88 t90.5 37q51 0 88 -37t37 -88q0 -53 -37 -90t-88 -37q-53 0 -90 37t-37 90z" />
<glyph unicode="&#xdd;" horiz-adv-x="753" d="M14 1434h250l60 -273q23 -102 38 -191t25 -169q8 80 22.5 169t34.5 191l56 273h239l-239 -828v-606h-232v596zM303 1521l150 328h251l-251 -328h-150z" />
<glyph unicode="&#xde;" horiz-adv-x="749" d="M92 0v1434h227v-275h74q66 0 124 -20.5t102.5 -67.5t70 -124.5t25.5 -192.5t-26.5 -196t-72 -133t-106.5 -76.5t-131 -24.5h-60v-324h-227zM319 520h48q59 0 87.5 52t28.5 171q0 123 -25.5 172.5t-84.5 49.5h-54v-445z" />
<glyph unicode="&#xdf;" horiz-adv-x="776" d="M72 -395v1521q0 186 84 273.5t219 87.5q141 0 216 -95.5t75 -267.5q0 -129 -32 -194.5t-77 -104.5q37 -16 67.5 -42.5t53 -67.5t35 -102.5t12.5 -149.5q0 -121 -18.5 -209t-60.5 -144.5t-109.5 -83t-165.5 -26.5h-15v195h15q37 0 59.5 12t36.5 40.5t19.5 78t5.5 123.5 q0 82 -7.5 134t-21.5 81.5t-38 41t-54 11.5h-15v194h15q37 0 53 37t16 154q0 104 -16 149t-62 45q-43 0 -58 -36.5t-15 -122.5v-1434z" />
<glyph unicode="&#xe0;" horiz-adv-x="694" d="M39 332q0 178 60.5 269t185.5 91q41 0 69.5 -9t51.5 -24v129q0 59 -18.5 83t-63.5 24q-41 0 -78 -20.5t-84 -61.5l-90 160q57 53 130.5 89t151.5 36q137 0 206 -64.5t69 -222.5v-811h-223v51q-33 -37 -67 -55.5t-83 -18.5q-217 0 -217 355zM75 1534h252l150 -328h-150z M250 336q0 -90 18.5 -131t63.5 -41q47 0 74 33v292q-16 10 -33 15.5t-45 5.5q-41 0 -59.5 -39t-18.5 -135z" />
<glyph unicode="&#xe1;" horiz-adv-x="694" d="M39 332q0 178 60.5 269t185.5 91q41 0 69.5 -9t51.5 -24v129q0 59 -18.5 83t-63.5 24q-41 0 -78 -20.5t-84 -61.5l-90 160q57 53 130.5 89t151.5 36q137 0 206 -64.5t69 -222.5v-811h-223v51q-33 -37 -67 -55.5t-83 -18.5q-217 0 -217 355zM246 1206l150 328h251 l-251 -328h-150zM250 336q0 -90 18.5 -131t63.5 -41q47 0 74 33v292q-16 10 -33 15.5t-45 5.5q-41 0 -59.5 -39t-18.5 -135z" />
<glyph unicode="&#xe2;" horiz-adv-x="694" d="M39 332q0 178 60.5 269t185.5 91q41 0 69.5 -9t51.5 -24v129q0 59 -18.5 83t-63.5 24q-41 0 -78 -20.5t-84 -61.5l-90 160q57 53 130.5 89t151.5 36q137 0 206 -64.5t69 -222.5v-811h-223v51q-33 -37 -67 -55.5t-83 -18.5q-217 0 -217 355zM92 1198l178 328h160l178 -328 h-158l-102 160l-103 -160h-153zM250 336q0 -90 18.5 -131t63.5 -41q47 0 74 33v292q-16 10 -33 15.5t-45 5.5q-41 0 -59.5 -39t-18.5 -135z" />
<glyph unicode="&#xe3;" horiz-adv-x="694" d="M39 332q0 178 60.5 269t185.5 91q41 0 69.5 -9t51.5 -24v129q0 59 -18.5 83t-63.5 24q-41 0 -78 -20.5t-84 -61.5l-90 160q57 53 130.5 89t151.5 36q137 0 206 -64.5t69 -222.5v-811h-223v51q-33 -37 -67 -55.5t-83 -18.5q-217 0 -217 355zM61 1210q0 139 50 199.5 t120 60.5q41 0 72.5 -13t68.5 -42q31 -27 48.5 -38t33.5 -11q23 0 35 20.5t16 77.5h146q0 -139 -50.5 -199.5t-119.5 -60.5q-41 0 -73 13.5t-68 42.5q-31 27 -47.5 38t-34.5 11q-23 0 -35 -19.5t-17 -79.5h-145zM250 336q0 -90 18.5 -131t63.5 -41q47 0 74 33v292 q-16 10 -33 15.5t-45 5.5q-41 0 -59.5 -39t-18.5 -135z" />
<glyph unicode="&#xe4;" horiz-adv-x="694" d="M39 332q0 178 60.5 269t185.5 91q41 0 69.5 -9t51.5 -24v129q0 59 -18.5 83t-63.5 24q-41 0 -78 -20.5t-84 -61.5l-90 160q57 53 130.5 89t151.5 36q137 0 206 -64.5t69 -222.5v-811h-223v51q-33 -37 -67 -55.5t-83 -18.5q-217 0 -217 355zM67 1325q0 51 37 88t90 37 q51 0 88 -37t37 -88q0 -53 -37 -90t-88 -37q-53 0 -90 37t-37 90zM250 336q0 -90 18.5 -131t63.5 -41q47 0 74 33v292q-16 10 -33 15.5t-45 5.5q-41 0 -59.5 -39t-18.5 -135zM389 1325q0 51 36.5 88t90.5 37q51 0 88 -37t37 -88q0 -53 -37 -90t-88 -37q-53 0 -90 37t-37 90z " />
<glyph unicode="&#xe5;" horiz-adv-x="694" d="M39 332q0 178 60.5 269t185.5 91q41 0 69.5 -9t51.5 -24v129q0 59 -18.5 83t-63.5 24q-41 0 -78 -20.5t-84 -61.5l-90 160q57 53 130.5 89t151.5 36q137 0 206 -64.5t69 -222.5v-811h-223v51q-33 -37 -67 -55.5t-83 -18.5q-217 0 -217 355zM149 1413q0 88 57.5 146.5 t147.5 58.5t147.5 -58.5t57.5 -146.5t-57.5 -146.5t-147.5 -58.5t-147.5 58.5t-57.5 146.5zM250 336q0 -90 18.5 -131t63.5 -41q47 0 74 33v292q-16 10 -33 15.5t-45 5.5q-41 0 -59.5 -39t-18.5 -135zM264 1413q0 -41 25.5 -68.5t64.5 -27.5t64.5 27.5t25.5 68.5t-25.5 67.5 t-64.5 26.5t-64.5 -26.5t-25.5 -67.5z" />
<glyph unicode="&#xe6;" horiz-adv-x="1036" d="M39 332q0 178 60.5 269t185.5 91q41 0 69.5 -9t51.5 -24v129q0 59 -18.5 83t-63.5 24q-41 0 -78 -20.5t-84 -61.5l-90 160q57 53 130.5 89t151.5 36q76 0 116 -30t58 -75q25 43 68 74t109 31q143 0 212.5 -143.5t69.5 -419.5v-66h-381q2 -84 8.5 -141.5t17.5 -92 t28.5 -49t39.5 -14.5q35 0 52.5 30.5t40.5 114.5l188 -63q-18 -61 -42 -112.5t-56.5 -87.5t-79.5 -56.5t-113 -20.5t-112 27t-74 72q-37 -41 -92.5 -70t-114.5 -29q-141 0 -199.5 87.5t-58.5 267.5zM250 336q0 -92 20.5 -132t67.5 -40q25 0 49.5 14.5t44.5 32.5 q-14 55 -21.5 128t-9.5 153q-16 10 -31.5 14t-41.5 4q-41 0 -59.5 -39t-18.5 -135zM608 641h170q-6 272 -84 272q-41 0 -61.5 -60t-24.5 -212z" />
<glyph unicode="&#xe7;" horiz-adv-x="673" d="M51 530q0 154 19.5 261.5t57.5 176t96.5 99.5t137.5 31q66 0 113 -25.5t79 -71t50.5 -105.5t26.5 -128l-201 -55q-10 92 -24.5 137t-49.5 45q-55 0 -70.5 -87t-15.5 -273q0 -190 15.5 -272.5t72.5 -82.5q31 0 48.5 39t33.5 146l195 -62q-27 -154 -89.5 -236.5 t-172.5 -89.5l-29 -77q14 8 33.5 13t46.5 5q47 0 85 -39t38 -110q0 -84 -56.5 -124t-136.5 -40q-51 0 -100 18.5t-86 44.5l39 68q39 -25 67.5 -35t61.5 -10q35 0 56.5 20.5t21.5 55.5q0 33 -15.5 46t-36.5 13q-29 0 -57 -23l-69 41l51 142q-55 12 -98.5 49t-74 103.5 t-47 162.5t-16.5 229z" />
<glyph unicode="&#xe8;" horiz-adv-x="690" d="M47 1534h252l150 -328h-150zM51 530q0 274 68.5 421t234.5 147q147 0 217 -143.5t70 -419.5v-66h-381q2 -84 8 -141.5t17.5 -92t29 -49t39.5 -14.5q35 0 52.5 30.5t39.5 114.5l189 -63q-18 -61 -42 -112.5t-56.5 -87.5t-78.5 -56.5t-112 -20.5q-80 0 -136 40t-92 113 t-51.5 174.5t-15.5 225.5zM262 641h170q-6 272 -84 272q-41 0 -61.5 -60t-24.5 -212z" />
<glyph unicode="&#xe9;" horiz-adv-x="690" d="M51 530q0 274 68.5 421t234.5 147q147 0 217 -143.5t70 -419.5v-66h-381q2 -84 8 -141.5t17.5 -92t29 -49t39.5 -14.5q35 0 52.5 30.5t39.5 114.5l189 -63q-18 -61 -42 -112.5t-56.5 -87.5t-78.5 -56.5t-112 -20.5q-80 0 -136 40t-92 113t-51.5 174.5t-15.5 225.5z M246 1206l150 328h251l-251 -328h-150zM262 641h170q-6 272 -84 272q-41 0 -61.5 -60t-24.5 -212z" />
<glyph unicode="&#xea;" horiz-adv-x="690" d="M51 530q0 274 68.5 421t234.5 147q147 0 217 -143.5t70 -419.5v-66h-381q2 -84 8 -141.5t17.5 -92t29 -49t39.5 -14.5q35 0 52.5 30.5t39.5 114.5l189 -63q-18 -61 -42 -112.5t-56.5 -87.5t-78.5 -56.5t-112 -20.5q-80 0 -136 40t-92 113t-51.5 174.5t-15.5 225.5z M90 1188l178 328h160l178 -328h-158l-102 160l-103 -160h-153zM262 641h170q-6 272 -84 272q-41 0 -61.5 -60t-24.5 -212z" />
<glyph unicode="&#xeb;" horiz-adv-x="690" d="M51 530q0 274 68.5 421t234.5 147q147 0 217 -143.5t70 -419.5v-66h-381q2 -84 8 -141.5t17.5 -92t29 -49t39.5 -14.5q35 0 52.5 30.5t39.5 114.5l189 -63q-18 -61 -42 -112.5t-56.5 -87.5t-78.5 -56.5t-112 -20.5q-80 0 -136 40t-92 113t-51.5 174.5t-15.5 225.5z M61 1325q0 51 37 88t90 37q51 0 88 -37t37 -88q0 -53 -37 -90t-88 -37q-53 0 -90 37t-37 90zM262 641h170q-6 272 -84 272q-41 0 -61.5 -60t-24.5 -212zM383 1325q0 51 36.5 88t90.5 37q51 0 88 -37t37 -88q0 -53 -37 -90t-88 -37q-53 0 -90 37t-37 90z" />
<glyph unicode="&#xec;" horiz-adv-x="372" d="M-136 1534h252l150 -328h-150zM76 0v1075h219v-1075h-219z" />
<glyph unicode="&#xed;" horiz-adv-x="372" d="M76 0v1075h219v-1075h-219zM111 1206l150 328h251l-251 -328h-150z" />
<glyph unicode="&#xee;" horiz-adv-x="372" d="M-70 1177l178 328h160l178 -328h-158l-102 160l-103 -160h-153zM76 0v1075h219v-1075h-219z" />
<glyph unicode="&#xef;" horiz-adv-x="372" d="M-99 1347q0 51 37 88t90 37q51 0 88 -37t37 -88q0 -53 -37 -90t-88 -37q-53 0 -90 37t-37 90zM76 0v1075h219v-1075h-219zM223 1347q0 51 36.5 88t90.5 37q51 0 88 -37t37 -88q0 -53 -37 -90t-88 -37q-53 0 -90 37t-37 90z" />
<glyph unicode="&#xf0;" horiz-adv-x="714" d="M51 481q0 113 17.5 208t51.5 163t86 105.5t124 37.5q61 0 100 -25.5t68 -80.5q-18 150 -86 250l-82 -86l-101 96l82 86q-29 18 -62.5 31.5t-74.5 19.5v170q156 -14 258 -92l88 92l98 -96l-92 -98q78 -111 110 -284t32 -411q0 -158 -17.5 -269.5t-54.5 -183t-96.5 -104.5 t-143.5 -33q-158 0 -231.5 135.5t-73.5 368.5zM270 487q0 -174 19.5 -242.5t72.5 -68.5q47 0 68 68.5t21 238.5q0 176 -21.5 244t-71.5 68q-51 0 -69.5 -69t-18.5 -239z" />
<glyph unicode="&#xf1;" horiz-adv-x="714" d="M70 1210q0 139 50 199.5t120 60.5q41 0 72.5 -13t68.5 -42q31 -27 48.5 -38t33.5 -11q23 0 35 20.5t16 77.5h146q0 -139 -50.5 -199.5t-119.5 -60.5q-41 0 -73 13.5t-68 42.5q-31 27 -47.5 38t-34.5 11q-23 0 -35 -19.5t-17 -79.5h-145zM72 0v1075h217v-53 q33 33 71.5 54.5t98.5 21.5q98 0 143 -59.5t45 -211.5v-827h-217v795q0 51 -11 76.5t-42 25.5q-27 0 -46.5 -9t-41.5 -26v-862h-217z" />
<glyph unicode="&#xf2;" horiz-adv-x="718" d="M45 1534h252l150 -328h-150zM51 532q0 123 13.5 227.5t48 179.5t95 117t157.5 42q86 0 144 -40t94 -114t50.5 -176t14.5 -227q0 -127 -14.5 -231.5t-50.5 -178.5t-96.5 -114t-150.5 -40q-84 0 -142 39t-94 112t-52.5 175.5t-16.5 228.5zM270 541q0 -88 2 -156t11.5 -114 t28 -70.5t50.5 -24.5q57 0 73 94.5t16 264.5q0 180 -16.5 272t-74.5 92q-59 0 -74.5 -93t-15.5 -265z" />
<glyph unicode="&#xf3;" horiz-adv-x="718" d="M51 532q0 123 13.5 227.5t48 179.5t95 117t157.5 42q86 0 144 -40t94 -114t50.5 -176t14.5 -227q0 -127 -14.5 -231.5t-50.5 -178.5t-96.5 -114t-150.5 -40q-84 0 -142 39t-94 112t-52.5 175.5t-16.5 228.5zM270 541q0 -88 2 -156t11.5 -114t28 -70.5t50.5 -24.5 q57 0 73 94.5t16 264.5q0 180 -16.5 272t-74.5 92q-59 0 -74.5 -93t-15.5 -265zM272 1206l150 328h251l-251 -328h-150z" />
<glyph unicode="&#xf4;" horiz-adv-x="718" d="M51 532q0 123 13.5 227.5t48 179.5t95 117t157.5 42q86 0 144 -40t94 -114t50.5 -176t14.5 -227q0 -127 -14.5 -231.5t-50.5 -178.5t-96.5 -114t-150.5 -40q-84 0 -142 39t-94 112t-52.5 175.5t-16.5 228.5zM100 1188l178 328h160l178 -328h-158l-102 160l-103 -160h-153 zM270 541q0 -88 2 -156t11.5 -114t28 -70.5t50.5 -24.5q57 0 73 94.5t16 264.5q0 180 -16.5 272t-74.5 92q-59 0 -74.5 -93t-15.5 -265z" />
<glyph unicode="&#xf5;" horiz-adv-x="718" d="M51 532q0 123 13.5 227.5t48 179.5t95 117t157.5 42q86 0 144 -40t94 -114t50.5 -176t14.5 -227q0 -127 -14.5 -231.5t-50.5 -178.5t-96.5 -114t-150.5 -40q-84 0 -142 39t-94 112t-52.5 175.5t-16.5 228.5zM66 1210q0 139 50 199.5t120 60.5q41 0 72.5 -13t68.5 -42 q31 -27 48.5 -38t33.5 -11q23 0 35 20.5t16 77.5h146q0 -139 -50.5 -199.5t-119.5 -60.5q-41 0 -73 13.5t-68 42.5q-31 27 -47.5 38t-34.5 11q-23 0 -35 -19.5t-17 -79.5h-145zM270 541q0 -88 2 -156t11.5 -114t28 -70.5t50.5 -24.5q57 0 73 94.5t16 264.5q0 180 -16.5 272 t-74.5 92q-59 0 -74.5 -93t-15.5 -265z" />
<glyph unicode="&#xf6;" horiz-adv-x="718" d="M51 532q0 123 13.5 227.5t48 179.5t95 117t157.5 42q86 0 144 -40t94 -114t50.5 -176t14.5 -227q0 -127 -14.5 -231.5t-50.5 -178.5t-96.5 -114t-150.5 -40q-84 0 -142 39t-94 112t-52.5 175.5t-16.5 228.5zM74 1315q0 51 37 88t90 37q51 0 88 -37t37 -88q0 -53 -37 -90 t-88 -37q-53 0 -90 37t-37 90zM270 541q0 -88 2 -156t11.5 -114t28 -70.5t50.5 -24.5q57 0 73 94.5t16 264.5q0 180 -16.5 272t-74.5 92q-59 0 -74.5 -93t-15.5 -265zM396 1315q0 51 36.5 88t90.5 37q51 0 88 -37t37 -88q0 -53 -37 -90t-88 -37q-53 0 -90 37t-37 90z" />
<glyph unicode="&#xf7;" d="M20 719l295 242q33 23 56 10q27 -18 12 -60l-29 -96h162v330l-96 -31q-25 -6 -37 -3t-23 15q-12 25 11 56l241 295l242 -295q25 -31 10 -56q-18 -25 -57 -12l-96 31v-330h161l-30 96q-10 41 12 60q25 12 55 -10l295 -242l-295 -242q-31 -25 -55 -12q-23 20 -12 59l30 97 h-161v-332l96 30q41 10 57 -12q14 -25 -10 -55l-242 -295l-241 295q-23 31 -11 55q10 12 22.5 15.5t37.5 -3.5l96 -30v332h-162l29 -97q8 -23 5 -36t-17 -23q-25 -14 -56 12z" />
<glyph unicode="&#xf8;" horiz-adv-x="714" d="M31 -102l86 235q-35 74 -50.5 174.5t-15.5 224.5q0 123 13.5 227.5t48 179.5t95 117t157.5 42q51 0 96 -17l35 97h192l-84 -234q35 -74 49.5 -176t14.5 -227q0 -127 -14.5 -231.5t-50.5 -178.5t-96.5 -114t-150.5 -40q-53 0 -98 17l-35 -96h-192zM270 541q0 -88 2 -156 t11.5 -114t28 -70.5t50.5 -24.5q57 0 73 94.5t16 264.5q0 180 -16.5 272t-74.5 92q-59 0 -74.5 -93t-15.5 -265z" />
<glyph unicode="&#xf9;" horiz-adv-x="714" d="M45 1534h252l150 -328h-150zM66 248v827h217v-794q0 -51 12 -77t43 -26q27 0 46 9.5t42 25.5v862h217v-1075h-217v53q-33 -33 -72 -54.5t-98 -21.5q-98 0 -144 59.5t-46 211.5z" />
<glyph unicode="&#xfa;" horiz-adv-x="714" d="M66 248v827h217v-794q0 -51 12 -77t43 -26q27 0 46 9.5t42 25.5v862h217v-1075h-217v53q-33 -33 -72 -54.5t-98 -21.5q-98 0 -144 59.5t-46 211.5zM272 1206l150 328h251l-251 -328h-150z" />
<glyph unicode="&#xfb;" horiz-adv-x="714" d="M66 248v827h217v-794q0 -51 12 -77t43 -26q27 0 46 9.5t42 25.5v862h217v-1075h-217v53q-33 -33 -72 -54.5t-98 -21.5q-98 0 -144 59.5t-46 211.5zM96 1206l178 328h160l178 -328h-158l-102 160l-103 -160h-153z" />
<glyph unicode="&#xfc;" horiz-adv-x="714" d="M66 248v827h217v-794q0 -51 12 -77t43 -26q27 0 46 9.5t42 25.5v862h217v-1075h-217v53q-33 -33 -72 -54.5t-98 -21.5q-98 0 -144 59.5t-46 211.5zM67 1333q0 51 37 88t90 37q51 0 88 -37t37 -88q0 -53 -37 -90t-88 -37q-53 0 -90 37t-37 90zM389 1333q0 51 36.5 88 t90.5 37q51 0 88 -37t37 -88q0 -53 -37 -90t-88 -37q-53 0 -90 37t-37 90z" />
<glyph unicode="&#xfd;" horiz-adv-x="692" d="M20 1075h226l41 -289q8 -55 16 -123.5t16.5 -138t14.5 -137.5t10 -123q2 55 9 123t16.5 138.5t18.5 138t18 122.5l43 289h223l-305 -1454h-215l92 365zM264 1188l150 328h251l-251 -328h-150z" />
<glyph unicode="&#xfe;" horiz-adv-x="720" d="M72 -395v1792l217 96v-469q25 31 61.5 52.5t85.5 21.5q68 0 112 -38t70.5 -108.5t37 -174t10.5 -232.5q0 -289 -55.5 -428.5t-176.5 -139.5q-41 0 -79 19.5t-66 50.5v-344zM289 217q16 -16 34.5 -26.5t45.5 -10.5q20 0 35.5 15.5t24.5 55.5t13 108.5t4 177.5 q0 104 -4 173.5t-13 111.5t-24.5 59.5t-37.5 17.5q-23 0 -42.5 -10t-35.5 -27v-645z" />
<glyph unicode="&#xff;" horiz-adv-x="692" d="M20 1075h226l41 -289q8 -55 16 -123.5t16.5 -138t14.5 -137.5t10 -123q2 55 9 123t16.5 138.5t18.5 138t18 122.5l43 289h223l-305 -1454h-215l92 365zM59 1325q0 51 37 88t90 37q51 0 88 -37t37 -88q0 -53 -37 -90t-88 -37q-53 0 -90 37t-37 90zM381 1325q0 51 36.5 88 t90.5 37q51 0 88 -37t37 -88q0 -53 -37 -90t-88 -37q-53 0 -90 37t-37 90z" />
<glyph unicode="&#x152;" horiz-adv-x="1085" d="M61 713q0 377 72 560t252 183q129 0 184 -121v99h457v-213h-307v-359h235v-213h-235v-436h325v-213h-475v100q-29 -63 -72.5 -93t-113.5 -30q-180 0 -251 181.5t-71 554.5zM297 721q0 -164 5 -268.5t17.5 -163t31 -80t44.5 -21.5q27 0 46.5 20.5t30.5 79t16.5 160 t5.5 265.5t-5.5 268t-17.5 162.5t-31.5 80t-46.5 21.5q-29 0 -47 -20.5t-29.5 -79t-15.5 -160.5t-4 -264z" />
<glyph unicode="&#x153;" horiz-adv-x="1083" d="M51 532q0 123 13.5 227.5t48 179.5t95 117t157.5 42q72 0 119.5 -38t70.5 -91q25 53 71 91t119 38q147 0 218 -143.5t71 -419.5v-66h-383q2 -84 8.5 -141.5t18.5 -92t28.5 -49t38.5 -14.5q35 0 52.5 30.5t40.5 114.5l188 -63q-18 -61 -40.5 -112.5t-56.5 -87.5t-80 -56.5 t-112 -20.5q-70 0 -117 38t-69 91q-23 -53 -71 -91t-124 -38q-84 0 -142 39t-94 112t-52.5 175.5t-16.5 228.5zM270 541q0 -88 2 -156t11.5 -114t28 -70.5t50.5 -24.5q57 0 72 94.5t15 264.5q0 180 -15.5 272t-73.5 92q-59 0 -74.5 -93t-15.5 -265zM653 641h170 q-6 272 -84 272q-41 0 -61.5 -60t-24.5 -212z" />
<glyph unicode="&#x178;" horiz-adv-x="753" d="M14 1434h250l60 -273q23 -102 38 -191t25 -169q8 80 22.5 169t34.5 191l56 273h239l-239 -828v-606h-232v596zM92 1640q0 51 37 88t90 37q51 0 88 -37t37 -88q0 -53 -37 -90t-88 -37q-53 0 -90 37t-37 90zM414 1640q0 51 36.5 88t90.5 37q51 0 88 -37t37 -88 q0 -53 -37 -90t-88 -37q-53 0 -90 37t-37 90z" />
<glyph unicode="&#x2c6;" horiz-adv-x="675" d="M80 1206l178 328h160l178 -328h-158l-102 160l-103 -160h-153z" />
<glyph unicode="&#x2dc;" horiz-adv-x="675" d="M43 1210q0 139 50 199.5t120 60.5q41 0 72.5 -13t68.5 -42q31 -27 48.5 -38t33.5 -11q23 0 35 20.5t16 77.5h146q0 -139 -50.5 -199.5t-119.5 -60.5q-41 0 -73 13.5t-68 42.5q-31 27 -47.5 38t-34.5 11q-23 0 -35 -19.5t-17 -79.5h-145z" />
<glyph unicode="&#x2000;" horiz-adv-x="924" />
<glyph unicode="&#x2001;" horiz-adv-x="1849" />
<glyph unicode="&#x2002;" horiz-adv-x="924" />
<glyph unicode="&#x2003;" horiz-adv-x="1849" />
<glyph unicode="&#x2004;" horiz-adv-x="616" />
<glyph unicode="&#x2005;" horiz-adv-x="462" />
<glyph unicode="&#x2006;" horiz-adv-x="308" />
<glyph unicode="&#x2007;" horiz-adv-x="308" />
<glyph unicode="&#x2008;" horiz-adv-x="231" />
<glyph unicode="&#x2009;" horiz-adv-x="369" />
<glyph unicode="&#x200a;" horiz-adv-x="102" />
<glyph unicode="&#x2010;" horiz-adv-x="516" d="M66 641v217h385v-217h-385z" />
<glyph unicode="&#x2011;" horiz-adv-x="516" d="M66 641v217h385v-217h-385z" />
<glyph unicode="&#x2012;" horiz-adv-x="516" d="M66 641v217h385v-217h-385z" />
<glyph unicode="&#x2013;" horiz-adv-x="649" d="M66 647v205h518v-205h-518z" />
<glyph unicode="&#x2014;" horiz-adv-x="800" d="M66 647v205h669v-205h-669z" />
<glyph unicode="&#x2018;" horiz-adv-x="432" d="M74 997l129 437h133l-27 -437h-235z" />
<glyph unicode="&#x2019;" horiz-adv-x="432" d="M96 997l27 437h235l-129 -437h-133z" />
<glyph unicode="&#x201a;" horiz-adv-x="432" d="M96 -195l27 437h235l-129 -437h-133z" />
<glyph unicode="&#x201c;" horiz-adv-x="788" d="M74 997l129 437h133l-27 -437h-235zM428 997l131 437h133l-28 -437h-236z" />
<glyph unicode="&#x201d;" horiz-adv-x="788" d="M96 997l27 437h235l-129 -437h-133zM451 997l26 437h238l-131 -437h-133z" />
<glyph unicode="&#x201e;" horiz-adv-x="788" d="M96 -195l27 437h235l-129 -437h-133zM451 -195l26 437h238l-131 -437h-133z" />
<glyph unicode="&#x2022;" horiz-adv-x="690" d="M106 750q0 51 18.5 95t50.5 76.5t76 51t93 18.5q51 0 94 -18.5t76 -51t51.5 -76.5t18.5 -95q0 -49 -18.5 -93.5t-51.5 -76t-76 -50t-94 -18.5q-49 0 -93 18.5t-76 50t-50.5 75.5t-18.5 94z" />
<glyph unicode="&#x2026;" horiz-adv-x="1257" d="M76 115q0 59 39 99t98 40t98 -40t39 -99t-39 -98.5t-98 -39.5t-98 39t-39 99zM496 115q0 59 38.5 99t98.5 40q59 0 98 -40t39 -99t-39 -98.5t-98 -39.5t-98 39t-39 99zM913 115q0 59 39 99t99 40q61 0 99 -40t38 -99t-38 -98.5t-99 -39.5q-59 0 -98.5 39t-39.5 99z" />
<glyph unicode="&#x202f;" horiz-adv-x="369" />
<glyph unicode="&#x2039;" horiz-adv-x="518" d="M27 537l229 538h209l-223 -536l223 -539h-209z" />
<glyph unicode="&#x203a;" horiz-adv-x="518" d="M53 0l223 537l-223 538h209l230 -536l-230 -539h-209z" />
<glyph unicode="&#x205f;" horiz-adv-x="462" />
<glyph unicode="&#x2122;" horiz-adv-x="960" d="M25 1313v121h350v-121h-109v-692h-133v692h-108zM449 621v813h126l60 -256q12 -59 24.5 -115.5t18.5 -104.5q6 47 17.5 103.5t25.5 116.5l57 256h127v-813h-119v264q0 55 1 104t4 92q-8 -39 -20.5 -94t-27.5 -108l-65 -281l-68 281q-12 53 -25.5 107t-19.5 93 q0 -41 2 -91t2 -103v-264h-120z" />
<glyph unicode="&#xe000;" horiz-adv-x="1075" d="M0 0v1075h1075v-1075h-1075z" />
<glyph unicode="&#xfb01;" horiz-adv-x="841" d="M31 872v203h80v160q0 127 64.5 189.5t154.5 62.5q53 0 82.5 -2t58.5 -12v-199q-31 12 -76 12q-70 0 -69 -82v-129h116v-203h-116v-872h-215v872h-80zM528 1356q0 55 37 93t90 38t90 -38t37 -93q0 -53 -36.5 -91t-90.5 -38q-53 0 -90 38t-37 91zM545 0v1075h219v-1075 h-219z" />
<glyph unicode="&#xfb02;" horiz-adv-x="841" d="M31 872v203h80v160q0 127 64.5 189.5t154.5 62.5q53 0 82.5 -2t58.5 -12v-199q-31 12 -76 12q-70 0 -69 -82v-129h116v-203h-116v-872h-215v872h-80zM545 0v1397l219 96v-1493h-219z" />
</font>
</defs>
</svg>
