<?xml version="1.0" standalone="no"?>
<!DOCTYPE svg PUBLIC "-//W3C//DTD SVG 1.1//EN" "http://www.w3.org/Graphics/SVG/1.1/DTD/svg11.dtd" >
<svg xmlns="http://www.w3.org/2000/svg">
<metadata></metadata>
<defs>
<font id="interstateregular" horiz-adv-x="1351" >
<font-face units-per-em="2048" ascent="1638" descent="-410" />
<missing-glyph horiz-adv-x="387" />
<glyph horiz-adv-x="2048" />
<glyph horiz-adv-x="2048" />
<glyph unicode="&#xd;" horiz-adv-x="387" />
<glyph unicode=" "  horiz-adv-x="387" />
<glyph unicode="&#x09;" horiz-adv-x="387" />
<glyph unicode="&#xa0;" horiz-adv-x="387" />
<glyph unicode="!" horiz-adv-x="401" d="M45 131q0 70 43 113t113 43t111.5 -43t41.5 -113q0 -68 -42 -111t-111 -43q-70 0 -113 43t-43 111zM68 764v670h266v-670l-41 -381h-184z" />
<glyph unicode="&#x22;" horiz-adv-x="835" d="M70 1434h305l-58 -670h-190zM461 1434h305l-57 -670h-191z" />
<glyph unicode="#" horiz-adv-x="952" d="M53 307v228h115v364h-115v227h115v308h250v-308h117v308h249v-308h115v-227h-115v-364h115v-228h-115v-307h-249v307h-117v-307h-250v307h-115zM418 535h117v364h-117v-364z" />
<glyph unicode="$" horiz-adv-x="731" d="M31 385l270 51q6 -72 12 -116t13.5 -67.5t18.5 -31.5t26 -8q35 0 47 25.5t12 97.5q0 51 -7 89t-25.5 71.5t-47 65.5t-71.5 71q-70 57 -116 109.5t-73 105.5t-38 108.5t-11 116.5q0 133 48 222t144 126v148h269v-150q90 -33 133 -115.5t59 -218.5l-264 -53q-4 63 -10 100 t-14.5 56.5t-18.5 26t-25 6.5q-31 0 -43 -23.5t-12 -89.5q0 -37 6 -66.5t22.5 -56.5t43.5 -55.5t70 -65.5q74 -59 123 -115.5t78.5 -116t42 -126t12.5 -146.5q0 -135 -52.5 -224t-150.5 -124v-147h-269v147q-102 37 -146 133.5t-56 239.5z" />
<glyph unicode="%" horiz-adv-x="1499" d="M45 1008q0 219 71.5 333.5t213.5 114.5q141 0 210.5 -112.5t69.5 -331.5t-71.5 -334t-212.5 -115t-211 112.5t-70 332.5zM285 1012q0 -72 2 -118t7 -73.5t13 -38t23 -10.5q14 0 22 10.5t12.5 36t5.5 71.5t1 118t-2 117.5t-6.5 73.5t-12.5 38t-22 10t-22.5 -10 t-13.5 -35.5t-6 -72t-1 -117.5zM313 0l629 1434h244l-629 -1434h-244zM889 422q0 219 71.5 333.5t213.5 114.5q141 0 210.5 -112.5t69.5 -331.5t-71.5 -334t-213.5 -115q-141 0 -210.5 113t-69.5 332zM1128 426q0 -72 2.5 -118t7.5 -73.5t13 -38t23 -10.5q14 0 22 10.5 t12 36t5 71.5t1 118t-2 118t-6 73.5t-12 38t-23 10.5q-14 0 -22 -10.5t-13.5 -36t-6.5 -71.5t-1 -118z" />
<glyph unicode="&#x26;" horiz-adv-x="784" d="M29 348q0 121 38.5 232.5t125.5 226.5l-50 119q-29 66 -44 120t-15 113q0 139 81 218t212 79q72 0 121 -18.5t84.5 -56.5t59.5 -94t46 -132l-229 -78q-29 86 -45.5 117t-38.5 31q-45 0 -45 -58q0 -72 43 -172l121 -293q6 33 13 69t15 77l215 -47q-49 -266 -106 -434 l151 -367h-252l-34 84q-45 -57 -94.5 -82t-102.5 -25q-154 0 -212 95.5t-58 275.5zM272 367q0 -92 13.5 -127t36.5 -35q20 0 37.5 18.5t39.5 87.5l-98 254q-14 -45 -21.5 -98t-7.5 -100z" />
<glyph unicode="'" horiz-adv-x="452" d="M70 1434h313l-57 -670h-199z" />
<glyph unicode="(" horiz-adv-x="512" d="M39 618q0 137 19.5 255t55.5 220.5t87 193.5t114 179l183 -104q-90 -154 -129 -346.5t-39 -390.5q0 -205 39 -398.5t129 -347.5l-183 -104q-63 88 -114 179t-87 193.5t-55.5 219t-19.5 251.5z" />
<glyph unicode=")" horiz-adv-x="512" d="M14 -121q90 154 129 346.5t39 390.5q0 205 -39 398.5t-129 347.5l183 104q63 -88 114 -179t87 -193.5t55.5 -219t19.5 -251.5q0 -139 -19.5 -256t-55.5 -219.5t-87 -193.5t-114 -179z" />
<glyph unicode="*" horiz-adv-x="798" d="M37 997l254 84l-254 84l113 189l194 -180l-55 260h221l-55 -260l194 180l113 -189l-254 -84l254 -84l-113 -188l-194 180l55 -260h-221l55 260l-194 -180z" />
<glyph unicode="+" horiz-adv-x="776" d="M43 584v241h217v252h256v-252h217v-241h-217v-252h-256v252h-217z" />
<glyph unicode="," horiz-adv-x="425" d="M61 -227l31 508h273l-150 -508h-154z" />
<glyph unicode="-" horiz-adv-x="528" d="M59 618v263h408v-263h-408z" />
<glyph unicode="." horiz-adv-x="425" d="M55 135q0 72 44 116t116 44t115 -44t43 -116q0 -70 -43 -114t-115 -44t-116 44.5t-44 113.5z" />
<glyph unicode="/" horiz-adv-x="573" d="M-29 -184l369 1802h262l-369 -1802h-262z" />
<glyph unicode="0" horiz-adv-x="776" d="M43 715q0 383 79 562t267 179t266 -178t78 -559q0 -193 -18.5 -332t-60.5 -230t-108.5 -135.5t-160.5 -44.5t-159.5 43t-105.5 133.5t-58.5 229.5t-18.5 332zM324 719q0 -166 3 -264.5t10 -150.5t19.5 -67.5t30.5 -15.5q20 0 32.5 15.5t19.5 66.5t10.5 149.5t3.5 262.5 t-3.5 262t-10.5 150.5t-20 68.5t-32 16q-18 0 -30.5 -15t-19.5 -67.5t-10 -149.5t-3 -261z" />
<glyph unicode="1" horiz-adv-x="501" d="M14 1114v168q84 10 126 45t59 107h231v-1434h-280v1114h-136z" />
<glyph unicode="2" horiz-adv-x="739" d="M39 0q6 160 21.5 271.5t45 200.5t76.5 165t117 164q121 152 121 301q0 61 -10.5 86.5t-38.5 25.5q-16 0 -27.5 -7t-20 -26.5t-14.5 -53t-12 -87.5l-254 37q12 90 34.5 161t62.5 119t99.5 73.5t145.5 25.5q78 0 135.5 -26.5t94 -72.5t55 -109.5t18.5 -139.5 q0 -106 -38 -206.5t-124 -213.5q-53 -70 -90 -127t-59.5 -108.5t-33.5 -100.5t-13 -104h360v-248h-651z" />
<glyph unicode="3" horiz-adv-x="745" d="M31 369l260 32q8 -109 21.5 -147.5t45.5 -38.5q18 0 31.5 8t22 29.5t12.5 58.5t4 95q0 74 -6 119.5t-21.5 71.5t-44 34t-71.5 8h-56v238h62q35 0 59.5 10t38.5 37.5t20.5 73.5t6.5 118q0 57 -11.5 80t-46.5 23q-29 0 -42 -34t-27 -141l-252 37q10 86 33.5 156t62.5 119 t96.5 74.5t137.5 25.5q154 0 236.5 -91t82.5 -243q0 -160 -42 -240.5t-122 -109.5q37 -12 70 -31.5t56.5 -57.5t36.5 -100.5t13 -160.5q0 -209 -84 -327t-256 -118q-154 0 -231.5 99.5t-95.5 292.5z" />
<glyph unicode="4" horiz-adv-x="731" d="M16 309v183l377 942h250v-908h70v-221h-70v-305h-233v309h-394zM264 526h98h54v228q0 59 2 125.5t6 132.5q-16 -66 -31.5 -120t-38.5 -122l-24 -72q-20 -59 -35.5 -101t-30.5 -71z" />
<glyph unicode="5" horiz-adv-x="755" d="M41 365l262 32q12 -104 24.5 -143t45.5 -39q23 0 36 13.5t19 44t8 82t2 126.5q0 80 -4 133.5t-12 84t-23.5 43t-36.5 12.5q-35 0 -54 -22.5t-40 -74.5l-217 31l29 746h596v-244h-363l-14 -248q23 23 52.5 36t84.5 13q147 0 209 -123t62 -381q0 -250 -79 -380t-261 -130 q-150 0 -228 97.5t-98 290.5z" />
<glyph unicode="6" horiz-adv-x="745" d="M47 469q0 201 33 357.5t89 277.5t131 209t159 153l164 -194q-129 -92 -205 -205t-105 -242q27 35 61 55.5t81 20.5q121 0 187.5 -108.5t66.5 -341.5q0 -236 -91.5 -355t-244.5 -119q-154 0 -240 124t-86 368zM313 428q0 -125 16.5 -171t45.5 -46q31 0 47 46t16 173 q0 135 -14 186.5t-49 51.5t-48.5 -51.5t-13.5 -188.5z" />
<glyph unicode="7" horiz-adv-x="716" d="M23 1186v248h657v-242q-90 -147 -142.5 -277.5t-79 -266.5t-33.5 -292.5t-7 -355.5h-266q0 147 8 295.5t35.5 297t80 297t142.5 296.5h-395z" />
<glyph unicode="8" horiz-adv-x="745" d="M39 426q0 145 37 226t96 132q-51 41 -85 112t-34 181q0 78 21.5 146.5t62.5 121t100.5 82t135.5 29.5q82 0 142 -31.5t100 -84t59.5 -120t19.5 -141.5q0 -111 -33.5 -178t-87.5 -113q61 -49 97.5 -133t36.5 -227q0 -229 -89.5 -340t-248.5 -111q-150 0 -240 113t-90 336z M307 438q0 -68 4 -110.5t13.5 -67t21.5 -34t29 -9.5q14 0 26.5 9.5t20.5 33t13 65t5 109.5q0 129 -19.5 175t-49.5 46q-29 0 -46.5 -46t-17.5 -171zM311 1071q0 -78 16.5 -121t45.5 -43t45 41t16 117q0 96 -17.5 129t-43.5 33q-27 0 -44.5 -31t-17.5 -125z" />
<glyph unicode="9" horiz-adv-x="745" d="M37 983q0 236 91 354.5t245 118.5t239.5 -123.5t85.5 -367.5q0 -201 -32.5 -357.5t-89 -277.5t-131 -209t-158.5 -154l-164 195q129 92 204.5 204.5t104.5 241.5q-27 -35 -60.5 -55.5t-80.5 -20.5q-121 0 -187.5 109t-66.5 342zM307 1004q0 -135 14.5 -186.5t49.5 -51.5 q16 0 28.5 11t19.5 39t10 74t3 116q0 125 -16.5 171t-44.5 46q-31 0 -47.5 -46.5t-16.5 -172.5z" />
<glyph unicode=":" horiz-adv-x="425" d="M55 135q0 72 44 116t116 44t115 -44t43 -116t-43 -115t-115 -43t-116 43t-44 115zM55 940q0 72 44 115t116 43t115 -43t43 -115t-43 -116t-115 -44t-116 44t-44 116z" />
<glyph unicode=";" horiz-adv-x="425" d="M49 -227l31 508h270l-149 -508h-152zM55 940q0 70 44 114t116 44t115 -44t43 -114q0 -72 -43 -116t-115 -44t-116 44t-44 116z" />
<glyph unicode="&#x3c;" horiz-adv-x="552" d="M47 580v249l442 437v-351l-233 -208l233 -211v-353z" />
<glyph unicode="=" horiz-adv-x="829" d="M86 373v256h657v-256h-657zM86 780v256h657v-256h-657z" />
<glyph unicode="&#x3e;" horiz-adv-x="552" d="M63 143v351l234 208l-234 211v353l443 -437v-249z" />
<glyph unicode="?" horiz-adv-x="688" d="M18 1077q12 92 36 163t64 119t99 72.5t143 24.5q154 0 229 -97t75 -253q0 -113 -37 -204t-95 -169q-35 -47 -56 -85t-32.5 -77t-15.5 -83t-4 -105h-240q0 90 6.5 155.5t20.5 118t38.5 97.5t61.5 96q43 59 69 123.5t26 130.5q0 59 -10.5 84.5t-37.5 25.5q-39 0 -51 -36.5 t-24 -137.5zM147 131q0 70 43 113t113 43t112 -43t42 -113q0 -68 -42 -111t-112 -43t-113 43t-43 111z" />
<glyph unicode="@" horiz-adv-x="989" d="M45 717q0 174 29.5 311t87 232.5t141.5 145.5t193 50t192.5 -52t140 -147.5t86 -227.5t29.5 -292q0 -123 -13 -203.5t-38 -130t-60.5 -69t-80.5 -19.5q-63 0 -103.5 23.5t-64.5 56.5q-72 -84 -148 -84q-80 0 -117.5 69t-37.5 200q0 272 151 272q35 0 56.5 -7t46.5 -28v90 q0 51 -11.5 70.5t-50.5 19.5q-29 0 -53.5 -9t-59.5 -36l-57 119q41 35 93.5 57.5t105.5 22.5q90 0 137 -50t47 -163v-387q0 -66 12.5 -93.5t44.5 -27.5q18 0 33 11.5t25 44t15 94t5 159.5q0 301 -87 451.5t-238 150.5q-166 0 -247 -158.5t-81 -463.5t81 -466t253 -161 q47 0 90 16.5t76 41.5l55 -97q-43 -35 -101.5 -55.5t-125.5 -20.5q-109 0 -193 50.5t-141.5 145.5t-87 232.5t-29.5 311.5zM432 582q0 -70 12.5 -93.5t40.5 -23.5q18 0 28.5 7t21.5 17v193q-23 16 -52 16t-40 -20.5t-11 -95.5z" />
<glyph unicode="A" horiz-adv-x="772" d="M14 0l222 1434h303l219 -1434h-275l-28 279h-136l-26 -279h-279zM336 522h96l-8 94q-4 49 -9 109.5t-11.5 126.5t-11.5 132.5t-9 127.5q-4 -61 -8 -127.5t-9.5 -133.5t-11.5 -127t-10 -110z" />
<glyph unicode="B" horiz-adv-x="774" d="M66 0v1434h329q160 0 246 -92.5t86 -290.5q0 -119 -41 -192t-119 -114q78 -39 125 -112.5t47 -212.5q0 -199 -85 -309.5t-269 -110.5h-319zM340 219h33q47 0 65.5 43t18.5 154q0 119 -19.5 168t-72.5 49h-25v-414zM340 854h31q41 0 59.5 43t18.5 141q0 102 -17.5 139 t-66.5 37h-25v-360z" />
<glyph unicode="C" horiz-adv-x="792" d="M45 713q0 201 21.5 342t65.5 230t112.5 130t165.5 41q94 0 156.5 -35t99 -96t54 -148t23.5 -192l-278 -41q-4 78 -6 129t-8.5 82t-15.5 44t-27 13q-20 0 -34 -17t-21 -69.5t-10 -148.5t-3 -256q0 -166 3 -264.5t11 -150.5t21.5 -68.5t36.5 -16.5q14 0 23 9.5t16.5 37 t12.5 80.5t9 139l275 -41q-12 -123 -35 -212t-63 -146t-99 -84t-145 -27q-92 0 -161 39t-113 127t-65.5 227.5t-21.5 342.5z" />
<glyph unicode="D" horiz-adv-x="808" d="M66 0v1434h329q109 0 179.5 -48.5t112.5 -138.5t59.5 -222t17.5 -298q0 -371 -94.5 -549t-298.5 -178h-305zM346 227h21q27 0 46 15.5t31.5 67.5t18.5 150.5t6 262.5q0 162 -5 258t-17.5 145.5t-31 63.5t-44.5 14h-25v-977z" />
<glyph unicode="E" horiz-adv-x="696" d="M66 0v1434h581v-254h-295v-297h226v-254h-226v-375h307v-254h-593z" />
<glyph unicode="F" horiz-adv-x="686" d="M66 0v1434h583v-254h-297v-297h230v-254h-230v-629h-286z" />
<glyph unicode="G" horiz-adv-x="806" d="M45 717q0 199 20.5 339t65.5 229t114.5 130t166.5 41q90 0 150.5 -32.5t98 -92t57 -143.5t25.5 -187l-278 -49q-4 80 -6 130.5t-8.5 79t-16.5 39.5t-26 11q-20 0 -34 -17t-21 -69.5t-10 -149.5t-3 -259q0 -158 3 -255t10 -150.5t21.5 -72t39.5 -18.5q41 0 53 39t12 143 v117h-73v230h348v-275q0 -109 -18.5 -200t-60.5 -157.5t-108.5 -103.5t-160.5 -37q-96 0 -165 42t-112 131.5t-63.5 229.5t-20.5 337z" />
<glyph unicode="H" horiz-adv-x="831" d="M66 0v1434h286v-547h131v547h287v-1434h-287v633h-131v-633h-286z" />
<glyph unicode="I" horiz-adv-x="421" d="M68 0v1434h286v-1434h-286z" />
<glyph unicode="J" horiz-adv-x="761" d="M16 377l277 55q2 -66 5 -106.5t11 -63t19.5 -32t29.5 -9.5q31 0 43.5 31t12.5 108v1074h286v-1035q0 -215 -82.5 -318.5t-263.5 -103.5q-90 0 -151.5 30t-101.5 82t-60.5 126t-24.5 162z" />
<glyph unicode="K" horiz-adv-x="800" d="M66 0v1434h286v-168q0 -106 -1 -193.5t-5 -173.5q10 43 22.5 91t25 97.5t24.5 95.5t24 85l50 166h288l-180 -535l184 -899h-295l-114 596l-23 -74v-522h-286z" />
<glyph unicode="L" horiz-adv-x="638" d="M66 0v1434h286v-1180h256v-254h-542z" />
<glyph unicode="M" horiz-adv-x="983" d="M66 0v1434h258l75 -322q29 -121 54.5 -239.5t38.5 -210.5q12 92 38.5 212.5t55.5 239.5l73 320h259v-1434h-248v295q0 125 3 236.5t7 209.5q-8 -43 -20.5 -99t-27 -116.5t-29.5 -124t-30 -120.5l-81 -324l-82 324q-14 57 -29.5 119.5t-30 124t-26 117.5t-19.5 99 q4 -94 7 -208.5t3 -237.5v-295h-249z" />
<glyph unicode="N" horiz-adv-x="835" d="M66 0v1434h247l70 -211q20 -61 40.5 -128t39 -129.5t34 -117.5t23.5 -92q-2 35 -4 89t-4 115.5t-3 124t-1 117.5v232h262v-1434h-225l-103 330q-18 61 -36.5 124.5t-35 124t-29.5 112.5t-22 89q2 -37 3.5 -87t2.5 -106.5t2 -116.5t1 -118v-352h-262z" />
<glyph unicode="O" horiz-adv-x="817" d="M45 715q0 199 21.5 340t65.5 230t112.5 130t165.5 41q94 0 162.5 -41t113.5 -129t65.5 -228t20.5 -339q0 -201 -21.5 -341t-65.5 -229.5t-113.5 -130.5t-165.5 -41t-164 40t-112 129.5t-64.5 228.5t-20.5 340zM340 719q0 -164 3 -261.5t10 -150.5t20.5 -69.5t34.5 -16.5 q20 0 33.5 16.5t21.5 67.5t11 148.5t3 261.5q0 162 -3 260t-11 151.5t-21.5 69.5t-33.5 16t-34 -16t-21 -67.5t-10 -149.5t-3 -260z" />
<glyph unicode="P" horiz-adv-x="765" d="M66 0v1434h350q66 0 125 -20.5t105 -70t72.5 -129t26.5 -198.5t-26.5 -203t-73.5 -137t-111.5 -78t-140.5 -25h-47v-573h-280zM346 797h25q51 0 69.5 48t18.5 161q0 119 -17.5 162.5t-66.5 43.5h-29v-415z" />
<glyph unicode="Q" horiz-adv-x="817" d="M45 715q0 199 21.5 340t65.5 230t112.5 130t165.5 41q94 0 162.5 -41t113.5 -129t65.5 -228t20.5 -339q0 -340 -80 -524l99 -115l-203 -182l-80 98q-47 -18 -102 -19q-96 0 -164 40t-112 129.5t-64.5 228.5t-20.5 340zM340 719q0 -164 3 -261.5t10 -150.5t20.5 -69.5 t34.5 -16.5q20 0 33.5 16.5t21.5 67.5t11 148.5t3 261.5q0 162 -3 260t-11 151.5t-21.5 69.5t-33.5 16t-34 -16t-21 -67.5t-10 -149.5t-3 -260z" />
<glyph unicode="R" horiz-adv-x="792" d="M66 0v1434h350q68 0 128 -21.5t104 -70t70.5 -126t26.5 -188.5q0 -119 -30.5 -202t-87.5 -134l131 -692h-287l-100 612h-25v-612h-280zM346 825h25q51 0 69.5 44.5t18.5 148.5q0 111 -17.5 152.5t-66.5 41.5h-29v-387z" />
<glyph unicode="S" horiz-adv-x="731" d="M31 385l270 51q6 -72 12 -116t13.5 -68.5t18.5 -33.5t26 -9q35 0 47 27.5t12 99.5q0 51 -7 89t-25.5 71.5t-47 65.5t-71.5 71q-70 57 -116 109.5t-73 105.5t-38 108.5t-11 116.5q0 86 20.5 155.5t60.5 121t100.5 79t139.5 27.5q162 0 237 -96t95 -275l-264 -53 q-4 63 -10 101t-14.5 58.5t-18.5 27t-25 6.5q-31 0 -43 -25.5t-12 -91.5q0 -37 6 -66.5t22.5 -56.5t43.5 -55.5t70 -65.5q74 -59 123 -115.5t78.5 -116t42 -126t12.5 -146.5q0 -176 -86.5 -279.5t-249.5 -103.5q-90 0 -151.5 30t-100.5 83t-58.5 128t-27.5 167z" />
<glyph unicode="T" horiz-adv-x="688" d="M20 1180v254h650v-254h-183v-1180h-286v1180h-181z" />
<glyph unicode="U" horiz-adv-x="827" d="M61 377v1057h287v-1078q0 -76 16.5 -105.5t51.5 -29.5t49 30t14 105v1078h287v-1043q0 -203 -84 -308.5t-272 -105.5q-174 0 -261.5 105.5t-87.5 294.5z" />
<glyph unicode="V" horiz-adv-x="759" d="M16 1434h281l45 -455q6 -72 12 -153t11.5 -160.5t9.5 -154.5t8 -132q2 57 5 132t8 154.5t10.5 161.5t11.5 154l39 453h284l-219 -1434h-284z" />
<glyph unicode="W" horiz-adv-x="1048" d="M20 1434h261l22 -285q4 -59 9 -127t9.5 -141.5t7.5 -148.5t5 -144q4 70 10 145.5t13.5 148t13.5 141.5t12 126l27 285h229l29 -285q6 -57 13 -126t13 -141.5t12.5 -148.5t10.5 -145q2 70 6 144.5t8 148t8 141.5t9 127l20 285h262l-156 -1434h-266l-28 254 q-18 160 -34 309.5t-22 259.5q-6 -111 -20.5 -259t-32.5 -308l-31 -256h-266z" />
<glyph unicode="X" horiz-adv-x="749" d="M14 0l205 735l-194 699h284l21 -107q18 -98 29.5 -180t19.5 -160q8 78 19.5 161t29.5 179l21 107h276l-195 -691l207 -743h-284l-27 147q-18 100 -31.5 185.5t-21.5 159.5q-10 -74 -23.5 -159t-32.5 -186l-26 -147h-277z" />
<glyph unicode="Y" horiz-adv-x="780" d="M8 1434h299l29 -164q23 -127 39 -241t20 -214q4 100 20.5 214t37.5 241l26 164h293l-235 -859v-575h-289v567z" />
<glyph unicode="Z" horiz-adv-x="679" d="M39 0v233l199 639q12 39 26.5 84t29.5 89.5t28.5 82t21.5 60.5q-33 0 -73 -1t-87 -1h-131v248h586v-234l-199 -637q-12 -39 -27.5 -85t-29.5 -90t-27.5 -82t-21.5 -60q35 0 72.5 1t85.5 1h147v-248h-600z" />
<glyph unicode="[" horiz-adv-x="563" d="M66 -190v1624h436v-234h-168v-1157h168v-233h-436z" />
<glyph unicode="\" horiz-adv-x="573" d="M-29 1618h262l369 -1802h-262z" />
<glyph unicode="]" horiz-adv-x="563" d="M61 43h168v1157h-168v234h437v-1624h-437v233z" />
<glyph unicode="^" horiz-adv-x="716" d="M27 782l213 652h237l213 -652h-260l-74 371l-71 -371h-258z" />
<glyph unicode="_" horiz-adv-x="501" d="M0 -137h502v-221h-502v221z" />
<glyph unicode="`" horiz-adv-x="675" d="M82 1526h293l147 -328h-180z" />
<glyph unicode="a" horiz-adv-x="710" d="M29 332q0 182 58 271t187 89q39 0 67 -8t48 -20v116q0 45 -13.5 64.5t-51.5 19.5q-41 0 -86 -21.5t-103 -62.5l-82 197q61 49 145.5 85t170.5 36q143 0 218 -64.5t75 -222.5v-811h-273v51q-33 -37 -67.5 -55.5t-83.5 -18.5q-111 0 -160 85t-49 270zM283 336 q0 -86 11 -119t44 -33q35 0 51 17v278q-10 8 -21.5 11.5t-31.5 3.5q-29 0 -41 -32t-12 -126z" />
<glyph unicode="b" horiz-adv-x="727" d="M53 0v1395l262 98v-469q25 31 62 52.5t86 21.5q123 0 174 -142.5t51 -410.5q0 -295 -57.5 -431.5t-169.5 -136.5q-41 0 -79 19.5t-67 50.5v-47h-262zM315 233q10 -10 22.5 -17t29.5 -7q14 0 25 8t18.5 42t10.5 99.5t3 180.5q0 113 -3 178t-10.5 99t-18.5 43t-25 9 q-27 0 -52 -24v-611z" />
<glyph unicode="c" horiz-adv-x="694" d="M39 530q0 156 20.5 264.5t62.5 176t102.5 97.5t140.5 30q74 0 127 -28t87.5 -77t54 -118.5t28.5 -151.5l-244 -47q-6 113 -16.5 151.5t-39.5 38.5q-18 0 -29 -13t-18.5 -50t-9.5 -101.5t-2 -166.5q0 -100 2 -164t9.5 -99.5t18.5 -49t29 -13.5q12 0 21.5 8t17 29.5 t13.5 61.5t12 106l240 -62q-25 -190 -97.5 -282.5t-208.5 -92.5q-72 0 -131 29t-101 93.5t-65.5 170t-23.5 260.5z" />
<glyph unicode="d" horiz-adv-x="727" d="M41 530q0 295 56.5 431.5t168.5 136.5q41 0 80 -19.5t68 -50.5v367l260 98v-1493h-260v51q-25 -31 -63 -52.5t-87 -21.5q-123 0 -173 142.5t-50 410.5zM303 537q0 -113 3 -178.5t11.5 -99.5t18.5 -43t26 -9q23 0 52 24v611q-10 10 -23.5 17t-30.5 7q-14 0 -25 -8 t-18.5 -42t-10.5 -99.5t-3 -179.5z" />
<glyph unicode="e" horiz-adv-x="706" d="M39 530q0 274 71.5 421t249.5 147q160 0 234 -138.5t74 -418.5v-80h-375q0 -84 5 -137.5t12 -82t19.5 -38.5t28.5 -10q27 0 40.5 31.5t31.5 129.5l232 -59q-18 -70 -42 -128t-60 -100t-87 -66t-125 -24q-160 0 -234.5 141.5t-74.5 411.5zM293 647h125q-2 72 -6 119 t-11.5 75.5t-18.5 40t-26 11.5q-16 0 -26.5 -9.5t-18.5 -37t-12 -75.5t-6 -124z" />
<glyph unicode="f" horiz-adv-x="489" d="M29 842v233h75v162q0 63 19.5 110.5t51.5 78t74 46t87 15.5q66 0 99.5 -3t62.5 -11v-226q-35 12 -76 13q-61 0 -62 -72v-113h109v-233h-109v-842h-256v842h-75z" />
<glyph unicode="g" horiz-adv-x="727" d="M41 530q0 295 56.5 431.5t168.5 136.5q41 0 80 -19.5t68 -50.5v47h260v-1012q0 -121 -25.5 -200.5t-80 -130.5t-140.5 -80t-207 -47l-51 200q78 14 126 29.5t73.5 40.5t35 61.5t9.5 96.5v18q-25 -31 -63 -52.5t-87 -21.5q-123 0 -173 142.5t-50 410.5zM303 537 q0 -113 3 -178.5t11.5 -99.5t18.5 -43t26 -9q23 0 52 24v611q-10 10 -23.5 17t-30.5 7q-14 0 -25 -8t-18.5 -42t-10.5 -99.5t-3 -179.5z" />
<glyph unicode="h" horiz-adv-x="729" d="M53 0v1395l262 98v-471q33 33 72 54.5t98 21.5q90 0 142.5 -51.5t52.5 -182.5v-864h-260v801q0 65 -40 65h-1q-20 0 -33.5 -6t-30.5 -16v-844h-262z" />
<glyph unicode="i" horiz-adv-x="372" d="M43 1341q0 66 39 106t104 40q66 0 105 -40t39 -106q0 -63 -39 -103t-105 -40t-104.5 40t-38.5 103zM55 0v1075h262v-1075h-262z" />
<glyph unicode="j" horiz-adv-x="372" d="M-86 -197q45 10 72.5 19.5t43 24t20.5 36t5 56.5v1136h262v-1106q0 -104 -21.5 -167.5t-65.5 -102.5t-112.5 -59.5t-162.5 -34.5zM43 1341q0 66 39 106t104 40q66 0 105 -40t39 -106q0 -63 -39 -103t-105 -40t-104.5 40t-38.5 103z" />
<glyph unicode="k" horiz-adv-x="716" d="M53 0v1395l262 98v-506q0 -74 -2 -143.5t-6 -130.5q8 31 20.5 67.5t26 74.5t27.5 76t27 70l30 74h258l-161 -344l167 -731h-266l-88 455l-33 -78v-377h-262z" />
<glyph unicode="l" horiz-adv-x="372" d="M55 0v1395l262 98v-1493h-262z" />
<glyph unicode="m" horiz-adv-x="1091" d="M53 0v1075h262v-53q31 33 71 54.5t99 21.5q66 0 104 -17.5t70 -64.5q43 41 87.5 61.5t101.5 20.5q92 0 143 -50.5t51 -181.5v-866h-262v801q0 65 -38 65h-1q-18 0 -32.5 -6t-30.5 -16v-844h-260v801q0 65 -38 65h-1q-20 0 -33.5 -6t-30.5 -16v-844h-262z" />
<glyph unicode="n" horiz-adv-x="729" d="M53 0v1075h262v-53q33 33 72 54.5t98 21.5q90 0 142.5 -51.5t52.5 -182.5v-864h-260v801q0 65 -40 65h-1q-20 0 -33.5 -6t-30.5 -16v-844h-262z" />
<glyph unicode="o" horiz-adv-x="722" d="M39 532q0 133 15.5 237.5t53 177.5t100 112t159.5 39q174 0 246.5 -142.5t72.5 -414.5q0 -274 -73.5 -419t-254.5 -145q-170 0 -244.5 140.5t-74.5 414.5zM303 541q0 -100 2 -165t8 -102.5t18.5 -52t33.5 -14.5q18 0 29.5 14.5t18.5 51t9 100.5t2 162q0 102 -3 167.5 t-9 102.5t-18.5 50t-31.5 13q-18 0 -30.5 -14t-18.5 -51t-8 -100.5t-2 -161.5z" />
<glyph unicode="p" horiz-adv-x="727" d="M53 -395v1470h262v-51q25 31 62 52.5t86 21.5q123 0 174 -142.5t51 -410.5q0 -295 -57.5 -431.5t-169.5 -136.5q-41 0 -79 19.5t-67 50.5v-344zM315 233q10 -10 22.5 -17t29.5 -7q14 0 25 8t18.5 42t10.5 99.5t3 180.5q0 113 -3 178t-10.5 99t-18.5 43t-25 9 q-27 0 -52 -24v-611z" />
<glyph unicode="q" horiz-adv-x="727" d="M41 530q0 295 56.5 431.5t168.5 136.5q41 0 80 -19.5t68 -50.5v47h260v-1372l-260 -98v446q-25 -31 -63 -52.5t-87 -21.5q-123 0 -173 142.5t-50 410.5zM303 537q0 -113 3 -178.5t11.5 -99.5t18.5 -43t26 -9q23 0 52 24v611q-10 10 -23.5 17t-30.5 7q-14 0 -25 -8 t-18.5 -42t-10.5 -99.5t-3 -179.5z" />
<glyph unicode="r" horiz-adv-x="552" d="M53 0v1075h262v-53q27 35 60 55.5t74 20.5q37 0 54 -4t34 -11l-25 -274q-27 20 -49.5 28.5t-54.5 8.5q-57 0 -93 -37v-809h-262z" />
<glyph unicode="s" horiz-adv-x="663" d="M29 254l219 78q20 -84 38.5 -117t43.5 -33q57 0 57 70q0 33 -5 57.5t-20.5 46t-41 43t-64.5 47.5q-66 43 -108 84t-66.5 84t-33.5 88.5t-9 98.5q0 135 74.5 216t216.5 81q125 0 187.5 -64.5t98.5 -185.5l-215 -78q-18 63 -34.5 93t-40.5 30q-51 0 -52 -57 q0 -29 7.5 -51.5t24 -42t44 -41t68.5 -48.5q66 -45 107.5 -88t65 -88t32 -94t8.5 -104q0 -150 -87 -226t-225 -76q-133 0 -196.5 75t-93.5 202z" />
<glyph unicode="t" horiz-adv-x="528" d="M27 842v233h75v322l256 96v-418h131v-233h-131v-551q0 -74 52 -74q29 0 47 6t43 19l-23 -234q-39 -16 -75.5 -23.5t-82.5 -7.5q-104 0 -160.5 56.5t-56.5 177.5v631h-75z" />
<glyph unicode="u" horiz-adv-x="729" d="M49 211v864h260v-801q0 -65 40 -65h1q20 0 34.5 6t31.5 16v844h260v-1075h-260v53q-33 -33 -73 -54.5t-99 -21.5q-90 0 -142.5 50.5t-52.5 183.5z" />
<glyph unicode="v" horiz-adv-x="710" d="M14 1075h271l18 -153q8 -66 15.5 -144t14.5 -160.5t13 -165.5t10 -157q4 76 10.5 159t13.5 165.5t14 159.5t16 143l18 153h268l-207 -1075h-268z" />
<glyph unicode="w" horiz-adv-x="1013" d="M23 1075h239l12 -143q4 -49 10.5 -124t11.5 -155t9 -154.5t6 -125.5q2 51 9.5 125.5t16.5 153.5t17 153t15 121l18 149h244l18 -149q6 -47 14.5 -121t17.5 -153t15 -153.5t11 -125.5q2 51 7 126.5t10 155.5t10 154t9 123l13 143h237l-141 -1075h-264l-21 150 q-23 154 -36 294t-23 269q-10 -129 -24.5 -269.5t-37.5 -293.5l-20 -150h-262z" />
<glyph unicode="x" horiz-adv-x="708" d="M10 0l203 549l-190 526h266l14 -57q14 -57 27.5 -119.5t21.5 -116.5q8 53 22.5 117t28.5 119l15 57h268l-190 -518l202 -557h-268l-24 100q-14 57 -27.5 121t-24.5 115q-10 -53 -22.5 -116.5t-26.5 -119.5l-24 -100h-271z" />
<glyph unicode="y" horiz-adv-x="714" d="M14 1075h271l16 -153q6 -66 15.5 -144t16.5 -160.5t14 -165.5t11 -157q4 74 10.5 157t13.5 165.5t15.5 160.5t16.5 144l18 153h268l-294 -1454h-259l93 363z" />
<glyph unicode="z" horiz-adv-x="630" d="M35 0v211l176 422q23 55 51.5 116.5t48.5 102.5q-35 -2 -78 -2h-86h-84v225h525v-211l-178 -422q-23 -53 -51.5 -116.5t-47.5 -102.5q35 2 78 2h86h113v-225h-553z" />
<glyph unicode="{" horiz-adv-x="604" d="M16 502v227h47q53 0 78 34t25 109v207q0 94 20.5 166t68.5 118t125 69.5t187 23.5v-227q-82 -6 -107.5 -37t-25.5 -111v-145q0 -72 -6 -125t-23.5 -91t-48 -62.5t-77.5 -41.5q47 -16 77.5 -41.5t48 -63.5t23.5 -91t6 -125v-145q0 -80 25.5 -111t107.5 -37v-227 q-111 0 -187.5 23.5t-124.5 69.5t-68.5 116.5t-20.5 167.5v206q0 76 -24.5 110t-78.5 34h-47z" />
<glyph unicode="|" horiz-adv-x="421" d="M80 -379v2017h262v-2017h-262z" />
<glyph unicode="}" horiz-adv-x="604" d="M37 2q82 6 107.5 37t25.5 111v145q0 72 6 125t23.5 91t48.5 62.5t78 40.5q-47 16 -78 42t-48.5 64t-23.5 91t-6 125v145q0 80 -25.5 111t-107.5 37v227q111 0 187.5 -23.5t124.5 -69.5t68.5 -117.5t20.5 -166.5v-207q0 -76 24.5 -109.5t78.5 -33.5h47v-227h-47 q-53 0 -78 -34t-25 -110v-206q0 -96 -20.5 -167t-68.5 -117t-125 -69.5t-187 -23.5v227z" />
<glyph unicode="~" horiz-adv-x="768" d="M29 639q35 160 89 224.5t146 64.5q66 0 102.5 -22.5t73.5 -57.5q16 -16 26.5 -23.5t22.5 -7.5q8 0 14.5 2t12.5 13.5t13.5 35t19.5 66.5l190 -39q-35 -160 -89 -224.5t-146 -64.5q-66 0 -102.5 22.5t-73.5 57.5q-16 16 -26.5 23.5t-22.5 7.5q-8 0 -14.5 -2t-12.5 -13.5 t-13.5 -35t-19.5 -66.5z" />
<glyph unicode="&#xa1;" horiz-adv-x="401" d="M47 1303q0 68 42 110.5t112 42.5t112.5 -42.5t42.5 -110.5q0 -70 -43 -113t-112 -43q-70 0 -112 43t-42 113zM68 0v670l41 381h184l41 -381v-670h-266z" />
<glyph unicode="&#xa2;" horiz-adv-x="694" d="M39 721q0 240 48 368t142 171v196h260v-194q82 -41 121 -131.5t52 -217.5l-244 -47q-6 113 -16.5 152t-39.5 39q-18 0 -29 -13.5t-18.5 -50.5t-9.5 -101.5t-2 -166.5q0 -100 2 -163.5t9.5 -99.5t18.5 -49.5t29 -13.5q12 0 21.5 8.5t17 30t13.5 61.5t12 105l240 -61 q-37 -274 -177 -346v-220h-260v220q-88 43 -139 166.5t-51 357.5z" />
<glyph unicode="&#xa3;" horiz-adv-x="757" d="M49 0v246q25 39 44.5 73.5t33.5 69.5t23.5 75t13.5 91h-94v217h75q-8 29 -19 57.5t-24 57.5q-18 41 -31.5 90t-13.5 113q0 74 18.5 139t58.5 116.5t101.5 81t147.5 29.5q154 0 233.5 -99.5t98.5 -291.5l-260 -33q-4 57 -10.5 94t-14.5 57.5t-20.5 28t-30.5 7.5 q-33 0 -43 -28t-10 -87q0 -45 9 -89t21 -73q16 -39 29.5 -81t24.5 -89h168v-217h-160q-4 -49 -11.5 -89t-19.5 -75t-29.5 -69.5t-38.5 -73.5h383v-248h-653z" />
<glyph unicode="&#xa4;" d="M20 725l310 266q43 35 78 15q18 -14 22 -32t-4 -52l-18 -76h147v252l-76 -19q-35 -8 -52 -4t-32 23q-20 35 15 78l266 309l266 -309q35 -43 14 -78q-25 -33 -84 -19l-75 19v-252h147l-18 76q-8 35 -4 52t22 32q35 20 78 -15l309 -266l-309 -266q-43 -35 -78 -15 q-33 25 -18 84l18 76h-147v-268l75 18q35 8 52.5 4t31.5 -22q20 -35 -14 -78l-266 -309l-266 309q-35 43 -15 78q14 18 31.5 22t52.5 -4l76 -18v268h-147l18 -76q8 -35 4 -52t-22 -32q-35 -20 -78 15z" />
<glyph unicode="&#xa5;" horiz-adv-x="780" d="M8 1434h299l29 -164q23 -127 39 -241t20 -214q4 100 20.5 214t37.5 241l26 164h293l-242 -879v-94h170v-246h-170v-215h-276v215h-170v246h170v86z" />
<glyph unicode="&#xa6;" d="M20 725l310 266q43 35 78 15q18 -14 22 -32t-4 -52l-18 -76h147v252l-76 -19q-35 -8 -52 -4t-32 23q-20 35 15 78l266 309l266 -309q35 -43 14 -78q-25 -33 -84 -19l-75 19v-252h147l-18 76q-8 35 -4 52t22 32q35 20 78 -15l309 -266l-309 -266q-43 -35 -78 -15 q-33 25 -18 84l18 76h-147v-268l75 18q35 8 52.5 4t31.5 -22q20 -35 -14 -78l-266 -309l-266 309q-35 43 -15 78q14 18 31.5 22t52.5 -4l76 -18v268h-147l18 -76q8 -35 4 -52t-22 -32q-35 -20 -78 15z" />
<glyph unicode="&#xa7;" horiz-adv-x="839" d="M61 571q0 92 30 165t77 132q-35 47 -55.5 105.5t-20.5 130.5t19.5 135.5t60.5 111.5t103.5 76.5t148.5 28.5q152 0 234.5 -99.5t101.5 -291.5l-260 -33q-12 96 -27.5 141.5t-54.5 45.5q-37 0 -51.5 -27t-14.5 -76q0 -47 27 -92t98 -90q57 -37 111.5 -72t96.5 -78 t67.5 -99t25.5 -136q0 -92 -29.5 -166t-76.5 -133q35 -47 55.5 -104.5t20.5 -129.5t-19.5 -135t-60.5 -111.5t-103.5 -77t-148.5 -28.5q-152 0 -235 99.5t-101 291.5l260 33q12 -96 27.5 -141t54.5 -45q37 0 51 26.5t14 75.5q0 47 -26.5 92t-98.5 90q-57 37 -111 72t-96 78 t-68 99.5t-26 135.5zM322 604q0 -68 44 -113t121 -90l13 -6q18 51 18 121q0 68 -44 113t-122 90l-12 6q-18 -53 -18 -121z" />
<glyph unicode="&#xa8;" horiz-adv-x="675" d="M29 1331q0 59 41 100.5t100 41.5t100 -41.5t41 -100.5t-41 -100t-100 -41t-100 41t-41 100zM365 1331q0 59 40.5 100.5t100.5 41.5q59 0 100 -41.5t41 -100.5t-41 -100t-100 -41t-100 41t-41 100z" />
<glyph unicode="&#xa9;" horiz-adv-x="989" d="M45 717q0 166 27.5 302t84 233.5t140.5 150.5t197 53t196.5 -53t140 -150.5t85 -233.5t28.5 -302t-28.5 -302t-85 -233.5t-140.5 -151t-196 -53.5q-113 0 -197 53.5t-140.5 151t-84 233.5t-27.5 302zM168 717q0 -135 17.5 -250t56.5 -198t101.5 -130t150.5 -47t150.5 47 t101 130t57 198t18.5 250t-18.5 249.5t-57 197.5t-101 130t-150.5 47t-150.5 -47t-101.5 -130t-56.5 -197.5t-17.5 -249.5zM289 717q0 229 49 326.5t158 97.5q53 0 89 -19.5t57.5 -55.5t30.5 -85t13 -109l-158 -22q-4 88 -8 121t-24 33q-12 0 -19.5 -10.5t-12.5 -40t-6 -85 t-1 -145.5q0 -94 2 -150.5t6 -86t12 -39t21 -9.5q8 0 13 5.5t9 20.5t7 46t5 80l156 -25q-14 -141 -55 -203.5t-139 -62.5q-53 0 -92.5 22.5t-64 71.5t-36.5 129t-12 195z" />
<glyph unicode="&#xaa;" horiz-adv-x="645" d="M66 844q0 145 46 217t150 72q31 0 53.5 -7.5t38.5 -17.5v94q0 35 -11 51.5t-42 16.5q-35 0 -69.5 -16.5t-81.5 -51.5l-66 158q49 39 117.5 67.5t136.5 28.5q117 0 175 -51t58 -178v-649h-217v40q-27 -29 -54.5 -44t-68.5 -15q-86 0 -125.5 68.5t-39.5 216.5zM268 846 q0 -68 9.5 -94.5t35.5 -26.5q27 0 41 14v222q-10 6 -18 9t-25 3q-23 0 -33 -25.5t-10 -101.5z" />
<glyph unicode="&#xab;" horiz-adv-x="921" d="M27 537l204 538h250l-194 -536l194 -539h-250zM414 537l204 538h250l-194 -536l194 -539h-250z" />
<glyph unicode="&#xac;" horiz-adv-x="778" d="M41 598v254h328l-17 70q-8 35 -4 52t23 32q35 20 78 -15l309 -266l-309 -266q-43 -35 -78 -15q-18 14 -22.5 32t3.5 52l17 70h-328z" />
<glyph unicode="&#xad;" horiz-adv-x="528" d="M59 618v263h408v-263h-408z" />
<glyph unicode="&#xae;" horiz-adv-x="989" d="M45 717q0 166 27.5 302t84 233.5t140.5 150.5t197 53t196.5 -53t140 -150.5t85 -233.5t28.5 -302t-28.5 -302t-85 -233.5t-140.5 -151t-196 -53.5q-113 0 -197 53.5t-140.5 151t-84 233.5t-27.5 302zM168 717q0 -135 17.5 -250t56.5 -198t101.5 -130t150.5 -47t150.5 47 t101 130t57 198t18.5 250t-18.5 249.5t-57 197.5t-101 130t-150.5 47t-150.5 -47t-101.5 -130t-56.5 -197.5t-17.5 -249.5zM311 328v817h201q39 0 72.5 -12.5t59.5 -40t41 -71.5t15 -108q0 -131 -67 -192l74 -393h-164l-58 348h-14v-348h-160zM471 797h14q29 0 40.5 25.5 t11.5 84.5q0 63 -10.5 87t-39.5 24h-16v-221z" />
<glyph unicode="&#xaf;" horiz-adv-x="675" d="M66 1229v192h544v-192h-544z" />
<glyph unicode="&#xb0;" horiz-adv-x="733" d="M51 1135q0 68 23.5 126t65.5 102t100.5 68.5t126.5 24.5q70 0 127 -24.5t99 -68.5t65.5 -102t23.5 -126q0 -70 -23.5 -129.5t-65.5 -103.5t-99.5 -68.5t-126.5 -24.5q-68 0 -126.5 24.5t-100.5 68.5t-65.5 103.5t-23.5 129.5zM231 1135q0 -68 38 -112t98 -44q59 0 97 44 t38 112q0 66 -38 107.5t-97 41.5t-97.5 -42t-38.5 -107z" />
<glyph unicode="&#xb1;" d="M20 725l310 266q43 35 78 15q18 -14 22 -32t-4 -52l-18 -76h147v252l-76 -19q-35 -8 -52 -4t-32 23q-20 35 15 78l266 309l266 -309q35 -43 14 -78q-25 -33 -84 -19l-75 19v-252h147l-18 76q-8 35 -4 52t22 32q35 20 78 -15l309 -266l-309 -266q-43 -35 -78 -15 q-33 25 -18 84l18 76h-147v-268l75 18q35 8 52.5 4t31.5 -22q20 -35 -14 -78l-266 -309l-266 309q-35 43 -15 78q14 18 31.5 22t52.5 -4l76 -18v268h-147l18 -76q8 -35 4 -52t-22 -32q-35 -20 -78 15z" />
<glyph unicode="&#xb2;" d="M20 725l310 266q43 35 78 15q18 -14 22 -32t-4 -52l-18 -76h147v252l-76 -19q-35 -8 -52 -4t-32 23q-20 35 15 78l266 309l266 -309q35 -43 14 -78q-25 -33 -84 -19l-75 19v-252h147l-18 76q-8 35 -4 52t22 32q35 20 78 -15l309 -266l-309 -266q-43 -35 -78 -15 q-33 25 -18 84l18 76h-147v-268l75 18q35 8 52.5 4t31.5 -22q20 -35 -14 -78l-266 -309l-266 309q-35 43 -15 78q14 18 31.5 22t52.5 -4l76 -18v268h-147l18 -76q8 -35 4 -52t-22 -32q-35 -20 -78 15z" />
<glyph unicode="&#xb3;" d="M20 725l310 266q43 35 78 15q18 -14 22 -32t-4 -52l-18 -76h147v252l-76 -19q-35 -8 -52 -4t-32 23q-20 35 15 78l266 309l266 -309q35 -43 14 -78q-25 -33 -84 -19l-75 19v-252h147l-18 76q-8 35 -4 52t22 32q35 20 78 -15l309 -266l-309 -266q-43 -35 -78 -15 q-33 25 -18 84l18 76h-147v-268l75 18q35 8 52.5 4t31.5 -22q20 -35 -14 -78l-266 -309l-266 309q-35 43 -15 78q14 18 31.5 22t52.5 -4l76 -18v268h-147l18 -76q8 -35 4 -52t-22 -32q-35 -20 -78 15z" />
<glyph unicode="&#xb4;" horiz-adv-x="675" d="M154 1198l147 328h293l-260 -328h-180z" />
<glyph unicode="&#xb5;" horiz-adv-x="1146" d="M20 725l310 266q43 35 78 15q18 -14 22 -32t-4 -52l-16 -70h327l-16 70q-8 35 -4 52t22 32q35 20 78 -15l309 -266l-309 -266q-43 -35 -78 -15q-18 14 -22 32t4 52l16 70h-327l16 -70q8 -35 4 -52t-22 -32q-35 -20 -78 15z" />
<glyph unicode="&#xb6;" horiz-adv-x="1024" d="M51 1030q0 100 30 176t81 127t119.5 76t144.5 25h512v-1813h-203v1634h-100v-1634h-203v1004h-26q-76 0 -140.5 25.5t-113 75.5t-75 126t-26.5 178z" />
<glyph unicode="&#xb7;" horiz-adv-x="425" d="M55 752q0 72 44 115.5t116 43.5t115 -43.5t43 -115.5q0 -70 -43 -114t-115 -44t-116 44t-44 114z" />
<glyph unicode="&#xb8;" horiz-adv-x="675" d="M133 -332l41 74q41 -25 69.5 -35t63.5 -10t56.5 19.5t21.5 50.5t-16.5 43t-34.5 12q-31 0 -60 -23l-69 47l55 154h94l-35 -98q14 8 37 13t52 5q47 0 87 -38.5t40 -112.5q0 -84 -57.5 -124t-145.5 -40q-57 0 -109.5 18.5t-89.5 44.5z" />
<glyph unicode="&#xb9;" d="M20 725l310 266q43 35 78 15q18 -14 22 -32t-4 -52l-18 -76h147v252l-76 -19q-35 -8 -52 -4t-32 23q-20 35 15 78l266 309l266 -309q35 -43 14 -78q-25 -33 -84 -19l-75 19v-252h147l-18 76q-8 35 -4 52t22 32q35 20 78 -15l309 -266l-309 -266q-43 -35 -78 -15 q-33 25 -18 84l18 76h-147v-268l75 18q35 8 52.5 4t31.5 -22q20 -35 -14 -78l-266 -309l-266 309q-35 43 -15 78q14 18 31.5 22t52.5 -4l76 -18v268h-147l18 -76q8 -35 4 -52t-22 -32q-35 -20 -78 15z" />
<glyph unicode="&#xba;" horiz-adv-x="651" d="M68 1004q0 106 12 190t42 142.5t80 89t128 30.5q139 0 196.5 -113.5t57.5 -330.5q0 -221 -58.5 -336t-203.5 -115q-135 0 -194.5 111.5t-59.5 331.5zM279 1012q0 -80 1 -132.5t6 -82t15 -42t27 -12.5q14 0 23 12.5t14.5 42t7.5 80t2 128.5q0 82 -2 134t-8.5 81.5 t-15.5 41t-23 11.5q-16 0 -25.5 -12.5t-13.5 -42t-6 -79.5t-2 -128z" />
<glyph unicode="&#xbb;" horiz-adv-x="921" d="M53 0l195 537l-195 538h250l205 -536l-205 -539h-250zM440 0l195 537l-195 538h250l205 -536l-205 -539h-250z" />
<glyph unicode="&#xbc;" d="M20 725l310 266q43 35 78 15q18 -14 22 -32t-4 -52l-18 -76h147v252l-76 -19q-35 -8 -52 -4t-32 23q-20 35 15 78l266 309l266 -309q35 -43 14 -78q-25 -33 -84 -19l-75 19v-252h147l-18 76q-8 35 -4 52t22 32q35 20 78 -15l309 -266l-309 -266q-43 -35 -78 -15 q-33 25 -18 84l18 76h-147v-268l75 18q35 8 52.5 4t31.5 -22q20 -35 -14 -78l-266 -309l-266 309q-35 43 -15 78q14 18 31.5 22t52.5 -4l76 -18v268h-147l18 -76q8 -35 4 -52t-22 -32q-35 -20 -78 15z" />
<glyph unicode="&#xbd;" d="M20 725l310 266q43 35 78 15q18 -14 22 -32t-4 -52l-18 -76h147v252l-76 -19q-35 -8 -52 -4t-32 23q-20 35 15 78l266 309l266 -309q35 -43 14 -78q-25 -33 -84 -19l-75 19v-252h147l-18 76q-8 35 -4 52t22 32q35 20 78 -15l309 -266l-309 -266q-43 -35 -78 -15 q-33 25 -18 84l18 76h-147v-268l75 18q35 8 52.5 4t31.5 -22q20 -35 -14 -78l-266 -309l-266 309q-35 43 -15 78q14 18 31.5 22t52.5 -4l76 -18v268h-147l18 -76q8 -35 4 -52t-22 -32q-35 -20 -78 15z" />
<glyph unicode="&#xbe;" d="M20 725l310 266q43 35 78 15q18 -14 22 -32t-4 -52l-18 -76h147v252l-76 -19q-35 -8 -52 -4t-32 23q-20 35 15 78l266 309l266 -309q35 -43 14 -78q-25 -33 -84 -19l-75 19v-252h147l-18 76q-8 35 -4 52t22 32q35 20 78 -15l309 -266l-309 -266q-43 -35 -78 -15 q-33 25 -18 84l18 76h-147v-268l75 18q35 8 52.5 4t31.5 -22q20 -35 -14 -78l-266 -309l-266 309q-35 43 -15 78q14 18 31.5 22t52.5 -4l76 -18v268h-147l18 -76q8 -35 4 -52t-22 -32q-35 -20 -78 15z" />
<glyph unicode="&#xbf;" horiz-adv-x="688" d="M25 328q0 113 36.5 204t94.5 168q35 47 56 85t32.5 76t15.5 83t4 107h240q0 -90 -6 -156t-20.5 -118t-39 -97t-61.5 -96q-43 -59 -68.5 -124t-25.5 -130q0 -59 10 -85t37 -26q39 0 51 37t25 137l264 -37q-12 -92 -36 -162.5t-64 -118.5t-99 -73t-143 -25 q-154 0 -228.5 97.5t-74.5 253.5zM231 1303q0 68 42 110.5t112 42.5t113 -42.5t43 -110.5q0 -70 -43 -113t-113 -43t-112 43t-42 113z" />
<glyph unicode="&#xc0;" horiz-adv-x="772" d="M14 0l222 1434h303l219 -1434h-275l-28 279h-136l-26 -279h-279zM49 1833h293l147 -328h-180zM336 522h96l-8 94q-4 49 -9 109.5t-11.5 126.5t-11.5 132.5t-9 127.5q-4 -61 -8 -127.5t-9.5 -133.5t-11.5 -127t-10 -110z" />
<glyph unicode="&#xc1;" horiz-adv-x="772" d="M14 0l222 1434h303l219 -1434h-275l-28 279h-136l-26 -279h-279zM283 1505l147 328h293l-260 -328h-180zM336 522h96l-8 94q-4 49 -9 109.5t-11.5 126.5t-11.5 132.5t-9 127.5q-4 -61 -8 -127.5t-9.5 -133.5t-11.5 -127t-10 -110z" />
<glyph unicode="&#xc2;" horiz-adv-x="772" d="M14 0l222 1434h303l219 -1434h-275l-28 279h-136l-26 -279h-279zM115 1493l178 328h188l178 -328h-184l-90 139l-90 -139h-180zM336 522h96l-8 94q-4 49 -9 109.5t-11.5 126.5t-11.5 132.5t-9 127.5q-4 -61 -8 -127.5t-9.5 -133.5t-11.5 -127t-10 -110z" />
<glyph unicode="&#xc3;" horiz-adv-x="772" d="M14 0l222 1434h303l219 -1434h-275l-28 279h-136l-26 -279h-279zM72 1505q0 154 53 216.5t131 62.5q47 0 83 -14.5t77 -45.5q18 -14 33.5 -24.5t31.5 -10.5q23 0 33 17.5t14 70.5h174q0 -154 -53 -216t-131 -62q-47 0 -83 14.5t-77 44.5q-18 14 -33.5 24.5t-31.5 10.5 q-23 0 -33 -17.5t-14 -70.5h-174zM336 522h96l-8 94q-4 49 -9 109.5t-11.5 126.5t-11.5 132.5t-9 127.5q-4 -61 -8 -127.5t-9.5 -133.5t-11.5 -127t-10 -110z" />
<glyph unicode="&#xc4;" horiz-adv-x="772" d="M14 0l222 1434h303l219 -1434h-275l-28 279h-136l-26 -279h-279zM78 1638q0 59 41 100.5t100 41.5t100 -41.5t41 -100.5t-41 -100t-100 -41t-100 41t-41 100zM336 522h96l-8 94q-4 49 -9 109.5t-11.5 126.5t-11.5 132.5t-9 127.5q-4 -61 -8 -127.5t-9.5 -133.5 t-11.5 -127t-10 -110zM414 1638q0 59 40.5 100.5t100.5 41.5q59 0 100 -41.5t41 -100.5t-41 -100t-100 -41t-100 41t-41 100z" />
<glyph unicode="&#xc5;" horiz-adv-x="772" d="M14 0l209 1354q-49 59 -49 139q0 92 60.5 152.5t152.5 60.5t152.5 -60.5t60.5 -152.5q0 -80 -49 -139l207 -1354h-275l-28 279h-136l-26 -279h-279zM305 1493q0 -37 23.5 -62.5t58.5 -25.5t58.5 25.5t23.5 62.5t-23.5 62.5t-58.5 25.5t-58.5 -25.5t-23.5 -62.5zM336 522 h96l-8 94q-4 49 -9 109.5t-11.5 126.5t-11.5 132.5t-9 127.5q-4 -61 -8 -127.5t-9.5 -133.5t-11.5 -127t-10 -110z" />
<glyph unicode="&#xc6;" horiz-adv-x="1097" d="M8 0l299 1434h742v-254h-295v-297h225v-254h-225v-375h307v-254h-578v279h-159l-52 -279h-264zM369 522h114v432q0 66 1 128.5t3 105.5q-10 -53 -20 -120t-23 -130z" />
<glyph unicode="&#xc7;" horiz-adv-x="792" d="M45 713q0 201 21.5 342t65.5 230t112.5 130t165.5 41q94 0 156.5 -35t99 -96t54 -148t23.5 -192l-278 -41q-4 78 -6 129t-8.5 82t-15.5 44t-27 13q-20 0 -34 -17t-21 -69.5t-10 -148.5t-3 -256q0 -166 3 -264.5t11 -150.5t21.5 -68.5t36.5 -16.5q14 0 23 9.5t16.5 37 t12.5 80.5t9 139l275 -41q-12 -119 -34 -204.5t-59 -143t-91 -87t-132 -34.5l-26 -75q14 8 36.5 13t51.5 5q47 0 87 -39t40 -112q0 -84 -57.5 -124t-145.5 -40q-57 0 -109.5 18.5t-89.5 44.5l41 74q41 -25 69.5 -35t63.5 -10t56.5 19.5t21.5 50.5t-16.5 43t-34.5 12 q-31 0 -60 -23l-69 47l49 138q-76 12 -131 59t-92 135t-54.5 220t-17.5 315z" />
<glyph unicode="&#xc8;" horiz-adv-x="696" d="M35 1833h293l147 -328h-180zM66 0v1434h581v-254h-295v-297h226v-254h-226v-375h307v-254h-593z" />
<glyph unicode="&#xc9;" horiz-adv-x="696" d="M66 0v1434h581v-254h-295v-297h226v-254h-226v-375h307v-254h-593zM226 1505l147 328h293l-260 -328h-180z" />
<glyph unicode="&#xca;" horiz-adv-x="696" d="M66 0v1434h581v-254h-295v-297h226v-254h-226v-375h307v-254h-593zM82 1505l178 328h188l178 -328h-184l-90 139l-90 -139h-180z" />
<glyph unicode="&#xcb;" horiz-adv-x="696" d="M47 1638q0 59 41 100.5t100 41.5t100 -41.5t41 -100.5t-41 -100t-100 -41t-100 41t-41 100zM66 0v1434h581v-254h-295v-297h226v-254h-226v-375h307v-254h-593zM383 1638q0 59 40.5 100.5t100.5 41.5q59 0 100 -41.5t41 -100.5t-41 -100t-100 -41t-100 41t-41 100z" />
<glyph unicode="&#xcc;" horiz-adv-x="421" d="M-131 1833h293l147 -328h-180zM68 0v1434h286v-1434h-286z" />
<glyph unicode="&#xcd;" horiz-adv-x="421" d="M68 0v1434h286v-1434h-286zM119 1505l147 328h293l-260 -328h-180z" />
<glyph unicode="&#xce;" horiz-adv-x="421" d="M-59 1511l178 328h188l178 -328h-184l-90 139l-90 -139h-180zM68 0v1434h286v-1434h-286z" />
<glyph unicode="&#xcf;" horiz-adv-x="421" d="M-96 1659q0 59 41 100.5t100 41.5t100 -41.5t41 -100.5t-41 -100t-100 -41t-100 41t-41 100zM68 0v1434h286v-1434h-286zM240 1659q0 59 40.5 100.5t100.5 41.5q59 0 100 -41.5t41 -100.5t-41 -100t-100 -41t-100 41t-41 100z" />
<glyph unicode="&#xd0;" horiz-adv-x="839" d="M31 637v225h65v572h330q109 0 179.5 -48.5t112.5 -138.5t59.5 -222t17.5 -298q0 -371 -94.5 -549t-299.5 -178h-305v637h-65zM367 227h30q27 0 46.5 15.5t31.5 67.5t18.5 150.5t6.5 262.5q0 162 -5.5 258t-17.5 145.5t-30.5 63.5t-45.5 14h-34v-342h67v-225h-67v-410z " />
<glyph unicode="&#xd1;" horiz-adv-x="835" d="M66 0v1434h247l70 -211q20 -61 40.5 -128t39 -129.5t34 -117.5t23.5 -92q-2 35 -4 89t-4 115.5t-3 124t-1 117.5v232h262v-1434h-225l-103 330q-18 61 -36.5 124.5t-35 124t-29.5 112.5t-22 89q2 -37 3.5 -87t2.5 -106.5t2 -116.5t1 -118v-352h-262zM113 1509 q0 154 53 216.5t131 62.5q47 0 83 -14.5t77 -45.5q18 -14 33.5 -24.5t31.5 -10.5q23 0 33 17.5t14 70.5h174q0 -154 -53 -216t-131 -62q-47 0 -83 14.5t-77 44.5q-18 14 -33.5 24.5t-31.5 10.5q-23 0 -33 -17.5t-14 -70.5h-174z" />
<glyph unicode="&#xd2;" horiz-adv-x="817" d="M45 715q0 199 21.5 340t65.5 230t112.5 130t165.5 41q94 0 162.5 -41t113.5 -129t65.5 -228t20.5 -339q0 -201 -21.5 -341t-65.5 -229.5t-113.5 -130.5t-165.5 -41t-164 40t-112 129.5t-64.5 228.5t-20.5 340zM64 1843h293l147 -328h-180zM340 719q0 -164 3 -261.5 t10 -150.5t20.5 -69.5t34.5 -16.5q20 0 33.5 16.5t21.5 67.5t11 148.5t3 261.5q0 162 -3 260t-11 151.5t-21.5 69.5t-33.5 16t-34 -16t-21 -67.5t-10 -149.5t-3 -260z" />
<glyph unicode="&#xd3;" horiz-adv-x="817" d="M45 715q0 199 21.5 340t65.5 230t112.5 130t165.5 41q94 0 162.5 -41t113.5 -129t65.5 -228t20.5 -339q0 -201 -21.5 -341t-65.5 -229.5t-113.5 -130.5t-165.5 -41t-164 40t-112 129.5t-64.5 228.5t-20.5 340zM301 1515l147 328h293l-260 -328h-180zM340 719 q0 -164 3 -261.5t10 -150.5t20.5 -69.5t34.5 -16.5q20 0 33.5 16.5t21.5 67.5t11 148.5t3 261.5q0 162 -3 260t-11 151.5t-21.5 69.5t-33.5 16t-34 -16t-21 -67.5t-10 -149.5t-3 -260z" />
<glyph unicode="&#xd4;" horiz-adv-x="817" d="M45 715q0 199 21.5 340t65.5 230t112.5 130t165.5 41q94 0 162.5 -41t113.5 -129t65.5 -228t20.5 -339q0 -201 -21.5 -341t-65.5 -229.5t-113.5 -130.5t-165.5 -41t-164 40t-112 129.5t-64.5 228.5t-20.5 340zM138 1515l178 328h188l178 -328h-184l-90 139l-90 -139h-180 zM340 719q0 -164 3 -261.5t10 -150.5t20.5 -69.5t34.5 -16.5q20 0 33.5 16.5t21.5 67.5t11 148.5t3 261.5q0 162 -3 260t-11 151.5t-21.5 69.5t-33.5 16t-34 -16t-21 -67.5t-10 -149.5t-3 -260z" />
<glyph unicode="&#xd5;" horiz-adv-x="817" d="M45 715q0 199 21.5 340t65.5 230t112.5 130t165.5 41q94 0 162.5 -41t113.5 -129t65.5 -228t20.5 -339q0 -201 -21.5 -341t-65.5 -229.5t-113.5 -130.5t-165.5 -41t-164 40t-112 129.5t-64.5 228.5t-20.5 340zM95 1505q0 154 53 216.5t131 62.5q47 0 83 -14.5t77 -45.5 q18 -14 33.5 -24.5t31.5 -10.5q23 0 33 17.5t14 70.5h174q0 -154 -53 -216t-131 -62q-47 0 -83 14.5t-77 44.5q-18 14 -33.5 24.5t-31.5 10.5q-23 0 -33 -17.5t-14 -70.5h-174zM340 719q0 -164 3 -261.5t10 -150.5t20.5 -69.5t34.5 -16.5q20 0 33.5 16.5t21.5 67.5t11 148.5 t3 261.5q0 162 -3 260t-11 151.5t-21.5 69.5t-33.5 16t-34 -16t-21 -67.5t-10 -149.5t-3 -260z" />
<glyph unicode="&#xd6;" horiz-adv-x="817" d="M45 715q0 199 21.5 340t65.5 230t112.5 130t165.5 41q94 0 162.5 -41t113.5 -129t65.5 -228t20.5 -339q0 -201 -21.5 -341t-65.5 -229.5t-113.5 -130.5t-165.5 -41t-164 40t-112 129.5t-64.5 228.5t-20.5 340zM101 1638q0 59 41 100.5t100 41.5t100 -41.5t41 -100.5 t-41 -100t-100 -41t-100 41t-41 100zM340 719q0 -164 3 -261.5t10 -150.5t20.5 -69.5t34.5 -16.5q20 0 33.5 16.5t21.5 67.5t11 148.5t3 261.5q0 162 -3 260t-11 151.5t-21.5 69.5t-33.5 16t-34 -16t-21 -67.5t-10 -149.5t-3 -260zM437 1638q0 59 40.5 100.5t100.5 41.5 q59 0 100 -41.5t41 -100.5t-41 -100t-100 -41t-100 41t-41 100z" />
<glyph unicode="&#xd7;" d="M20 725l310 266q43 35 78 15q18 -14 22 -32t-4 -52l-18 -76h147v252l-76 -19q-35 -8 -52 -4t-32 23q-20 35 15 78l266 309l266 -309q35 -43 14 -78q-25 -33 -84 -19l-75 19v-252h147l-18 76q-8 35 -4 52t22 32q35 20 78 -15l309 -266l-309 -266q-43 -35 -78 -15 q-33 25 -18 84l18 76h-147v-268l75 18q35 8 52.5 4t31.5 -22q20 -35 -14 -78l-266 -309l-266 309q-35 43 -15 78q14 18 31.5 22t52.5 -4l76 -18v268h-147l18 -76q8 -35 4 -52t-22 -32q-35 -20 -78 15z" />
<glyph unicode="&#xd8;" horiz-adv-x="817" d="M25 -102l90 280q-70 176 -70 537q0 199 21.5 340t65.5 230t112.5 130t165.5 41q53 0 96 -12l29 92h258l-93 -283q72 -174 72 -534q0 -201 -21.5 -341t-65.5 -229.5t-113.5 -130.5t-165.5 -41q-51 0 -95 13l-28 -92h-258zM340 719q0 -164 3 -261.5t10 -150.5t20.5 -69.5 t34.5 -16.5q20 0 33.5 16.5t21.5 67.5t11 148.5t3 261.5q0 162 -3 260t-11 151.5t-21.5 69.5t-33.5 16t-34 -16t-21 -67.5t-10 -149.5t-3 -260z" />
<glyph unicode="&#xd9;" horiz-adv-x="827" d="M61 377v1057h287v-1078q0 -76 16.5 -105.5t51.5 -29.5t49 30t14 105v1078h287v-1043q0 -203 -84 -308.5t-272 -105.5q-174 0 -261.5 105.5t-87.5 294.5zM84 1839h293l147 -328h-180z" />
<glyph unicode="&#xda;" horiz-adv-x="827" d="M61 377v1057h287v-1078q0 -76 16.5 -105.5t51.5 -29.5t49 30t14 105v1078h287v-1043q0 -203 -84 -308.5t-272 -105.5q-174 0 -261.5 105.5t-87.5 294.5zM301 1511l147 328h293l-260 -328h-180z" />
<glyph unicode="&#xdb;" horiz-adv-x="827" d="M61 377v1057h287v-1078q0 -76 16.5 -105.5t51.5 -29.5t49 30t14 105v1078h287v-1043q0 -203 -84 -308.5t-272 -105.5q-174 0 -261.5 105.5t-87.5 294.5zM142 1505l178 328h188l178 -328h-184l-90 139l-90 -139h-180z" />
<glyph unicode="&#xdc;" horiz-adv-x="827" d="M61 377v1057h287v-1078q0 -76 16.5 -105.5t51.5 -29.5t49 30t14 105v1078h287v-1043q0 -203 -84 -308.5t-272 -105.5q-174 0 -261.5 105.5t-87.5 294.5zM105 1638q0 59 41 100.5t100 41.5t100 -41.5t41 -100.5t-41 -100t-100 -41t-100 41t-41 100zM441 1638 q0 59 40.5 100.5t100.5 41.5q59 0 100 -41.5t41 -100.5t-41 -100t-100 -41t-100 41t-41 100z" />
<glyph unicode="&#xdd;" horiz-adv-x="780" d="M8 1434h299l29 -164q23 -127 39 -241t20 -214q4 100 20.5 214t37.5 241l26 164h293l-235 -859v-575h-289v567zM297 1520l147 328h293l-260 -328h-180z" />
<glyph unicode="&#xde;" horiz-adv-x="765" d="M66 0v1434h280v-256h70q66 0 125 -20.5t105 -70t72.5 -129t26.5 -198.5t-26.5 -203t-73.5 -137t-111.5 -78t-140.5 -25h-47v-317h-280zM346 541h25q51 0 69.5 48t18.5 161q0 119 -17.5 162.5t-66.5 43.5h-29v-415z" />
<glyph unicode="&#xdf;" horiz-adv-x="792" d="M53 -395v1523q0 92 25.5 160t70 112t104.5 65.5t130 21.5q147 0 229 -95.5t82 -267.5q0 -61 -9 -107t-23.5 -82t-33 -61.5t-38.5 -48.5q33 -18 63.5 -44.5t52 -67.5t35 -101.5t13.5 -148.5q0 -121 -19.5 -209t-64.5 -144.5t-116 -83t-173 -26.5h-10v229h6q27 0 44 8.5 t28.5 32t16.5 66.5t5 113q0 82 -5 132t-17.5 76.5t-30 34.5t-41.5 8h-6v228h8q12 0 20.5 5t13.5 22.5t7 50t2 88.5q0 98 -10.5 134t-42.5 36q-35 0 -44.5 -28t-9.5 -95v-1438z" />
<glyph unicode="&#xe0;" horiz-adv-x="710" d="M29 332q0 182 58 271t187 89q39 0 67 -8t48 -20v116q0 45 -13.5 64.5t-51.5 19.5q-41 0 -86 -21.5t-103 -62.5l-82 197q61 49 145.5 85t170.5 36q143 0 218 -64.5t75 -222.5v-811h-273v51q-33 -37 -67.5 -55.5t-83.5 -18.5q-111 0 -160 85t-49 270zM68 1526h293l147 -328 h-180zM283 336q0 -86 11 -119t44 -33q35 0 51 17v278q-10 8 -21.5 11.5t-31.5 3.5q-29 0 -41 -32t-12 -126z" />
<glyph unicode="&#xe1;" horiz-adv-x="710" d="M29 332q0 182 58 271t187 89q39 0 67 -8t48 -20v116q0 45 -13.5 64.5t-51.5 19.5q-41 0 -86 -21.5t-103 -62.5l-82 197q61 49 145.5 85t170.5 36q143 0 218 -64.5t75 -222.5v-811h-273v51q-33 -37 -67.5 -55.5t-83.5 -18.5q-111 0 -160 85t-49 270zM228 1198l147 328h293 l-260 -328h-180zM283 336q0 -86 11 -119t44 -33q35 0 51 17v278q-10 8 -21.5 11.5t-31.5 3.5q-29 0 -41 -32t-12 -126z" />
<glyph unicode="&#xe2;" horiz-adv-x="710" d="M29 332q0 182 58 271t187 89q39 0 67 -8t48 -20v116q0 45 -13.5 64.5t-51.5 19.5q-41 0 -86 -21.5t-103 -62.5l-82 197q61 49 145.5 85t170.5 36q143 0 218 -64.5t75 -222.5v-811h-273v51q-33 -37 -67.5 -55.5t-83.5 -18.5q-111 0 -160 85t-49 270zM84 1190l178 328h188 l178 -328h-184l-90 139l-90 -139h-180zM283 336q0 -86 11 -119t44 -33q35 0 51 17v278q-10 8 -21.5 11.5t-31.5 3.5q-29 0 -41 -32t-12 -126z" />
<glyph unicode="&#xe3;" horiz-adv-x="710" d="M29 332q0 182 58 271t187 89q39 0 67 -8t48 -20v116q0 45 -13.5 64.5t-51.5 19.5q-41 0 -86 -21.5t-103 -62.5l-82 197q61 49 145.5 85t170.5 36q143 0 218 -64.5t75 -222.5v-811h-273v51q-33 -37 -67.5 -55.5t-83.5 -18.5q-111 0 -160 85t-49 270zM52 1198 q0 154 53 216.5t131 62.5q47 0 83 -14.5t77 -45.5q18 -14 33.5 -24.5t31.5 -10.5q23 0 33 17.5t14 70.5h174q0 -154 -53 -216t-131 -62q-47 0 -83 14.5t-77 44.5q-18 14 -33.5 24.5t-31.5 10.5q-23 0 -33 -17.5t-14 -70.5h-174zM283 336q0 -86 11 -119t44 -33q35 0 51 17 v278q-10 8 -21.5 11.5t-31.5 3.5q-29 0 -41 -32t-12 -126z" />
<glyph unicode="&#xe4;" horiz-adv-x="710" d="M29 332q0 182 58 271t187 89q39 0 67 -8t48 -20v116q0 45 -13.5 64.5t-51.5 19.5q-41 0 -86 -21.5t-103 -62.5l-82 197q61 49 145.5 85t170.5 36q143 0 218 -64.5t75 -222.5v-811h-273v51q-33 -37 -67.5 -55.5t-83.5 -18.5q-111 0 -160 85t-49 270zM52 1323 q0 59 41 100.5t100 41.5t100 -41.5t41 -100.5t-41 -100t-100 -41t-100 41t-41 100zM283 336q0 -86 11 -119t44 -33q35 0 51 17v278q-10 8 -21.5 11.5t-31.5 3.5q-29 0 -41 -32t-12 -126zM388 1323q0 59 40.5 100.5t100.5 41.5q59 0 100 -41.5t41 -100.5t-41 -100t-100 -41 t-100 41t-41 100z" />
<glyph unicode="&#xe5;" horiz-adv-x="710" d="M29 332q0 182 58 271t187 89q39 0 67 -8t48 -20v116q0 45 -13.5 64.5t-51.5 19.5q-41 0 -86 -21.5t-103 -62.5l-82 197q61 49 145.5 85t170.5 36q143 0 218 -64.5t75 -222.5v-811h-273v51q-33 -37 -67.5 -55.5t-83.5 -18.5q-111 0 -160 85t-49 270zM148 1409 q0 92 60.5 152.5t152.5 60.5t152.5 -60.5t60.5 -152.5t-60.5 -151.5t-152.5 -59.5t-152.5 59.5t-60.5 151.5zM279 1409q0 -37 23.5 -62.5t58.5 -25.5t58.5 25.5t23.5 62.5t-23.5 62.5t-58.5 25.5t-58.5 -25.5t-23.5 -62.5zM283 336q0 -86 11 -119t44 -33q35 0 51 17v278 q-10 8 -21.5 11.5t-31.5 3.5q-29 0 -41 -32t-12 -126z" />
<glyph unicode="&#xe6;" horiz-adv-x="1044" d="M29 332q0 182 58 271t187 89q39 0 67 -8t48 -20v116q0 45 -13.5 64.5t-51.5 19.5q-41 0 -86 -21.5t-103 -62.5l-82 197q61 49 142 85t163 36q78 0 118 -31t54 -72q23 41 68 72t113 31q297 0 297 -557v-80h-375q0 -84 5 -137.5t12 -82t19.5 -38.5t28.5 -10q27 0 40.5 31.5 t31.5 129.5l231 -59q-18 -70 -41.5 -128t-59.5 -100t-87 -66t-125 -24q-68 0 -114 28t-74 71q-31 -39 -85.5 -69t-115.5 -30q-76 0 -128 20.5t-84 63.5t-45 110t-13 161zM283 336q0 -90 15 -121t50 -31q37 0 68 31q-12 49 -18.5 118.5t-8.5 145.5q-10 8 -21.5 11.5 t-31.5 3.5q-29 0 -41 -32t-12 -126zM633 647h125q-2 72 -6 119t-11.5 75.5t-18.5 40t-26 11.5q-16 0 -26.5 -9.5t-18.5 -37t-12 -75.5t-6 -124z" />
<glyph unicode="&#xe7;" horiz-adv-x="694" d="M39 530q0 156 20.5 264.5t62.5 176t102.5 97.5t140.5 30q74 0 127 -28t87.5 -77t54 -118.5t28.5 -151.5l-244 -47q-6 113 -16.5 151.5t-39.5 38.5q-18 0 -29 -13t-18.5 -50t-9.5 -101.5t-2 -166.5q0 -100 2 -164t9.5 -99.5t18.5 -49t29 -13.5q12 0 21.5 8t17 29.5 t13.5 61.5t12 106l240 -62q-23 -184 -92.5 -276t-196.5 -99l-27 -75q14 8 37 13t51 5q47 0 87 -39t40 -112q0 -84 -57 -124t-146 -40q-57 0 -109 18.5t-89 44.5l41 74q41 -25 69.5 -35t63.5 -10t56.5 19.5t21.5 50.5t-16.5 43t-34.5 12q-31 0 -60 -23l-69 47l49 140 q-55 12 -101.5 49t-78 102.5t-49 161.5t-17.5 231z" />
<glyph unicode="&#xe8;" horiz-adv-x="706" d="M35 1526h293l147 -328h-180zM39 530q0 274 71.5 421t249.5 147q160 0 234 -138.5t74 -418.5v-80h-375q0 -84 5 -137.5t12 -82t19.5 -38.5t28.5 -10q27 0 40.5 31.5t31.5 129.5l232 -59q-18 -70 -42 -128t-60 -100t-87 -66t-125 -24q-160 0 -234.5 141.5t-74.5 411.5z M293 647h125q-2 72 -6 119t-11.5 75.5t-18.5 40t-26 11.5q-16 0 -26.5 -9.5t-18.5 -37t-12 -75.5t-6 -124z" />
<glyph unicode="&#xe9;" horiz-adv-x="706" d="M39 530q0 274 71.5 421t249.5 147q160 0 234 -138.5t74 -418.5v-80h-375q0 -84 5 -137.5t12 -82t19.5 -38.5t28.5 -10q27 0 40.5 31.5t31.5 129.5l232 -59q-18 -70 -42 -128t-60 -100t-87 -66t-125 -24q-160 0 -234.5 141.5t-74.5 411.5zM244 1198l147 328h293l-260 -328 h-180zM293 647h125q-2 72 -6 119t-11.5 75.5t-18.5 40t-26 11.5q-16 0 -26.5 -9.5t-18.5 -37t-12 -75.5t-6 -124z" />
<glyph unicode="&#xea;" horiz-adv-x="706" d="M39 530q0 274 71.5 421t249.5 147q160 0 234 -138.5t74 -418.5v-80h-375q0 -84 5 -137.5t12 -82t19.5 -38.5t28.5 -10q27 0 40.5 31.5t31.5 129.5l232 -59q-18 -70 -42 -128t-60 -100t-87 -66t-125 -24q-160 0 -234.5 141.5t-74.5 411.5zM82 1180l178 328h188l178 -328 h-184l-90 139l-90 -139h-180zM293 647h125q-2 72 -6 119t-11.5 75.5t-18.5 40t-26 11.5q-16 0 -26.5 -9.5t-18.5 -37t-12 -75.5t-6 -124z" />
<glyph unicode="&#xeb;" horiz-adv-x="706" d="M39 530q0 274 71.5 421t249.5 147q160 0 234 -138.5t74 -418.5v-80h-375q0 -84 5 -137.5t12 -82t19.5 -38.5t28.5 -10q27 0 40.5 31.5t31.5 129.5l232 -59q-18 -70 -42 -128t-60 -100t-87 -66t-125 -24q-160 0 -234.5 141.5t-74.5 411.5zM43 1323q0 59 41 100.5t100 41.5 t100 -41.5t41 -100.5t-41 -100t-100 -41t-100 41t-41 100zM293 647h125q-2 72 -6 119t-11.5 75.5t-18.5 40t-26 11.5q-16 0 -26.5 -9.5t-18.5 -37t-12 -75.5t-6 -124zM379 1323q0 59 40.5 100.5t100.5 41.5q59 0 100 -41.5t41 -100.5t-41 -100t-100 -41t-100 41t-41 100z " />
<glyph unicode="&#xec;" horiz-adv-x="372" d="M-156 1526h293l147 -328h-180zM55 0v1075h262v-1075h-262z" />
<glyph unicode="&#xed;" horiz-adv-x="372" d="M55 0v1075h262v-1075h-262zM93 1198l147 328h293l-260 -328h-180z" />
<glyph unicode="&#xee;" horiz-adv-x="372" d="M-84 1169l178 328h188l178 -328h-184l-90 139l-90 -139h-180zM55 0v1075h262v-1075h-262z" />
<glyph unicode="&#xef;" horiz-adv-x="372" d="M-121 1345q0 59 41 100.5t100 41.5t100 -41.5t41 -100.5t-41 -100t-100 -41t-100 41t-41 100zM55 0v1075h262v-1075h-262zM215 1345q0 59 40.5 100.5t100.5 41.5q59 0 100 -41.5t41 -100.5t-41 -100t-100 -41t-100 41t-41 100z" />
<glyph unicode="&#xf0;" horiz-adv-x="722" d="M39 481q0 113 16.5 208t52 163t90 105.5t128.5 37.5q59 0 97 -23.5t66 -72.5q-16 129 -73 215l-78 -80l-107 107l76 78q-63 35 -145 47v190q90 -4 160.5 -27.5t123.5 -64.5l91 92l106 -106l-92 -97q78 -117 106.5 -293.5t28.5 -412.5q0 -150 -17.5 -257.5t-56.5 -177 t-101 -102.5t-153 -33q-84 0 -144 35t-99 100.5t-57.5 159t-18.5 209.5zM303 489q0 -86 2 -140t8 -86t18.5 -44t33.5 -12q18 0 29.5 12t18.5 43t9 84t2 137q0 88 -3 143.5t-9 86t-18.5 42t-31.5 11.5q-18 0 -30.5 -12.5t-18.5 -43t-8 -85t-2 -136.5z" />
<glyph unicode="&#xf1;" horiz-adv-x="729" d="M53 0v1075h262v-53q33 33 72 54.5t98 21.5q90 0 142.5 -51.5t52.5 -182.5v-864h-260v801q0 66 -41 65q-20 0 -33.5 -6t-30.5 -16v-844h-262zM54 1198q0 154 53 216.5t131 62.5q47 0 83 -14.5t77 -45.5q18 -14 33.5 -24.5t31.5 -10.5q23 0 33 17.5t14 70.5h174 q0 -154 -53 -216t-131 -62q-47 0 -83 14.5t-77 44.5q-18 14 -33.5 24.5t-31.5 10.5q-23 0 -33 -17.5t-14 -70.5h-174z" />
<glyph unicode="&#xf2;" horiz-adv-x="722" d="M25 1526h293l147 -328h-180zM39 532q0 133 15.5 237.5t53 177.5t100 112t159.5 39q174 0 246.5 -142.5t72.5 -414.5q0 -274 -73.5 -419t-254.5 -145q-170 0 -244.5 140.5t-74.5 414.5zM303 541q0 -100 2 -165t8 -102.5t18.5 -52t33.5 -14.5q18 0 29.5 14.5t18.5 51 t9 100.5t2 162q0 102 -3 167.5t-9 102.5t-18.5 50t-31.5 13q-18 0 -30.5 -14t-18.5 -51t-8 -100.5t-2 -161.5z" />
<glyph unicode="&#xf3;" horiz-adv-x="722" d="M39 532q0 133 15.5 237.5t53 177.5t100 112t159.5 39q174 0 246.5 -142.5t72.5 -414.5q0 -274 -73.5 -419t-254.5 -145q-170 0 -244.5 140.5t-74.5 414.5zM258 1198l147 328h293l-260 -328h-180zM303 541q0 -100 2 -165t8 -102.5t18.5 -52t33.5 -14.5q18 0 29.5 14.5 t18.5 51t9 100.5t2 162q0 102 -3 167.5t-9 102.5t-18.5 50t-31.5 13q-18 0 -30.5 -14t-18.5 -51t-8 -100.5t-2 -161.5z" />
<glyph unicode="&#xf4;" horiz-adv-x="722" d="M39 532q0 133 15.5 237.5t53 177.5t100 112t159.5 39q174 0 246.5 -142.5t72.5 -414.5q0 -274 -73.5 -419t-254.5 -145q-170 0 -244.5 140.5t-74.5 414.5zM89 1180l178 328h188l178 -328h-184l-90 139l-90 -139h-180zM303 541q0 -100 2 -165t8 -102.5t18.5 -52 t33.5 -14.5q18 0 29.5 14.5t18.5 51t9 100.5t2 162q0 102 -3 167.5t-9 102.5t-18.5 50t-31.5 13q-18 0 -30.5 -14t-18.5 -51t-8 -100.5t-2 -161.5z" />
<glyph unicode="&#xf5;" horiz-adv-x="722" d="M39 532q0 133 15.5 237.5t53 177.5t100 112t159.5 39q174 0 246.5 -142.5t72.5 -414.5q0 -274 -73.5 -419t-254.5 -145q-170 0 -244.5 140.5t-74.5 414.5zM48 1198q0 154 53 216.5t131 62.5q47 0 83 -14.5t77 -45.5q18 -14 33.5 -24.5t31.5 -10.5q23 0 33 17.5t14 70.5 h174q0 -154 -53 -216t-131 -62q-47 0 -83 14.5t-77 44.5q-18 14 -33.5 24.5t-31.5 10.5q-23 0 -33 -17.5t-14 -70.5h-174zM303 541q0 -100 2 -165t8 -102.5t18.5 -52t33.5 -14.5q18 0 29.5 14.5t18.5 51t9 100.5t2 162q0 102 -3 167.5t-9 102.5t-18.5 50t-31.5 13 q-18 0 -30.5 -14t-18.5 -51t-8 -100.5t-2 -161.5z" />
<glyph unicode="&#xf6;" horiz-adv-x="722" d="M39 532q0 133 15.5 237.5t53 177.5t100 112t159.5 39q174 0 246.5 -142.5t72.5 -414.5q0 -274 -73.5 -419t-254.5 -145q-170 0 -244.5 140.5t-74.5 414.5zM54 1313q0 59 41 100.5t100 41.5t100 -41.5t41 -100.5t-41 -100t-100 -41t-100 41t-41 100zM303 541 q0 -100 2 -165t8 -102.5t18.5 -52t33.5 -14.5q18 0 29.5 14.5t18.5 51t9 100.5t2 162q0 102 -3 167.5t-9 102.5t-18.5 50t-31.5 13q-18 0 -30.5 -14t-18.5 -51t-8 -100.5t-2 -161.5zM390 1313q0 59 40.5 100.5t100.5 41.5q59 0 100 -41.5t41 -100.5t-41 -100t-100 -41 t-100 41t-41 100z" />
<glyph unicode="&#xf7;" d="M20 725l310 266q43 35 78 15q18 -14 22 -32t-4 -52l-18 -76h147v252l-76 -19q-35 -8 -52 -4t-32 23q-20 35 15 78l266 309l266 -309q35 -43 14 -78q-25 -33 -84 -19l-75 19v-252h147l-18 76q-8 35 -4 52t22 32q35 20 78 -15l309 -266l-309 -266q-43 -35 -78 -15 q-33 25 -18 84l18 76h-147v-268l75 18q35 8 52.5 4t31.5 -22q20 -35 -14 -78l-266 -309l-266 309q-35 43 -15 78q14 18 31.5 22t52.5 -4l76 -18v268h-147l18 -76q8 -35 4 -52t-22 -32q-35 -20 -78 15z" />
<glyph unicode="&#xf8;" horiz-adv-x="722" d="M18 -102l88 233q-68 137 -67 401q0 133 15.5 237.5t53 177.5t100 112t159.5 39q43 0 75 -8l29 88h236l-89 -234q35 -72 51.5 -172t16.5 -231q0 -274 -73.5 -419t-254.5 -145q-43 0 -75 9l-29 -88h-236zM303 541q0 -100 2 -165t8 -102.5t18.5 -52t33.5 -14.5 q18 0 29.5 14.5t18.5 51t9 100.5t2 162q0 102 -3 167.5t-9 102.5t-18.5 50t-31.5 13q-18 0 -30.5 -14t-18.5 -51t-8 -100.5t-2 -161.5z" />
<glyph unicode="&#xf9;" horiz-adv-x="729" d="M29 1526h293l147 -328h-180zM49 211v864h260v-801q0 -66 41 -65q20 0 34.5 6t31.5 16v844h260v-1075h-260v53q-33 -33 -73 -54.5t-99 -21.5q-90 0 -142.5 50.5t-52.5 183.5z" />
<glyph unicode="&#xfa;" horiz-adv-x="729" d="M49 211v864h260v-801q0 -66 41 -65q20 0 34.5 6t31.5 16v844h260v-1075h-260v53q-33 -33 -73 -54.5t-99 -21.5q-90 0 -142.5 50.5t-52.5 183.5zM254 1198l147 328h293l-260 -328h-180z" />
<glyph unicode="&#xfb;" horiz-adv-x="729" d="M49 211v864h260v-801q0 -66 41 -65q20 0 34.5 6t31.5 16v844h260v-1075h-260v53q-33 -33 -73 -54.5t-99 -21.5q-90 0 -142.5 50.5t-52.5 183.5zM89 1198l178 328h188l178 -328h-184l-90 139l-90 -139h-180z" />
<glyph unicode="&#xfc;" horiz-adv-x="729" d="M49 211v864h260v-801q0 -66 41 -65q20 0 34.5 6t31.5 16v844h260v-1075h-260v53q-33 -33 -73 -54.5t-99 -21.5q-90 0 -142.5 50.5t-52.5 183.5zM52 1331q0 59 41 100.5t100 41.5t100 -41.5t41 -100.5t-41 -100t-100 -41t-100 41t-41 100zM388 1331q0 59 40.5 100.5 t100.5 41.5q59 0 100 -41.5t41 -100.5t-41 -100t-100 -41t-100 41t-41 100z" />
<glyph unicode="&#xfd;" horiz-adv-x="714" d="M14 1075h271l16 -153q6 -66 15.5 -144t16.5 -160.5t14 -165.5t11 -157q4 74 10.5 157t13.5 165.5t15.5 160.5t16.5 144l18 153h268l-294 -1454h-259l93 363zM252 1180l147 328h293l-260 -328h-180z" />
<glyph unicode="&#xfe;" horiz-adv-x="727" d="M53 -395v1790l262 98v-469q25 31 62 52.5t86 21.5q123 0 174 -142.5t51 -410.5q0 -295 -57.5 -431.5t-169.5 -136.5q-41 0 -79 19.5t-67 50.5v-344zM315 233q10 -10 22.5 -17t29.5 -7q14 0 25 8t18.5 42t10.5 99.5t3 180.5q0 113 -3 178t-10.5 99t-18.5 43t-25 9 q-27 0 -52 -24v-611z" />
<glyph unicode="&#xff;" horiz-adv-x="714" d="M14 1075h271l16 -153q6 -66 15.5 -144t16.5 -160.5t14 -165.5t11 -157q4 74 10.5 157t13.5 165.5t15.5 160.5t16.5 144l18 153h268l-294 -1454h-259l93 363zM49 1313q0 59 41 100.5t100 41.5t100 -41.5t41 -100.5t-41 -100t-100 -41t-100 41t-41 100zM385 1313 q0 59 40.5 100.5t100.5 41.5q59 0 100 -41.5t41 -100.5t-41 -100t-100 -41t-100 41t-41 100z" />
<glyph unicode="&#x152;" horiz-adv-x="1101" d="M45 715q0 199 22.5 340t65.5 230t107.5 130t148.5 41q70 0 116 -30.5t68 -86.5v95h480v-254h-295v-297h225v-254h-225v-375h307v-254h-492v96q-29 -57 -71.5 -88t-116.5 -31q-84 0 -147.5 40t-106.5 129.5t-64.5 228.5t-21.5 340zM340 719q0 -164 3 -261.5t10 -150.5 t20.5 -69.5t34.5 -16.5q20 0 33.5 16.5t21.5 67.5t11 148.5t3 261.5q0 162 -3 260t-11 151.5t-21.5 69.5t-33.5 16t-34 -16t-21 -67.5t-10 -149.5t-3 -260z" />
<glyph unicode="&#x153;" horiz-adv-x="1085" d="M39 532q0 133 15.5 237.5t53 177.5t100 112t159.5 39q74 0 118.5 -36t67.5 -79q25 45 70 80t116 35q160 0 234 -138.5t74 -418.5v-80h-375q0 -84 5 -137.5t12 -82t19.5 -38.5t28.5 -10q27 0 40.5 31.5t31.5 129.5l231 -59q-18 -70 -41.5 -128t-59.5 -100t-87 -66 t-125 -24q-68 0 -113 36t-67 79q-25 -45 -70 -80t-119 -35q-170 0 -244.5 140.5t-74.5 414.5zM303 541q0 -100 2 -165t8 -102.5t18.5 -52t33.5 -14.5q18 0 29.5 14.5t18.5 51t9 100.5t2 162q0 102 -3 167.5t-9 102.5t-18.5 50t-31.5 13q-18 0 -30.5 -14t-18.5 -51t-8 -100.5 t-2 -161.5zM672 647h125q-2 72 -6.5 119t-11.5 75.5t-18 40t-26 11.5q-16 0 -26.5 -9.5t-18.5 -37t-12 -75.5t-6 -124z" />
<glyph unicode="&#x178;" horiz-adv-x="780" d="M8 1434h299l29 -164q23 -127 39 -241t20 -214q4 100 20.5 214t37.5 241l26 164h293l-235 -859v-575h-289v567zM82 1644q0 59 41 100.5t100 41.5t100 -41.5t41 -100.5t-41 -100t-100 -41t-100 41t-41 100zM418 1644q0 59 40.5 100.5t100.5 41.5q59 0 100 -41.5t41 -100.5 t-41 -100t-100 -41t-100 41t-41 100z" />
<glyph unicode="&#x2c6;" horiz-adv-x="675" d="M66 1198l178 328h188l178 -328h-184l-90 139l-90 -139h-180z" />
<glyph unicode="&#x2dc;" horiz-adv-x="675" d="M23 1198q0 154 53 216.5t131 62.5q47 0 83 -14.5t77 -45.5q18 -14 33.5 -24.5t31.5 -10.5q23 0 33 17.5t14 70.5h174q0 -154 -53 -216t-131 -62q-47 0 -83 14.5t-77 44.5q-18 14 -33.5 24.5t-31.5 10.5q-23 0 -33 -17.5t-14 -70.5h-174z" />
<glyph unicode="&#x2000;" horiz-adv-x="924" />
<glyph unicode="&#x2001;" horiz-adv-x="1848" />
<glyph unicode="&#x2002;" horiz-adv-x="924" />
<glyph unicode="&#x2003;" horiz-adv-x="1848" />
<glyph unicode="&#x2004;" horiz-adv-x="616" />
<glyph unicode="&#x2005;" horiz-adv-x="462" />
<glyph unicode="&#x2006;" horiz-adv-x="308" />
<glyph unicode="&#x2007;" horiz-adv-x="308" />
<glyph unicode="&#x2008;" horiz-adv-x="231" />
<glyph unicode="&#x2009;" horiz-adv-x="369" />
<glyph unicode="&#x200a;" horiz-adv-x="102" />
<glyph unicode="&#x2010;" horiz-adv-x="528" d="M59 618v263h408v-263h-408z" />
<glyph unicode="&#x2011;" horiz-adv-x="528" d="M59 618v263h408v-263h-408z" />
<glyph unicode="&#x2012;" horiz-adv-x="528" d="M59 618v263h408v-263h-408z" />
<glyph unicode="&#x2013;" horiz-adv-x="690" d="M59 625v249h572v-249h-572z" />
<glyph unicode="&#x2014;" horiz-adv-x="833" d="M59 625v249h715v-249h-715z" />
<glyph unicode="&#x2018;" horiz-adv-x="440" d="M57 946l150 488h153l-30 -488h-273z" />
<glyph unicode="&#x2019;" horiz-adv-x="440" d="M80 946l31 488h272l-150 -488h-153z" />
<glyph unicode="&#x201a;" horiz-adv-x="440" d="M80 -207l31 488h272l-150 -488h-153z" />
<glyph unicode="&#x201c;" horiz-adv-x="808" d="M57 946l150 488h153l-30 -488h-273zM426 946l149 488h154l-31 -488h-272z" />
<glyph unicode="&#x201d;" horiz-adv-x="808" d="M80 946l31 488h272l-150 -488h-153zM449 946l30 488h273l-150 -488h-153z" />
<glyph unicode="&#x201e;" horiz-adv-x="808" d="M80 -207l31 488h272l-150 -488h-153zM449 -207l30 488h273l-150 -488h-153z" />
<glyph unicode="&#x2022;" horiz-adv-x="739" d="M82 750q0 61 22.5 114.5t60.5 92t90 61t114 22.5q61 0 114.5 -22.5t91 -61t60 -92t22.5 -114.5t-22.5 -113.5t-60 -90.5t-91 -60.5t-114.5 -22.5t-113.5 22.5t-90.5 60.5t-60.5 90t-22.5 114z" />
<glyph unicode="&#x2026;" horiz-adv-x="1277" d="M55 135q0 72 44 116t116 44t115 -44t43 -116q0 -70 -43 -114t-115 -44t-116 44.5t-44 113.5zM481 135q0 72 44 116t116 44t115 -44t43 -116q0 -70 -43 -114t-115 -44t-116 44.5t-44 113.5zM907 135q0 72 44 116t116 44t115 -44t43 -116q0 -70 -43 -114t-115 -44 t-116 44.5t-44 113.5z" />
<glyph unicode="&#x202f;" horiz-adv-x="369" />
<glyph unicode="&#x2039;" horiz-adv-x="534" d="M27 537l204 538h250l-194 -536l194 -539h-250z" />
<glyph unicode="&#x203a;" horiz-adv-x="534" d="M53 0l195 537l-195 538h250l205 -536l-205 -539h-250z" />
<glyph unicode="&#x205f;" horiz-adv-x="462" />
<glyph unicode="&#x2122;" horiz-adv-x="999" d="M23 1288v146h370v-146h-104v-672h-162v672h-104zM463 616v818h147l43 -185q16 -68 30.5 -135t23.5 -121q6 53 21 122t32 136l41 183h147v-818h-141v168q0 143 6 254q-10 -49 -27.5 -122.5t-33.5 -139.5l-45 -184l-48 184q-16 66 -33.5 139.5t-25.5 122.5q2 -53 4 -118.5 t2 -135.5v-168h-143z" />
<glyph unicode="&#xe000;" horiz-adv-x="1075" d="M0 0v1075h1075v-1075h-1075z" />
<glyph unicode="&#xfb01;" horiz-adv-x="862" d="M29 842v233h75v162q0 63 19.5 110.5t51.5 78t74 46t87 15.5q66 0 99.5 -3t62.5 -11v-226q-35 12 -76 13q-61 0 -62 -72v-113h109v-233h-109v-842h-256v842h-75zM532 1341q0 66 39 106t105 40t104.5 -40t38.5 -106q0 -63 -39 -103t-104 -40q-66 0 -105 40t-39 103zM545 0 v1075h262v-1075h-262z" />
<glyph unicode="&#xfb02;" horiz-adv-x="862" d="M29 842v233h75v162q0 63 19.5 110.5t51.5 78t74 46t87 15.5q66 0 99.5 -3t62.5 -11v-226q-35 12 -76 13q-61 0 -62 -72v-113h109v-233h-109v-842h-256v842h-75zM545 0v1395l262 98v-1493h-262z" />
</font>
</defs>
</svg>
