<?xml version="1.0" standalone="no"?>
<!DOCTYPE svg PUBLIC "-//W3C//DTD SVG 1.1//EN" "http://www.w3.org/Graphics/SVG/1.1/DTD/svg11.dtd" >
<svg xmlns="http://www.w3.org/2000/svg">
<metadata>
This is a custom SVG webfont generated by Font Squirrel.
Copyright   : All rights reserved to Ben Nathan 2000  murmanxhotmailcom
</metadata>
<defs>
<font id="BNMachineRegular" horiz-adv-x="559" >
<font-face units-per-em="2048" ascent="1638" descent="-410" />
<missing-glyph horiz-adv-x="819" />
<glyph unicode=" "  horiz-adv-x="819" />
<glyph unicode="&#x09;" horiz-adv-x="819" />
<glyph unicode="&#xa0;" horiz-adv-x="819" />
<glyph unicode="!" horiz-adv-x="473" d="M0 0v381h383v-381h-383zM0 442v1037h383v-1037h-383z" />
<glyph unicode="&#x22;" horiz-adv-x="520" d="M0 1200v381h178v-381h-178zM240 1200v381h176v-381h-176z" />
<glyph unicode="#" horiz-adv-x="1552" d="M0 205v383h227v258h-227v383h227v250h383v-250h258v250h383v-250h228v-383h-228v-258h228v-383h-228v-205h-383v205h-258v-205h-383v205h-227zM610 588h258v258h-258v-258z" />
<glyph unicode="$" horiz-adv-x="1112" d="M0 0v383h322v170h-138l-184 184v557l184 185h138v204h383v-204h321v-383h-321v-160h137l184 -184v-568l-184 -184h-137v-205h-383v205h-322z" />
<glyph unicode="%" horiz-adv-x="1396" d="M0 594v496l184 184h453l84 -84l39 84h383l-191 -410h181l182 -184v-496l-182 -184h-455l-88 88l-41 -88h-383l192 410h-174zM369 793h84v98h-84v-98zM862 383h84v98h-84v-98z" />
<glyph unicode="&#x26;" horiz-adv-x="1185" d="M0 184v1110l184 185h842v-383h-643v-166h745v-383h-102v-363l-184 -184h-658zM383 383h260v164h-260v-164z" />
<glyph unicode="'" horiz-adv-x="282" d="M0 1200v381h178v-381h-178z" />
<glyph unicode="(" horiz-adv-x="669" d="M0 184v1110l184 185h404v-383h-205v-713h205v-383h-404z" />
<glyph unicode=")" horiz-adv-x="677" d="M0 0v383h205v713h-205v383h403l185 -185v-1110l-185 -184h-403z" />
<glyph unicode="*" horiz-adv-x="950" d="M0 946h346l107 328l104 -328h346l-280 -203l108 -327l-278 202l-281 -202l109 327z" />
<glyph unicode="+" horiz-adv-x="923" d="M0 465v383h242v235h381v-235h241v-383h-241v-246h-381v246h-242z" />
<glyph unicode="," horiz-adv-x="475" d="M0 -328v709h383v-381l-322 -328h-61z" />
<glyph unicode="-" horiz-adv-x="962" d="M0 465h864v383h-864v-383z" />
<glyph unicode="." horiz-adv-x="493" d="M0 0v381h383v-381h-383z" />
<glyph unicode="/" horiz-adv-x="1003" d="M0 0l594 1274h383l-594 -1274h-383z" />
<glyph unicode="0" horiz-adv-x="1116" d="M0 184v1110l184 185h658l184 -185v-1110l-184 -184h-658zM369 383h288v713h-288v-713z" />
<glyph unicode="1" horiz-adv-x="657" d="M0 1087l360 392h205v-1479h-381v1085z" />
<glyph unicode="2" horiz-adv-x="1110" d="M0 0v926h657v170h-657v383h842l184 -185v-567l-184 -184h-473v-160h657v-383h-1026z" />
<glyph unicode="3" horiz-adv-x="1116" d="M0 0v383h657v168h-452v381h452v164h-657v383h842l184 -185v-1110l-184 -184h-842z" />
<glyph unicode="4" horiz-adv-x="1118" d="M0 770v709h383v-510h274v510h369v-1479h-369v588h-473z" />
<glyph unicode="5" horiz-adv-x="1110" d="M0 0v383h657v170h-657v926h1026v-383h-657v-160h473l184 -184v-568l-184 -184h-842z" />
<glyph unicode="6" horiz-adv-x="1110" d="M0 184v1090l184 205h842v-383h-657v-160h473l184 -184v-568l-184 -184h-658zM369 383h288v170h-288v-170z" />
<glyph unicode="7" horiz-adv-x="964" d="M0 1096v385l881 -2v-383l-308 -1096h-368l307 1096h-512z" />
<glyph unicode="8" horiz-adv-x="1112" d="M0 184v414l154 143l-154 144v409l184 185h658l184 -185v-409l-133 -144l133 -143v-414l-184 -184h-658zM369 307h288v172h-288v-172zM369 999h288v172h-288v-172z" />
<glyph unicode="9" horiz-adv-x="1116" d="M0 0v383h657v160h-473l-184 184v547l184 184h658l184 -184v-1090l-184 -184h-842zM369 926h288v149h-288v-149z" />
<glyph unicode=":" horiz-adv-x="471" d="M0 205v381h383v-381h-383zM0 688v381h383v-381h-383z" />
<glyph unicode=";" horiz-adv-x="460" d="M0 -123v709h383v-381l-322 -328h-61zM0 688v381h383v-381h-383z" />
<glyph unicode="&#x3c;" horiz-adv-x="948" d="M0 610l610 613l271 -271l-340 -342l340 -340l-271 -270z" />
<glyph unicode="=" horiz-adv-x="948" d="M0 203h864v383h-864v-383zM0 688h864v383h-864v-383z" />
<glyph unicode="&#x3e;" horiz-adv-x="954" d="M0 270l270 -270l611 610l-611 613l-270 -271l340 -342z" />
<glyph unicode="?" horiz-adv-x="1083" d="M0 0v381h383v-381h-383zM0 442v484h657v170h-657v383h842l184 -185v-567l-184 -184h-459v-101h-383z" />
<glyph unicode="A" horiz-adv-x="1118" d="M0 0v1294l184 185h658l184 -185v-1294h-383v465h-260v-465h-383zM383 848h260v248h-260v-248z" />
<glyph unicode="B" horiz-adv-x="1112" d="M0 0v1479h842l184 -185v-409l-184 -185l184 -184v-332l-184 -184h-842zM375 383h276v98h-276v-98zM375 997h276v99h-276v-99z" />
<glyph unicode="C" horiz-adv-x="1052" d="M0 184v1110l184 185h842v-383h-657v-713h657v-383h-842z" />
<glyph unicode="D" horiz-adv-x="1116" d="M0 0v1479h842l184 -185v-1110l-184 -184h-842zM383 383h274v713h-274v-713z" />
<glyph unicode="E" horiz-adv-x="1083" d="M0 184v1110l184 185h842v-383h-643v-166h481v-383h-481v-164h643v-383h-842z" />
<glyph unicode="F" horiz-adv-x="1048" d="M0 0v1294l184 185h842v-383h-643v-248h481v-383h-481v-465h-383z" />
<glyph unicode="G" horiz-adv-x="1112" d="M0 184v1110l184 185h842v-383h-657v-713h288v80h-204v383h573v-662l-184 -184h-658z" />
<glyph unicode="H" horiz-adv-x="1118" d="M0 0v1479h383v-615h260v615h383v-1479h-369v481h-274v-481h-383z" />
<glyph unicode="I" horiz-adv-x="475" d="M0 0v1479h383v-1479h-383z" />
<glyph unicode="J" horiz-adv-x="882" d="M0 0v383h410v1096h383v-1295l-185 -184h-608z" />
<glyph unicode="K" horiz-adv-x="1116" d="M0 0v1479h383v-615h260v615h383v-594l-184 -185l184 -184v-516h-369v481h-274v-481h-383z" />
<glyph unicode="L" horiz-adv-x="1026" d="M0 184l184 -184h842v383h-643v1096h-383v-1295z" />
<glyph unicode="M" horiz-adv-x="1392" d="M0 0v1479h1118l182 -185v-1294h-368v1096h-90v-1096h-383v1096h-90v-1096h-369z" />
<glyph unicode="N" horiz-adv-x="1118" d="M0 0v1479h383l260 -600v600h383v-1479h-383l-260 600v-600h-383z" />
<glyph unicode="O" horiz-adv-x="1116" d="M0 184v1110l184 185h658l184 -185v-1110l-184 -184h-658zM369 383h288v713h-288v-713z" />
<glyph unicode="P" horiz-adv-x="1110" d="M0 0v1479h842l184 -185v-905l-184 -184h-459v-205h-383zM383 588h274v508h-274v-508z" />
<glyph unicode="Q" horiz-adv-x="1116" d="M0 184v1110l184 185h658l184 -185v-1110l-184 -184h-137v-205h-383v205h-138zM369 383h288v713h-288v-713z" />
<glyph unicode="R" horiz-adv-x="1116" d="M0 0v1479h842l184 -185v-409l-184 -185l184 -184v-516h-375v481h-276v-481h-375zM375 997h276v99h-276v-99z" />
<glyph unicode="S" horiz-adv-x="1110" d="M0 0v383h657v170h-473l-184 184v557l184 185h842v-383h-657v-160h473l184 -184v-568l-184 -184h-842z" />
<glyph unicode="T" horiz-adv-x="1069" d="M0 1096v383h1026v-383h-321v-1096h-383v1096h-322z" />
<glyph unicode="U" horiz-adv-x="1118" d="M0 0h842l184 184v1295h-369v-1096h-288v1096h-369v-1479z" />
<glyph unicode="V" horiz-adv-x="1118" d="M0 184v1295h369v-1096h288v1096h369v-1295l-184 -184h-658z" />
<glyph unicode="W" horiz-adv-x="1392" d="M0 184v1295h369v-1096h90v614l192 205l191 -205v-614h90v1096h368v-1295l-182 -184h-284l-183 184l-184 -184h-283z" />
<glyph unicode="X" horiz-adv-x="1116" d="M0 0v594l184 184l-184 185v516h383v-482h274v482h369v-516l-184 -185l184 -184v-594h-383v614h-260v-614h-383z" />
<glyph unicode="Y" horiz-adv-x="1087" d="M0 860v619h383v-482h274v482h369v-619l-184 -184h-137v-676h-383v676h-138z" />
<glyph unicode="Z" horiz-adv-x="1110" d="M0 0v383l584 713h-584v383h1026v-383l-584 -713h584v-383h-1026z" />
<glyph unicode="[" horiz-adv-x="669" d="M0 0v1479h588v-383h-205v-713h205v-383h-588z" />
<glyph unicode="\" horiz-adv-x="1005" d="M0 1274h383l594 -1274h-383z" />
<glyph unicode="]" horiz-adv-x="679" d="M0 0v383h205v713h-205v383h588v-1479h-588z" />
<glyph unicode="^" horiz-adv-x="1292" d="M0 1073l610 610l613 -610l-271 -270l-342 340l-340 -340z" />
<glyph unicode="_" horiz-adv-x="980" d="M0 0v-383h864v383h-864z" />
<glyph unicode="`" horiz-adv-x="436" d="M0 1581l178 -381h176l-176 381h-178z" />
<glyph unicode="a" horiz-adv-x="1116" d="M0 184v465l184 185h473v57h-657v383h842l184 -184v-1090h-842zM369 383h288v68h-288v-68z" />
<glyph unicode="b" horiz-adv-x="1112" d="M0 0v1479h383v-205h459l184 -184v-906l-184 -184h-842zM383 383h274v508h-274v-508z" />
<glyph unicode="c" horiz-adv-x="1069" d="M0 184v906l184 184h842v-383h-657v-508h657v-383h-842z" />
<glyph unicode="d" horiz-adv-x="1120" d="M0 184v906l184 184h459v205h383v-1479h-842zM369 383h274v508h-274v-508z" />
<glyph unicode="e" horiz-adv-x="1114" d="M0 184v906l184 184h658l184 -184v-465l-184 -185h-473v-57h657v-383h-842zM369 823h288v68h-288v-68z" />
<glyph unicode="f" horiz-adv-x="862" d="M0 0v1294l184 185h637v-383h-438v-248h276v-383h-276v-465h-383z" />
<glyph unicode="g" horiz-adv-x="1118" d="M0 -57h643v57h-459l-184 184v906l184 184h842v-1530l-184 -184h-842v383zM369 383h274v508h-274v-508z" />
<glyph unicode="h" horiz-adv-x="1112" d="M0 0v1479h383v-205h459l184 -184v-1090h-369v891h-274v-891h-383z" />
<glyph unicode="i" horiz-adv-x="475" d="M0 0v1274h383v-1274h-383z" />
<glyph unicode="j" horiz-adv-x="475" d="M-410 -57h410v1331h383v-1530l-184 -184h-609v383z" />
<glyph unicode="k" horiz-adv-x="1112" d="M0 0v1479h383v-615h260v410h383v-389l-184 -185l184 -184v-516h-369v481h-274v-481h-383z" />
<glyph unicode="l" horiz-adv-x="475" d="M0 0v1479h383v-1479h-383z" />
<glyph unicode="m" horiz-adv-x="1392" d="M0 0v1274h1118l182 -184v-1090h-368v891h-90v-891h-383v891h-90v-891h-369z" />
<glyph unicode="n" horiz-adv-x="1116" d="M0 0v1274h842l184 -184v-1090h-369v891h-288v-891h-369z" />
<glyph unicode="o" horiz-adv-x="1116" d="M0 184v906l184 184h658l184 -184v-906l-184 -184h-658zM369 383h288v508h-288v-508z" />
<glyph unicode="p" horiz-adv-x="1116" d="M0 -205v1479h842l184 -184v-906l-184 -184h-459v-205h-383zM383 383h274v508h-274v-508z" />
<glyph unicode="q" horiz-adv-x="1118" d="M0 184l184 -184h459v-205h383v1479h-842l-184 -184v-906zM369 383v508h274v-508h-274z" />
<glyph unicode="r" horiz-adv-x="1030" d="M0 0v1090l184 184h842v-383h-657v-891h-369z" />
<glyph unicode="s" horiz-adv-x="1116" d="M0 0v383h657v68h-473l-184 184v455l184 184h842v-383h-657v-57h473l184 -185v-465l-184 -184h-842z" />
<glyph unicode="t" horiz-adv-x="1064" d="M0 184l184 -184h842v383h-643v248h481v383h-481v465h-383v-1295z" />
<glyph unicode="u" horiz-adv-x="1116" d="M0 0h842l184 184v1090h-369v-891h-288v891h-369v-1274z" />
<glyph unicode="v" horiz-adv-x="1116" d="M0 184v1090h369v-891h288v891h369v-1090l-184 -184h-658z" />
<glyph unicode="w" horiz-adv-x="1392" d="M0 184v1090h369v-891h90v891h383v-891h90v891h368v-1090l-182 -184h-934z" />
<glyph unicode="x" horiz-adv-x="1116" d="M0 0v516l184 184l-184 185v389h383v-410h260v410h383v-389l-184 -185l184 -184v-516h-369v481h-274v-481h-383z" />
<glyph unicode="y" horiz-adv-x="1118" d="M0 -57v-383h842l184 184v1530h-383v-891h-274v891h-369v-1090l184 -184h459v-57h-643z" />
<glyph unicode="z" horiz-adv-x="1107" d="M0 0v383l502 508h-502v383h1026v-383l-502 -508h502v-383h-1026z" />
<glyph unicode="{" horiz-adv-x="851" d="M0 741l184 183v370l183 185h403v-383h-205v-262l-92 -93l92 -92v-266h205v-383h-403l-183 184v373z" />
<glyph unicode="|" horiz-adv-x="475" d="M0 -205v1888h383v-1888h-383z" />
<glyph unicode="}" horiz-adv-x="839" d="M0 0v383h205v266l92 92l-92 93v262h-205v383h403l185 -185v-370l182 -183l-182 -184v-373l-185 -184h-403z" />
<glyph unicode="~" horiz-adv-x="901" d="M0 1540q14 303 84 376t188 73q51 0 131 -23q96 -27 148 -65q61 -49 133 -50q41 0 55 144h226q-2 -102 -23 -207q-23 -129 -57 -164q-76 -82 -199 -82q-49 0 -125 23q-92 27 -139 67q-59 49 -125 49q-47 0 -74 -141h-223z" />
<glyph unicode="&#xa1;" horiz-adv-x="473" d="M0 0h383v1036h-383v-1036zM0 1098h383v381h-383v-381z" />
<glyph unicode="&#xa2;" horiz-adv-x="1110" d="M0 184v906l184 184h260v102h383v-102h199v-383h-199v-508h199v-383h-199v-102h-383v102h-260zM369 383h75v508h-75v-508z" />
<glyph unicode="&#xa3;" />
<glyph unicode="&#xa5;" horiz-adv-x="1112" d="M0 141v176h322v41h-322v179h322v139h-138l-184 184v619h383v-482h274v482h369v-619l-184 -184h-137v-139h321v-179h-321v-41h321v-176h-321v-141h-383v141h-322z" />
<glyph unicode="&#xa6;" horiz-adv-x="268" d="M0 0v586h178v-586h-178zM0 688v586h178v-586h-178z" />
<glyph unicode="&#xa7;" />
<glyph unicode="&#xa8;" horiz-adv-x="849" d="M115 1724l184 183l184 -183l-184 -184zM545 1724l182 183l184 -183l-184 -184z" />
<glyph unicode="&#xa9;" />
<glyph unicode="&#xaa;" />
<glyph unicode="&#xab;" horiz-adv-x="1550" d="M0 610l610 613l271 -271l-340 -342l340 -340l-271 -270zM602 610l610 613l271 -271l-340 -342l340 -340l-271 -270z" />
<glyph unicode="&#xac;" />
<glyph unicode="&#xad;" horiz-adv-x="962" d="M0 465h864v383h-864v-383z" />
<glyph unicode="&#xae;" />
<glyph unicode="&#xaf;" />
<glyph unicode="&#x2c9;" />
<glyph unicode="&#xb0;" />
<glyph unicode="&#xb1;" />
<glyph unicode="&#xb2;" />
<glyph unicode="&#xb3;" />
<glyph unicode="&#xb4;" />
<glyph unicode="&#xb5;" />
<glyph unicode="&#x3bc;" />
<glyph unicode="&#xb6;" />
<glyph unicode="&#xb7;" />
<glyph unicode="&#x2219;" />
<glyph unicode="&#xb8;" horiz-adv-x="667" d="M342 -299q70 0 108.5 36t18.5 103q-33 106 -125 107v84h180l-14 -60q8 4 18 4q47 0 99 -34q66 -47 65 -138q0 -106 -56 -148t-155 -48q20 2 -139 2v92z" />
<glyph unicode="&#xb9;" />
<glyph unicode="&#xba;" />
<glyph unicode="&#xbb;" horiz-adv-x="1556" d="M0 270l340 340l-340 342l270 271l611 -613l-611 -610zM602 270l340 340l-340 342l270 271l611 -613l-611 -610z" />
<glyph unicode="&#xbc;" />
<glyph unicode="&#xbd;" />
<glyph unicode="&#xbe;" />
<glyph unicode="&#xbf;" horiz-adv-x="1110" d="M0 184v568l184 184h459v100h383v-483h-657v-170h657v-383h-842zM643 1098v381h383v-381h-383z" />
<glyph unicode="&#xc0;" horiz-adv-x="1118" d="M0 0v1294l184 185h658l184 -185v-1294h-383v465h-260v-465h-383zM336 1921l178 -381h176l-178 381h-176zM383 848h260v248h-260v-248z" />
<glyph unicode="&#xc1;" horiz-adv-x="1118" d="M0 0v1294l184 185h658l184 -185v-1294h-383v465h-260v-465h-383zM336 1540l178 381h176l-178 -381h-176zM383 848h260v248h-260v-248z" />
<glyph unicode="&#xc2;" horiz-adv-x="1118" d="M0 0v1294l184 185h658l184 -185v-1294h-383v465h-260v-465h-383zM207 1675l307 305l305 -305l-135 -135l-170 170l-172 -170zM383 848h260v248h-260v-248z" />
<glyph unicode="&#xc3;" horiz-adv-x="1118" d="M0 0v1294l184 185h658l184 -185v-1294h-383v465h-260v-465h-383zM272 1540q6 152 41 188.5t95 36.5q82 0 139 -45q31 -25 67 -24q20 0 27 71h113q-4 -147 -41 -186t-99 -39q-80 0 -131 45q-31 25 -63 25q-23 0 -37 -72h-111zM383 848h260v248h-260v-248z" />
<glyph unicode="&#xc4;" horiz-adv-x="1118" d="M0 0v1294l184 185h658l184 -185v-1294h-383v465h-260v-465h-383zM115 1724l184 183l184 -183l-184 -184zM383 848h260v248h-260v-248zM545 1724l182 183l184 -183l-184 -184z" />
<glyph unicode="&#xc5;" horiz-adv-x="1118" d="M0 0v1294l184 185h658l184 -185v-1294h-383v465h-260v-465h-383zM307 1745l207 205l205 -205l-205 -205zM383 848h260v248h-260v-248zM424 1745l90 -88l88 88l-88 88z" />
<glyph unicode="&#xc6;" horiz-adv-x="1726" d="M0 0v1294l184 185h1485v-383h-643v-166h481v-383h-481v-164h643v-383h-1026v465h-260v-465h-383zM383 848h260v248h-260v-248z" />
<glyph unicode="&#xc7;" horiz-adv-x="1052" d="M0 184v1110l184 185h842v-383h-657v-713h657v-383h-842zM342 -299q70 0 108.5 36t18.5 103q-33 106 -125 107v84h180l-14 -60q8 4 18 4q47 0 99 -34q66 -47 65 -138q0 -106 -56 -148t-155 -48q20 2 -139 2v92z" />
<glyph unicode="&#xc8;" horiz-adv-x="1087" d="M0 184v1110l184 185h842v-383h-643v-166h481v-383h-481v-164h643v-383h-842zM336 1921l178 -381h176l-178 381h-176z" />
<glyph unicode="&#xc9;" horiz-adv-x="1085" d="M0 184v1110l184 185h842v-383h-643v-166h481v-383h-481v-164h643v-383h-842zM336 1540l178 381h176l-178 -381h-176z" />
<glyph unicode="&#xca;" horiz-adv-x="1087" d="M0 184v1110l184 185h842v-383h-643v-166h481v-383h-481v-164h643v-383h-842zM207 1675l307 305l305 -305l-135 -135l-170 170l-172 -170z" />
<glyph unicode="&#xcb;" horiz-adv-x="1087" d="M0 184v1110l184 185h842v-383h-643v-166h481v-383h-481v-164h643v-383h-842zM115 1724l184 183l184 -183l-184 -184zM545 1724l182 183l184 -183l-184 -184z" />
<glyph unicode="&#xcc;" horiz-adv-x="475" d="M0 0v1479h383v-1479h-383zM14 1921l176 -381h179l-179 381h-176z" />
<glyph unicode="&#xcd;" horiz-adv-x="475" d="M0 0v1479h383v-1479h-383zM14 1540l176 381h179l-179 -381h-176z" />
<glyph unicode="&#xce;" horiz-adv-x="589" d="M0 1675l305 305l305 -305l-135 -135l-170 170l-170 -170zM115 0v1479h383v-1479h-383z" />
<glyph unicode="&#xcf;" horiz-adv-x="743" d="M0 1724l184 183l183 -183l-183 -184zM207 0v1479h383v-1479h-383zM428 1724l184 183l185 -183l-185 -184z" />
<glyph unicode="&#xd0;" />
<glyph unicode="&#xd1;" horiz-adv-x="1118" d="M0 0v1479h383l260 -600v600h383v-1479h-383l-260 600v-600h-383zM272 1540q6 152 41 188.5t95 36.5q82 0 139 -45q31 -25 67 -24q20 0 27 71h113q-4 -147 -41 -186t-99 -39q-80 0 -131 45q-31 25 -63 25q-23 0 -37 -72h-111z" />
<glyph unicode="&#xd2;" horiz-adv-x="1116" d="M0 184v1110l184 185h658l184 -185v-1110l-184 -184h-658zM336 1921l178 -381h176l-178 381h-176zM369 383h288v713h-288v-713z" />
<glyph unicode="&#xd3;" horiz-adv-x="1116" d="M0 184v1110l184 185h658l184 -185v-1110l-184 -184h-658zM336 1540l178 381h176l-178 -381h-176zM369 383h288v713h-288v-713z" />
<glyph unicode="&#xd4;" horiz-adv-x="1116" d="M0 184v1110l184 185h658l184 -185v-1110l-184 -184h-658zM207 1675l307 305l305 -305l-135 -135l-170 170l-172 -170zM369 383h288v713h-288v-713z" />
<glyph unicode="&#xd5;" horiz-adv-x="1116" d="M0 184v1110l184 185h658l184 -185v-1110l-184 -184h-658zM272 1540q6 152 41 188.5t95 36.5q82 0 139 -45q31 -25 67 -24q20 0 27 71h113q-4 -147 -41 -186t-99 -39q-80 0 -131 45q-31 25 -63 25q-23 0 -37 -72h-111zM369 383h288v713h-288v-713z" />
<glyph unicode="&#xd6;" horiz-adv-x="1116" d="M0 184v1110l184 185h658l184 -185v-1110l-184 -184h-658zM115 1724l184 183l184 -183l-184 -184zM369 383h288v713h-288v-713zM545 1724l182 183l184 -183l-184 -184z" />
<glyph unicode="&#xd7;" />
<glyph unicode="&#xd8;" horiz-adv-x="1116" d="M0 184v1110l184 185h658l184 -185v-1110l-184 -184h-658zM369 530l131 566h-131v-566zM526 383h131v565z" />
<glyph unicode="&#xd9;" horiz-adv-x="1118" d="M0 184v1295h369v-1096h288v1096h369v-1295l-184 -184h-658zM336 1921h176l178 -381h-176z" />
<glyph unicode="&#xda;" horiz-adv-x="1118" d="M0 184v1295h369v-1096h288v1096h369v-1295l-184 -184h-658zM336 1540l178 381h176l-178 -381h-176z" />
<glyph unicode="&#xdb;" horiz-adv-x="1118" d="M0 184v1295h369v-1096h288v1096h369v-1295l-184 -184h-658zM207 1675l307 305l305 -305l-135 -135l-170 170l-172 -170z" />
<glyph unicode="&#xdc;" horiz-adv-x="1118" d="M0 184v1295h369v-1096h288v1096h369v-1295l-184 -184h-658zM115 1724l184 183l184 -183l-184 -184zM545 1724l182 183l184 -183l-184 -184z" />
<glyph unicode="&#xdd;" horiz-adv-x="1087" d="M0 860v619h383v-482h274v482h369v-619l-184 -184h-137v-676h-383v676h-138zM336 1540l178 381h176l-178 -381h-176z" />
<glyph unicode="&#xde;" />
<glyph unicode="&#xdf;" horiz-adv-x="1112" d="M0 0v1479h842l184 -185v-409l-184 -185l184 -184v-332l-184 -184h-375l184 184v297h-276v-481h-375zM375 997h276v99h-276v-99z" />
<glyph unicode="&#xe0;" horiz-adv-x="1110" d="M0 184v465l184 185h473v57h-657v383h842l184 -184v-1090h-842zM336 1716l178 -381h176l-178 381h-176zM369 383h288v68h-288v-68z" />
<glyph unicode="&#xe1;" horiz-adv-x="1110" d="M0 184v465l184 185h473v57h-657v383h842l184 -184v-1090h-842zM336 1335l178 381h176l-178 -381h-176zM369 383h288v68h-288v-68z" />
<glyph unicode="&#xe2;" horiz-adv-x="1112" d="M0 184v465l184 185h473v57h-657v383h842l184 -184v-1090h-842zM207 1470l307 306l305 -306l-135 -135l-170 170l-172 -170zM369 383h288v68h-288v-68z" />
<glyph unicode="&#xe3;" horiz-adv-x="1112" d="M0 184v465l184 185h473v57h-657v383h842l184 -184v-1090h-842zM272 1335q6 152 41 189t95 37q82 0 139 -45q31 -25 67 -25q20 0 27 72h113q-4 -147 -41 -186.5t-99 -39.5q-80 0 -131 45q-31 25 -63 25q-23 0 -37 -72h-111zM369 383h288v68h-288v-68z" />
<glyph unicode="&#xe4;" horiz-adv-x="1112" d="M0 184v465l184 185h473v57h-657v383h842l184 -184v-1090h-842zM115 1520l184 182l184 -182l-184 -185zM369 383h288v68h-288v-68zM545 1520l182 182l184 -182l-184 -185z" />
<glyph unicode="&#xe5;" horiz-adv-x="1110" d="M0 184v465l184 185h473v57h-657v383h842l184 -184v-1090h-842zM307 1540l207 205l205 -205l-205 -205zM369 383h288v68h-288v-68zM424 1540l90 -88l88 88l-88 88z" />
<glyph unicode="&#xe6;" horiz-adv-x="1771" d="M0 184v465l184 185h473v57h-657v383h1499l184 -184v-465l-184 -185h-473v-57h657v-383h-1499zM369 383h288v68h-288v-68zM1026 823h289v68h-289v-68z" />
<glyph unicode="&#xe7;" horiz-adv-x="1077" d="M0 184v906l184 184h842v-383h-657v-508h657v-383h-842zM342 -299q70 0 108.5 36t18.5 103q-33 106 -125 107v84h180l-14 -60q8 4 18 4q47 0 99 -34q66 -47 65 -138q0 -106 -56 -148t-155 -48q20 2 -139 2v92z" />
<glyph unicode="&#xe8;" horiz-adv-x="1107" d="M0 184v906l184 184h658l184 -184v-465l-184 -185h-473v-57h657v-383h-842zM336 1716l178 -381h176l-178 381h-176zM369 823h288v68h-288v-68z" />
<glyph unicode="&#xe9;" horiz-adv-x="1110" d="M0 184v906l184 184h658l184 -184v-465l-184 -185h-473v-57h657v-383h-842zM336 1335l178 381h176l-178 -381h-176zM369 823h288v68h-288v-68z" />
<glyph unicode="&#xea;" horiz-adv-x="1110" d="M0 184v906l184 184h658l184 -184v-465l-184 -185h-473v-57h657v-383h-842zM207 1470l307 306l305 -306l-135 -135l-170 170l-172 -170zM369 823h288v68h-288v-68z" />
<glyph unicode="&#xeb;" horiz-adv-x="1110" d="M0 184v906l184 184h658l184 -184v-465l-184 -185h-473v-57h657v-383h-842zM115 1520l184 182l184 -182l-184 -185zM369 823h288v68h-288v-68zM545 1520l182 182l184 -182l-184 -185z" />
<glyph unicode="&#xec;" horiz-adv-x="473" d="M0 0v1274h383v-1274h-383zM14 1716l176 -381h179l-179 381h-176z" />
<glyph unicode="&#xed;" horiz-adv-x="471" d="M0 0v1274h383v-1274h-383zM14 1335l176 381h179l-179 -381h-176z" />
<glyph unicode="&#xee;" horiz-adv-x="589" d="M0 1470l305 306l305 -306l-135 -135l-170 170l-170 -170zM115 0v1274h383v-1274h-383z" />
<glyph unicode="&#xef;" horiz-adv-x="743" d="M0 1520l184 182l183 -182l-183 -185zM207 0v1274h383v-1274h-383zM428 1520l184 182l185 -182l-185 -185z" />
<glyph unicode="&#xf0;" />
<glyph unicode="&#xf1;" horiz-adv-x="1112" d="M0 0v1274h842l184 -184v-1090h-369v891h-288v-891h-369zM272 1335q6 152 41 189t95 37q82 0 139 -45q31 -25 67 -25q20 0 27 72h113q-4 -147 -41 -186.5t-99 -39.5q-80 0 -131 45q-31 25 -63 25q-23 0 -37 -72h-111z" />
<glyph unicode="&#xf2;" horiz-adv-x="1110" d="M0 184v906l184 184h658l184 -184v-906l-184 -184h-658zM336 1716l178 -381h176l-178 381h-176zM369 383h288v508h-288v-508z" />
<glyph unicode="&#xf3;" horiz-adv-x="1107" d="M0 184v906l184 184h658l184 -184v-906l-184 -184h-658zM336 1335l178 381h176l-178 -381h-176zM369 383h288v508h-288v-508z" />
<glyph unicode="&#xf4;" horiz-adv-x="1110" d="M0 184v906l184 184h658l184 -184v-906l-184 -184h-658zM207 1470l307 306l305 -306l-135 -135l-170 170l-172 -170zM369 383h288v508h-288v-508z" />
<glyph unicode="&#xf5;" horiz-adv-x="1110" d="M0 184v906l184 184h658l184 -184v-906l-184 -184h-658zM272 1335q6 152 41 189t95 37q82 0 139 -45q31 -25 67 -25q20 0 27 72h113q-4 -147 -41 -186.5t-99 -39.5q-80 0 -131 45q-31 25 -63 25q-23 0 -37 -72h-111zM369 383h288v508h-288v-508z" />
<glyph unicode="&#xf6;" horiz-adv-x="1112" d="M0 184v906l184 184h658l184 -184v-906l-184 -184h-658zM115 1520l184 182l184 -182l-184 -185zM369 383h288v508h-288v-508zM545 1520l182 182l184 -182l-184 -185z" />
<glyph unicode="&#xf7;" />
<glyph unicode="&#xf8;" horiz-adv-x="1116" d="M0 184v906l184 184h658l184 -184v-906l-184 -184h-658zM369 428l108 463h-108v-463zM549 383h108v463z" />
<glyph unicode="&#xf9;" horiz-adv-x="1110" d="M0 184v1090h369v-891h288v891h369v-1090l-184 -184h-658zM336 1716h176l178 -381h-176z" />
<glyph unicode="&#xfa;" horiz-adv-x="1110" d="M0 184v1090h369v-891h288v891h369v-1090l-184 -184h-658zM336 1335l178 381h176l-178 -381h-176z" />
<glyph unicode="&#xfb;" horiz-adv-x="1112" d="M0 184v1090h369v-891h288v891h369v-1090l-184 -184h-658zM207 1470l307 306l305 -306l-135 -135l-170 170l-172 -170z" />
<glyph unicode="&#xfc;" horiz-adv-x="1112" d="M0 184v1090h369v-891h288v891h369v-1090l-184 -184h-658zM115 1520l184 182l184 -182l-184 -185zM545 1520l182 182l184 -182l-184 -185z" />
<glyph unicode="&#xfd;" horiz-adv-x="1112" d="M0 -57v-383h842l184 184v1530h-383v-891h-274v891h-369v-1090l184 -184h459v-57h-643zM336 1716h176l178 -381h-176z" />
<glyph unicode="&#xfe;" />
<glyph unicode="&#xff;" horiz-adv-x="1114" d="M0 -57v-383h842l184 184v1530h-383v-891h-274v891h-369v-1090l184 -184h459v-57h-643zM115 1520l184 182l184 -182l-184 -185zM545 1520l182 182l184 -182l-184 -185z" />
<glyph unicode="&#x152;" horiz-adv-x="1740" d="M0 184v1110l184 185h1499v-383h-643v-166h482v-383h-482v-164h643v-383h-1499zM369 383h288v713h-288v-713z" />
<glyph unicode="&#x153;" horiz-adv-x="1771" d="M0 184v906l184 184h1315l184 -184v-465l-184 -185h-473v-57h657v-383h-1499zM369 383h288v508h-288v-508zM1026 823h289v68h-289v-68z" />
<glyph unicode="&#x178;" horiz-adv-x="1087" d="M115 1785l184 183l184 -183l-184 -184zM545 1785l182 183l184 -183l-184 -184zM0 860v619h383v-482h274v482h369v-619l-184 -184h-137v-676h-383v676h-138z" />
<glyph unicode="&#x2c6;" horiz-adv-x="1292" d="M0 1073l610 610l613 -610l-271 -270l-342 340l-340 -340z" />
<glyph unicode="&#x2dc;" horiz-adv-x="819" d="M-483 123q14 303 84 376t188 73q51 0 131 -23q96 -27 148 -65q61 -49 133 -50q41 0 55 144h226q-2 -102 -23 -207q-23 -129 -57 -164q-76 -82 -199 -82q-49 0 -125 23q-92 27 -139 67q-59 49 -125 49q-47 0 -74 -141h-223z" />
<glyph unicode="&#x2000;" horiz-adv-x="997" />
<glyph unicode="&#x2001;" horiz-adv-x="1994" />
<glyph unicode="&#x2002;" horiz-adv-x="997" />
<glyph unicode="&#x2003;" horiz-adv-x="1994" />
<glyph unicode="&#x2004;" horiz-adv-x="663" />
<glyph unicode="&#x2005;" horiz-adv-x="497" />
<glyph unicode="&#x2006;" horiz-adv-x="331" />
<glyph unicode="&#x2007;" horiz-adv-x="331" />
<glyph unicode="&#x2008;" horiz-adv-x="247" />
<glyph unicode="&#x2009;" horiz-adv-x="397" />
<glyph unicode="&#x200a;" horiz-adv-x="110" />
<glyph unicode="&#x2010;" horiz-adv-x="962" d="M0 465h864v383h-864v-383z" />
<glyph unicode="&#x2011;" horiz-adv-x="962" d="M0 465h864v383h-864v-383z" />
<glyph unicode="&#x2012;" horiz-adv-x="962" d="M0 465h864v383h-864v-383z" />
<glyph unicode="&#x2013;" horiz-adv-x="1024" d="M205 512v205h614v-205h-614z" />
<glyph unicode="&#x2014;" horiz-adv-x="2048" d="M205 512v205h1638v-205h-1638z" />
<glyph unicode="&#x2018;" horiz-adv-x="436" d="M0 1581l178 -381h176l-176 381h-178z" />
<glyph unicode="&#x2019;" horiz-adv-x="282" d="M0 1200v381h178v-381h-178z" />
<glyph unicode="&#x201c;" horiz-adv-x="520" d="M0 1200v381h178v-381h-178zM240 1200v381h176v-381h-176z" />
<glyph unicode="&#x201d;" horiz-adv-x="520" d="M0 1200v381h178v-381h-178zM240 1200v381h176v-381h-176z" />
<glyph unicode="&#x2026;" horiz-adv-x="1480" d="M987 0v381h383v-381h-383zM494 0v381h383v-381h-383zM0 0v381h383v-381h-383z" />
<glyph unicode="&#x202f;" horiz-adv-x="397" />
<glyph unicode="&#x2039;" horiz-adv-x="948" d="M0 610l610 613l271 -271l-340 -342l340 -340l-271 -270z" />
<glyph unicode="&#x203a;" horiz-adv-x="954" d="M0 270l270 -270l611 610l-611 613l-270 -271l340 -342z" />
<glyph unicode="&#x205f;" horiz-adv-x="497" />
<glyph unicode="&#x20ac;" horiz-adv-x="1212" d="M0 543v176h100v41h-100v178h100v356l185 185h841v-383h-657v-158h657v-178h-657v-41h657v-176h-657v-160h657v-383h-841l-185 184v359h-100z" />
<glyph unicode="&#x2122;" horiz-adv-x="2461" d="M1069 0v1479h1118l182 -185v-1294h-368v1096h-90v-1096h-383v1096h-90v-1096h-369zM0 1096v383h1026v-383h-321v-1096h-383v1096h-322z" />
<glyph unicode="&#xe000;" horiz-adv-x="1275" d="M0 1275h1275v-1275h-1275v1275z" />
<glyph unicode="&#xfb01;" horiz-adv-x="1337" d="M862 0v1274h383v-1274h-383zM0 0v1294l184 185h637v-383h-438v-248h276v-383h-276v-465h-383z" />
<glyph unicode="&#xfb02;" horiz-adv-x="1337" d="M862 0v1479h383v-1479h-383zM0 0v1294l184 185h637v-383h-438v-248h276v-383h-276v-465h-383z" />
<glyph unicode="&#xfb03;" horiz-adv-x="2199" d="M1724 0v1274h383v-1274h-383zM862 0v1294l184 185h637v-383h-438v-248h276v-383h-276v-465h-383zM0 0v1294l184 185h637v-383h-438v-248h276v-383h-276v-465h-383z" />
<glyph unicode="&#xfb04;" horiz-adv-x="2199" d="M1724 0v1479h383v-1479h-383zM862 0v1294l184 185h637v-383h-438v-248h276v-383h-276v-465h-383zM0 0v1294l184 185h637v-383h-438v-248h276v-383h-276v-465h-383z" />
</font>
</defs>
</svg>
