<?xml version="1.0" standalone="no"?>
<!DOCTYPE svg PUBLIC "-//W3C//DTD SVG 1.1//EN" "http://www.w3.org/Graphics/SVG/1.1/DTD/svg11.dtd" >
<svg xmlns="http://www.w3.org/2000/svg">
<metadata></metadata>
<defs>
<font id="mission_scriptregular" horiz-adv-x="0" >
<font-face units-per-em="1000" ascent="721" descent="-279" />
<missing-glyph horiz-adv-x="207" />
<glyph unicode="&#x2d;&#x3c;" horiz-adv-x="539" d="M81 333q66 33 117 60.5t75 42t40 25t21.5 14t10.5 3.5q8 0 14 -10t6 -22q0 -5 -2.5 -10.5t-8.5 -11.5t-12.5 -11t-17.5 -11t-19.5 -11t-23 -12t-24 -11t-26.5 -12t-26 -12q30 0 86.5 -1t103.5 -1t90 2q16 0 16 -16q0 -21 -17 -34t-45 -17t-64.5 -5.5t-76 0t-78.5 -0.5 q4 -2 14.5 -7.5t16 -8.5t15 -8t15 -8.5t13.5 -8.5t12.5 -8.5t9 -7.5t6.5 -8t2 -7q0 -16 -14.5 -35t-28.5 -19q-7 0 -17 6.5t-25 18t-60.5 33t-111.5 44.5q-20 7 -20 30q0 18 10.5 35t23.5 21z" />
<glyph unicode="&#x2d;^" horiz-adv-x="340" d="M222 508q26 -63 47.5 -111t33.5 -71t20.5 -37t11.5 -19t3 -8q0 -10 -17 -19.5t-34 -9.5q-9 0 -16.5 6t-16.5 21.5t-14.5 27t-17 37.5t-17.5 38q0 -7 2 -93.5t-3.5 -149.5t-23.5 -63q-14 0 -28 14.5t-15 33.5q-1 15 -1 274q-68 -126 -102 -126q-9 0 -15.5 4t-6.5 10 q0 2 12.5 17.5t44.5 71.5t71 142q12 25 51 25q25 0 31 -15z" />
<glyph unicode="&#x2d;&#x3e;" horiz-adv-x="539" d="M466 260q-67 -32 -117 -58.5t-73 -40t-37.5 -23t-18.5 -12t-8 -2.5q-9 0 -15 11t-6 24q0 7 3.5 14t12.5 14t17 12t24.5 13t26 12.5t31.5 14t32 13.5q-71 -3 -267 5q-25 1 -25 19q0 14 14.5 28t33.5 15q65 5 250 7q-88 36 -104 54q-6 7 -6 14q0 17 14 37.5t28 20.5 q6 0 21.5 -11.5t65.5 -37t127 -51.5q19 -6 19 -26q0 -15 -13.5 -36.5t-29.5 -29.5z" />
<glyph unicode="&#x2d;&#x2c;" horiz-adv-x="365" d="M135 73q-23 55 -44 99t-34 66.5t-23 37.5t-14 21.5t-4 10.5q0 10 14.5 18.5t30.5 8.5q10 0 20 -9t23 -31.5t20.5 -37.5t23.5 -49q0 51 11 286q1 28 23 28q25 0 32.5 -21.5t7.5 -70.5q0 -104 -6 -240q72 145 93 145q7 0 14 -7t7 -16q0 -4 -4 -9.5t-14 -19t-19 -29.5 q-22 -37 -81 -172q-11 -27 -45 -27q-24 0 -32 18z" />
<glyph unicode="ff" horiz-adv-x="618" d="M337 625q0 -112 -40.5 -223.5t-100.5 -179t-115 -62.5q-4 -19 -11 -57t-10 -53q46 6 82.5 18.5t73.5 35.5t64 63.5t41 96.5q14 66 24.5 111.5t26 101.5t29 93.5t32 76t38 61t44 37t51.5 14.5q17 0 30 -8.5t16 -20.5q39 -21 39 -86q0 -85 -26.5 -171.5t-66 -148.5 t-84 -101t-80.5 -41q-2 -8 -11.5 -55.5t-14.5 -76.5q93 12 153.5 45t96.5 108q8 15 16 15q7 0 7 -11q0 -7 -3 -14q-35 -85 -101 -129t-165 -63q27 -13 46 -62t19 -104q0 -56 -24 -92.5t-74 -36.5q-82 0 -82 146q0 98 38 290q-74 -107 -232 -141q27 -12 47.5 -59.5 t20.5 -98.5q0 -50 -23 -82t-72 -32q-85 0 -85 143q-1 99 52 350q14 65 22.5 103.5t22 94.5t24.5 89.5t26 75.5t30.5 66t34.5 46.5t41 32.5t47 10q18 0 31 -8.5t16 -20.5q39 -21 39 -86zM292 664q0 14 -1 20.5t-5.5 12t-13.5 5.5q-14 1 -24.5 -12.5t-22.5 -40.5 q-81 -171 -138 -457q67 47 136 220t69 252zM606 683q0 14 -1 20.5t-5.5 12t-13.5 5.5q-14 1 -23.5 -12t-23.5 -41q-82 -172 -139 -452q66 59 136 225t70 242zM333 -263q19 0 33.5 33t14.5 81q0 62 -27 123q-38 -191 -38 -203q0 -34 17 -34zM30 -240q18 0 30.5 25t12.5 65 q0 59 -28 122q-32 -166 -32 -178q0 -34 17 -34z" />
<glyph unicode="st" horiz-adv-x="494" d="M69 -7q-77 0 -114 31.5t-37 73.5q0 27 15.5 48.5t40.5 15.5q54 82 133 251q-15 40 -15 80q0 50 20 85.5t49 35.5q37 0 37 -45q0 -61 -63 -162q7 -23 28.5 -75t35 -96t13.5 -80q0 -57 -24 -98q14 11 26.5 26.5t19 26t24 42t27.5 48.5q16 113 51 248q-49 0 -86 4 q-17 1 -17 27q0 12 5 21.5t13 9.5q45 0 100 -3q15 61 37 128q7 25 41 25q21 0 36.5 -13t15.5 -37q0 -15 -26 -110h1h1h1h1h1q81 -6 88 -15l2 -5q0 -20 -109 -29q-4 -15 -16 -57t-18 -61.5t-15.5 -55.5t-14.5 -57.5t-11 -48.5t-8.5 -47t-2.5 -35q0 -42 21 -42q11 0 24 11 t26.5 31t24.5 38.5t24 42t19 32.5q10 18 17 18t7 -11q0 -8 -4 -17q-9 -23 -21 -47.5t-35 -63.5t-52.5 -63.5t-58.5 -24.5q-32 0 -52 25t-20 78q0 19 1 30q-36 -68 -84 -101t-123 -33zM110 339q-33 -77 -111 -191q8 -9 9.5 -32.5t0.5 -44.5t7 -38t28 -17q30 0 51.5 37 t21.5 123q0 21 -7 163z" />
<glyph unicode="rs" horiz-adv-x="609" d="M52 24q-6 -33 -37 -33q-16 0 -27 11.5t-11 32.5q0 34 23 176.5t56 244.5q7 25 38 25q19 0 34 -12t15 -32q0 -8 -3 -18.5t-7.5 -23t-6.5 -18.5q62 133 129 133q51 0 51 -65q0 -31 -21.5 -100t-21.5 -84q0 -22 23 -22q29 0 62.5 40t52 75.5t33.5 70.5q-12 35 -12 76 q0 48 17.5 80.5t44.5 32.5q37 0 37 -43q0 -56 -64 -160q1 -4 39.5 -105.5t38.5 -149.5q0 -57 -24 -98q14 11 27 26.5t19.5 26.5t24.5 43.5t27 48.5t17 16q6 0 6 -11q0 -6 -3 -15q-41 -102 -91.5 -150t-138.5 -50h-7q-77 0 -114 31.5t-37 73.5q0 27 13.5 46t34.5 19 q43 0 43 -62v-35q0 -50 35 -50q45 0 59 57.5t14 227.5v72q-19 -41 -41.5 -76.5t-61 -66t-78.5 -30.5q-78 0 -78 77q0 31 19.5 86t19.5 67t-10 12q-28 0 -76 -97t-66 -215z" />
<glyph unicode="vs" horiz-adv-x="613" d="M396 -7q-77 0 -114 31.5t-37 73.5q0 27 13.5 46t34.5 19q28 0 35.5 -21t7.5 -76q0 -50 35 -50q30 0 51.5 37t21.5 123v179q-14 -31 -32 -60t-43.5 -58.5t-59 -42t-67.5 -2.5q-38 -88 -82.5 -143t-90.5 -55q-74 0 -74 142q0 136 60 353q8 26 40 26q21 0 36.5 -13.5 t15.5 -37.5q0 -21 -40 -172.5t-40 -203.5q0 -49 26 -49q38 0 103 190q-19 32 -19 84q0 73 32.5 142t70.5 69q40 0 40 -57q0 -75 -61 -234q89 -39 183 180q-17 43 -17 87q0 48 18 81t45 33q37 0 37 -43q0 -56 -64 -160q1 -4 39.5 -105.5t38.5 -149.5q0 -57 -24 -98 q14 11 27 26.5t19.5 26.5t24.5 43.5t27 48.5t17 16q6 0 6 -11q0 -6 -3 -15q-42 -104 -94 -152t-143 -48z" />
<glyph unicode="ws" horiz-adv-x="832" d="M337 464q0 -22 -40 -174t-40 -202q0 -49 26 -49q38 0 103 190q-19 32 -19 84q0 73 32.5 142t70.5 69q40 0 40 -57q0 -75 -61 -234q33 -13 67.5 2t62.5 50t47 66.5t34 65.5q-15 38 -15 84q0 48 17.5 80.5t44.5 32.5q37 0 37 -43q0 -56 -64 -160q1 -4 39.5 -105.5 t38.5 -149.5q0 -57 -24 -98q14 11 27 26.5t19.5 26.5t24.5 43.5t27 48.5t17 16q6 0 6 -11q0 -6 -3 -15q-41 -102 -91.5 -150t-138.5 -50h-7q-77 0 -114 31.5t-37 73.5q0 27 13.5 46t34.5 19q29 0 36 -20.5t7 -76.5q0 -50 35 -50q30 0 51.5 37t21.5 123v187 q-16 -33 -37.5 -65t-51.5 -62t-67.5 -42.5t-74.5 -1.5q-38 -88 -82.5 -143t-90.5 -55q-68 0 -73 119q-50 -119 -117 -119q-74 0 -74 142q0 136 60 353q8 26 40 26q21 0 36.5 -13.5t15.5 -37.5q0 -19 -40 -167t-40 -209q0 -50 26 -50q19 0 37 30.5t33.5 84.5t28 108t28 122.5 t25.5 105.5q8 26 40 26q21 0 36.5 -13.5t15.5 -37.5z" />
<glyph unicode="rx" horiz-adv-x="697" d="M52 24q-6 -33 -37 -33q-16 0 -27 11.5t-11 32.5q0 46 24 174.5t55 246.5q7 25 38 25q19 0 34 -12t15 -32q0 -8 -3 -18.5t-7.5 -23t-6.5 -18.5q62 133 129 133q51 0 51 -65q0 -31 -24 -98.5t-24 -82.5q0 -22 23 -22q17 0 34.5 17.5t33.5 48.5t27 56t24 59t15 39 q0 20 15 32.5t35 12.5q34 0 38 -30q2 -17 10 -74.5t13 -90.5q12 77 48.5 136.5t82.5 59.5q21 0 35 -11.5t14 -29.5q0 -22 -10.5 -34t-26.5 -15.5t-36.5 -12t-39 -22t-34.5 -48.5t-23 -88q31 -187 71 -187q5 0 10.5 3.5t11.5 11.5t11.5 16t13 23l13 26t15 31t15.5 32 q9 17 18 17q6 0 6 -9t-4 -18l-16 -40t-19 -46.5t-20 -41.5t-24.5 -39t-28.5 -24.5t-34 -10.5q-62 0 -107 146q-17 -62 -50 -104.5t-83 -42.5q-20 0 -34.5 11.5t-14.5 28.5q0 30 18.5 42t62.5 16q23 2 50.5 25.5t40.5 59.5q-25 97 -37 223q-69 -196 -167 -196q-78 0 -78 77 q0 31 22 86t22 67t-10 12q-28 0 -76 -97t-66 -215z" />
<glyph unicode="vx" horiz-adv-x="741" d="M146 459q0 -26 -39.5 -171.5t-39.5 -199.5q0 -49 26 -49q38 0 103 190q-19 32 -19 84q0 73 32.5 142t70.5 69q40 0 40 -57q0 -74 -60 -233q14 -6 26 -6q21 0 41 14t34 32.5t28.5 48t23 50.5t19 50.5t13.5 37.5q0 21 15 33.5t35 12.5q34 0 38 -30q2 -17 10 -74.5t13 -90.5 q12 77 48.5 136.5t82.5 59.5q21 0 35 -11.5t14 -29.5q0 -22 -10.5 -34t-26.5 -15.5t-36.5 -12t-39 -22t-34.5 -48.5t-23 -88q31 -187 71 -187q5 0 10.5 3.5t11.5 11.5t11.5 16t13 23l13 26t15 31t15.5 32q9 17 18 17q6 0 6 -9t-4 -18l-16 -40t-19 -46.5t-20 -41.5t-24.5 -39 t-28.5 -24.5t-34 -10.5q-62 0 -107 146q-17 -62 -50 -104.5t-83 -42.5q-20 0 -34.5 11.5t-14.5 28.5q0 30 18.5 42t62.5 16q23 2 50.5 25.5t40.5 59.5q-25 97 -37 223q-70 -208 -180 -208q-17 0 -29 4q-38 -88 -82.5 -143t-90.5 -55q-74 0 -74 141q0 135 59 349q8 26 40 26 q21 0 36.5 -13.5t15.5 -37.5z" />
<glyph unicode="wx" horiz-adv-x="925" d="M643 460q0 20 13.5 34t36.5 14q34 0 38 -31q2 -17 10 -74.5t13 -90.5q12 77 48.5 136.5t82.5 59.5q21 0 35 -11.5t14 -29.5q0 -22 -10.5 -34t-26.5 -15.5t-36.5 -12t-39 -22t-34.5 -48.5t-23 -88q31 -187 71 -187q5 0 10.5 3.5t11.5 11.5t11.5 16t13 23l13 26t15 31 t15.5 32q9 17 18 17q6 0 6 -9t-4 -18l-16 -40t-19 -46.5t-20 -41.5t-24.5 -39t-28.5 -24.5t-34 -10.5q-62 0 -107 146q-17 -62 -50 -104.5t-83 -42.5q-20 0 -34.5 11.5t-14.5 28.5q0 30 18.5 42t62.5 16q23 2 50.5 25.5t40.5 59.5q-23 93 -38 224q-11 -30 -23 -56t-33 -60 t-43.5 -55.5t-53.5 -32.5t-63 -1q-38 -88 -82.5 -143t-90.5 -55q-68 0 -73 119q-50 -119 -117 -119q-74 0 -74 142q0 136 60 353q8 26 40 26q21 0 36.5 -13.5t15.5 -37.5t-40 -174.5t-40 -201.5q0 -50 26 -50q19 0 37 30.5t33.5 84.5t28 108t28 122.5t25.5 105.5q8 26 40 26 q21 0 36.5 -13.5t15.5 -37.5t-40 -171t-40 -205q0 -49 26 -49q38 0 103 190q-19 32 -19 84q0 73 32.5 142t70.5 69q40 0 40 -57q0 -75 -61 -234q32 -14 63 3.5t58 65t39.5 74.5t29.5 73q3 7 4 10v1z" />
<glyph unicode="r&#x7a;" horiz-adv-x="691" d="M68 130l-16 -106q-6 -33 -37 -33q-16 0 -27 11.5t-11 32.5q0 41 24 178.5t55 242.5q7 25 38 25q19 0 34 -12t15 -32q0 -8 -3 -18.5t-7.5 -23t-6.5 -18.5q62 133 129 133q51 0 51 -65q0 -31 -24 -100t-24 -84q0 -22 23 -22q35 0 68 53.5t54 113.5q-27 16 -27 46 q0 21 13.5 38.5t29.5 17.5q26 0 26 -43q41 1 119 24t82 23q16 0 25.5 -12t9.5 -29q0 -43 -60 -63q10 -27 10 -60q0 -71 -46 -146.5t-112 -123.5q35 -15 56 -51q117 81 162 176q8 18 19 18q6 0 6 -8q0 -9 -5 -20q-50 -115 -168 -205q8 -51 -9.5 -124.5t-64 -134t-105.5 -60.5 q-40 0 -71.5 29t-31.5 70q0 34 14 63.5t44 55.5t56 43.5t69 43.5q8 5 12 7q-7 46 -33 67q-37 -17 -63 -17q-37 0 -37 25q0 15 17 27t47 12q12 0 32 -2q27 29 57 83.5t64.5 126.5t47.5 95q-87 -21 -160 -2q-69 -196 -174 -196q-78 0 -78 77q0 31 22 86t22 67t-10 12 q-28 0 -76 -97t-66 -215zM339 -299q26 0 48 26.5t36 65.5t22 73.5t11 59.5q-37 -26 -55 -40t-45.5 -39t-40 -50t-12.5 -51q0 -19 9 -32t27 -13z" />
<glyph unicode="v&#x7a;" horiz-adv-x="706" d="M147 464q0 -20 -40 -169.5t-40 -206.5q0 -49 26 -49q38 0 103 190q-19 32 -19 84q0 73 32.5 142t70.5 69q40 0 40 -57q0 -75 -61 -234q17 -4 30 -5.5t27 8t25 18.5t22.5 26t19.5 31t16.5 33t14 31.5t10.5 27.5q-33 16 -33 49q0 21 13.5 38.5t29.5 17.5q26 0 26 -43 q41 1 119 24t82 23q16 0 25.5 -12t9.5 -29q0 -45 -60 -63q10 -27 10 -60q0 -71 -46 -146.5t-112 -123.5q35 -15 56 -51q117 81 162 176q8 18 19 18q6 0 6 -8q0 -9 -5 -20q-50 -115 -168 -205q8 -51 -9.5 -124.5t-64 -134t-105.5 -60.5q-39 0 -71 29.5t-32 69.5q0 34 14 63.5 t44 55.5t56 43.5t69 43.5q8 5 12 7q-7 46 -33 67q-37 -17 -63 -17q-37 0 -37 25q0 15 17 27t47 12q12 0 32 -2q27 29 57 83.5t64.5 126.5t47.5 95q-87 -20 -156 -3q-12 -38 -27.5 -71.5t-40.5 -71.5t-61 -55t-76 -5q-38 -88 -82.5 -143t-90.5 -55q-74 0 -74 142 q0 136 60 353q8 26 40 26q21 0 36.5 -13.5t15.5 -37.5zM354 -299q33 0 61.5 45t41.5 95.5t14 84.5q-37 -26 -55 -40t-45.5 -39t-40 -50t-12.5 -51q0 -19 9 -32t27 -13z" />
<glyph unicode="w&#x7a;" horiz-adv-x="906" d="M337 464q0 -27 -40 -169.5t-40 -206.5q0 -49 26 -49q38 0 103 190q-19 32 -19 84q0 73 32.5 142t70.5 69q40 0 40 -57q0 -75 -61 -234q88 -39 172 171q-29 15 -29 48q0 22 13 39t29 17q26 0 26 -43q41 1 119 24t82 23q16 0 25.5 -12t9.5 -29q0 -18 -14 -36t-46 -27 q10 -27 10 -60q0 -71 -46 -146.5t-112 -123.5q35 -15 56 -51q117 81 162 176q8 18 19 18q6 0 6 -8q0 -9 -5 -20q-50 -115 -168 -205q10 -125 -47.5 -222t-131.5 -97q-39 0 -71 29.5t-32 69.5q0 34 14 63.5t44 55.5t56 43.5t69 43.5q4 2 6.5 3.5t5.5 3.5q-7 46 -33 67 q-37 -17 -63 -17q-37 0 -37 25q0 15 17 27t47 12q12 0 32 -2q27 29 57 83.5t64.5 126.5t47.5 95q-47 -11 -91 -11q-36 0 -66 8q-13 -37 -30 -71.5t-44 -72t-63.5 -54.5t-76.5 -5q-38 -88 -82.5 -143t-90.5 -55q-68 0 -73 119q-50 -119 -117 -119q-74 0 -74 142q0 136 60 353 q8 26 40 26q21 0 36.5 -13.5t15.5 -37.5q0 -33 -40 -173.5t-40 -202.5q0 -50 26 -50q19 0 37 30.5t33.5 84.5t28 108t28 122.5t25.5 105.5q8 26 40 26q21 0 36.5 -13.5t15.5 -37.5zM554 -299q26 0 49 27t37 65t22.5 74t8.5 59q-37 -26 -55 -40t-45.5 -39t-40 -50t-12.5 -51 q0 -19 9.5 -32t26.5 -13z" />
<glyph unicode="tt" horiz-adv-x="416" d="M16 508h49q22 81 37 128q7 25 41 25q21 0 36.5 -13t15.5 -37q0 -11 -3.5 -26.5t-11.5 -42.5t-10 -36l102 -3q25 93 43 148q7 25 41 25q21 0 36.5 -13t15.5 -37q0 -13 -4 -30.5t-14.5 -53.5t-12.5 -43q57 -1 76 -5t19 -13q0 -7 -6 -11.5t-30 -8.5t-72 -7q-4 -13 -13 -45 t-13.5 -47.5t-13 -45t-13 -46.5t-11 -42.5t-10 -42t-7 -36t-5 -34t-1.5 -26.5q0 -41 21 -41t51.5 43t54 86.5t29.5 43.5q7 0 7 -11q0 -8 -4 -17q-9 -23 -21 -47.5t-35 -63.5t-52.5 -63.5t-58.5 -24.5q-32 0 -49.5 22.5t-21 50t-0.5 60.5q-68 -133 -137 -133q-32 0 -52 25 t-20 78q0 105 60 350l-34 3q-17 1 -17 27q0 12 5 21.5t13 9.5zM69 90q0 -42 21 -42q24 0 58.5 51t58.5 103q17 105 52 247l-106 -3q-3 -10 -13 -44t-13.5 -46.5t-12 -43.5t-12.5 -46t-10.5 -40.5t-9.5 -41t-6.5 -35t-5 -33.5t-1.5 -26z" />
<glyph unicode="ll" horiz-adv-x="539" d="M483 777q26 0 40 -20q22 -13 32.5 -33t10.5 -66q0 -76 -24 -170.5t-71 -169t-101 -74.5q-2 0 -4 0.5t-4 0.5q-13 -85 -13 -127q0 -63 40 -63q37 0 79 44.5t71 103.5q7 15 16 15q7 0 7 -11q0 -5 -3 -14q-28 -70 -86.5 -136t-116.5 -66q-91 0 -91 151q-35 -62 -83 -106.5 t-95 -44.5q-91 0 -91 151q0 80 23 198q73 393 181 403q23 0 39 -13q40 -11 40 -77t-23.5 -157.5t-69 -171t-95.5 -91.5q-11 -72 -11 -115q0 -63 40 -63q36 0 76.5 42t70.5 100q7 108 37.5 239.5t80 236t98.5 104.5zM507 736q-26 -10 -70.5 -162t-70.5 -305q67 61 111 214.5 t30 252.5zM226 704q-27 -18 -67 -158.5t-64 -284.5q58 68 100 210.5t31 232.5z" />
<glyph unicode="ee" horiz-adv-x="654" d="M245 491q32 -4 48 -28t16 -61q0 -38 -14 -80.5t-39 -81t-66.5 -60t-91.5 -14.5h-8q0 -116 66 -116q31 0 59.5 15.5t50 41.5t35 46.5t24.5 43.5q5 74 31 146.5t69.5 121.5t90.5 49q37 0 57 -17q60 -7 60 -99q0 -84 -50.5 -165t-122.5 -81q-22 0 -44 9q2 -107 66 -107 q40 0 76 25.5t55.5 56t35.5 56t21 25.5q7 0 7 -10q0 -7 -3 -14q-80 -200 -230 -200q-56 0 -85.5 41t-33.5 108q-78 -153 -207 -153q-61 0 -91 48.5t-30 125.5q0 76 25.5 155.5t70.5 134.5t95 55q37 0 57 -17zM418 190q35 -5 72.5 39.5t60.5 104t23 102.5q0 39 -19 39 q-43 0 -86.5 -94.5t-50.5 -190.5zM91 190q58 8 107 89.5t49 147.5q0 42 -20 42q-42 0 -85 -92.5t-51 -186.5z" />
<glyph unicode="ss" horiz-adv-x="572" d="M375 -12q-108 0 -133 71q-56 -63 -166 -66h-7q-77 0 -114 31.5t-37 73.5q0 27 15 47t41 17q60 89 128 238q-14 39 -14 75q0 51 20.5 87t49.5 36q37 0 37 -42q0 -56 -60 -153q7 -23 28.5 -73.5t35 -94t13.5 -79.5q0 -60 -26 -102q34 20 52 46q2 18 12 32t24 18 q62 93 142 283q-15 37 -15 80q0 51 20 87t49 36q35 0 35 -42q0 -58 -62 -161q2 -10 38.5 -121.5t36.5 -160.5q0 -53 -23 -96q14 11 26 27t19.5 28.5t24 43t27.5 49.5q9 16 17 16q6 0 6 -11q0 -6 -3 -15q-43 -105 -94.5 -155t-142.5 -50zM418 366q-34 -86 -115 -220 q15 -8 19.5 -24t4.5 -57q0 -54 26 -54q28 0 49 38.5t21 121.5q0 17 -5 195zM107 330q-31 -72 -107 -182q9 -12 9 -81q0 -51 35 -51q30 0 51.5 37t21.5 123q0 11 -10 154z" />
<glyph unicode="oo" horiz-adv-x="746" d="M43 361q17 38 50 38q11 48 43.5 79.5t79.5 31.5q57 0 85 -42.5t28 -112.5q0 -64 -22 -136q32 13 56 45t35.5 62t28.5 52.5t38 20.5q15 52 47 85t78 33q57 0 84.5 -43t27.5 -114q0 -109 -53 -220q67 2 97 63q7 14 14 14q8 0 8 -12q0 -32 -39 -62.5t-94 -31.5 q-69 -124 -152 -124q-57 0 -85 49t-28 124q0 44 7 80q-35 -43 -81 -54q-31 -83 -81 -138t-104 -55q-57 0 -85 46.5t-28 120.5q0 106 45 201zM584 479q-27 -1 -49 -55t-22 -120q0 -112 66 -149q37 126 37 234q0 87 -32 90zM210 472q-22 0 -41.5 -29t-27.5 -71q3 -4 3 -7 q0 -1 -3 -12t-3 -18q0 -96 84 -119q21 92 21 166q0 87 -33 90zM130 38q41 0 81 137q1 1 2 4l2 8q-77 17 -110 87q-22 -78 -22 -140q0 -96 47 -96zM501 27q8 0 14.5 3t12.5 10t10.5 12.5t9.5 17t7.5 17t7 18t5.5 15.5q-75 24 -102 108q-12 -60 -12 -103q0 -98 47 -98z" />
<glyph unicode="rr" horiz-adv-x="662" d="M68 130l-16 -106q-2 -16 -12.5 -24.5t-24.5 -8.5q-16 0 -27 11.5t-11 32.5q0 40 24 178.5t55 242.5q7 25 38 25q19 0 34 -12t15 -32q0 -8 -3 -18.5t-7.5 -23t-6.5 -18.5q62 133 129 133q51 0 51 -65q0 -31 -20.5 -93t-20.5 -77q0 -22 23 -22q16 0 29.5 13.5t24 40.5 t17.5 51t16.5 62.5t15.5 57.5q6 21 28 21q18 0 35.5 -14t17.5 -30q0 -1 -24 -91q69 168 142 168q50 0 50 -51q0 -32 -26.5 -112.5t-26.5 -107.5q0 -22 23 -22q20 0 44 34t42.5 68t23.5 34q7 0 7 -11q0 -43 -48 -103.5t-96 -60.5q-78 0 -78 77q0 31 25 97t25 78t-10 12 q-25 0 -70 -90.5t-69 -200.5q-5 -24 -10 -55.5t-8 -51t-8 -38.5t-13.5 -28t-22.5 -9q-16 0 -27 11.5t-11 32.5q0 48 33 227q-33 -44 -78 -44q-34 0 -56 19t-22 61q0 30 18.5 75t18.5 57t-10 12q-28 0 -76 -97t-66 -215z" />
<glyph unicode="nn" horiz-adv-x="774" d="M57 19q-5 -26 -39 -26q-18 0 -32 11t-14 30q0 50 29.5 184t64.5 251q4 17 27 17q20 0 39 -13.5t19 -31.5q0 -4 -4.5 -20.5t-11 -40.5t-9.5 -36q34 79 73 128.5t76 49.5q40 0 57 -28t17 -63q0 -49 -26.5 -127.5t-52.5 -147t-26 -94.5q0 -23 23 -23q33 0 68.5 54t50.5 115 q22 111 63 248q7 26 37 26q19 0 34 -12.5t15 -33.5q0 -16 -11.5 -53.5t-11.5 -39.5q73 167 144 167q40 0 57 -28t17 -63q0 -63 -48.5 -193t-48.5 -154q0 -21 16 -21q10 0 23.5 10.5t25.5 24.5t26 34t22 34t17.5 31t10.5 18q10 17 19 17q5 0 5 -7t-4 -18q-6 -19 -20.5 -48 t-37 -66.5t-53.5 -63.5t-61 -26q-32 0 -55 22.5t-23 65.5q0 48 48 177.5t48 160.5q0 24 -16 24q-30 0 -83.5 -104.5t-83.5 -238.5q-2 -10 -5 -31.5t-5 -31t-7 -22t-14 -17.5t-22 -5q-17 0 -30.5 12t-13.5 33q0 1 0.5 4t2 18.5t4.5 38.5q-25 -50 -60 -83t-75 -33 q-32 0 -55 22.5t-23 65.5q0 47 51.5 190t51.5 176q0 25 -15 25q-31 0 -89 -115.5t-81 -243.5z" />
<glyph unicode="pp" horiz-adv-x="754" d="M134 -15q-59 0 -88 25q-46 -207 -50 -258q-1 -17 -12 -26.5t-25 -9.5q-17 0 -30 13t-13 36q0 27 56 303t84 376q10 36 46 36q17 0 30 -10.5t13 -27.5q0 -7 -8 -40q49 107 108 107q43 0 64.5 -36.5t21.5 -94.5q0 -91 -42.5 -195.5t-103.5 -155.5q66 15 111 57t82 119 q0 1 1 2q38 187 60 261q8 31 39 31q18 0 33.5 -12t15.5 -27q0 -7 -9 -45q51 107 107 107q43 0 63.5 -36.5t20.5 -95.5q0 -95 -44.5 -207.5t-107.5 -166.5q67 18 114 64.5t85 124.5q7 16 16 16q7 0 7 -11q0 -6 -3 -15q-42 -104 -105 -160.5t-165 -56.5q-55 0 -82 18 q-54 -241 -58 -289q-3 -25 -34 -25q-18 0 -31.5 10.5t-13.5 30.5q0 45 73 393q-38 -64 -91.5 -96.5t-134.5 -32.5zM485 266l-49 -214q19 -4 33 -22q49 10 96.5 140t47.5 222q0 56 -24 56q-48 0 -104 -182zM92 211q-6 -23 -15.5 -67.5t-13.5 -59.5q16 5 31.5 -6t19.5 -28 q44 28 82 139t38 190q0 58 -26 58q-28 0 -59 -62.5t-57 -163.5z" />
<glyph unicode="cc" horiz-adv-x="696" d="M200 518q51 0 79 -37.5t28 -95.5q0 -108 -71 -108q-36 0 -36 25q0 16 27.5 58t27.5 72q0 12 -6 34.5t-17 22.5q-28 0 -61 -57t-55 -137.5t-22 -145.5q0 -109 71 -109q53 0 103.5 53.5t78.5 112.5q9 113 65 207.5t127 94.5q31 0 54 -19q32 -6 47 -37.5t15 -76.5 q0 -62 -17.5 -103.5t-54.5 -41.5q-18 0 -31.5 9t-13.5 23q0 15 30.5 67.5t30.5 99.5q0 15 -8 27t-16 12q-41 0 -86 -109t-45 -204q0 -108 73 -108q53 0 102.5 50t76.5 106q7 15 16 15q7 0 7 -10q0 -6 -3 -15q-32 -79 -92.5 -141t-138.5 -62q-66 0 -100.5 44t-38.5 117 q-37 -70 -91.5 -119t-121.5 -49q-70 0 -104 51.5t-34 134.5q0 80 27 160.5t75.5 134.5t102.5 54z" />
<glyph unicode="gg" horiz-adv-x="758" d="M408 -355q-37 0 -69.5 32.5t-32.5 71.5q0 22 6 42t21 39t28 33.5t39.5 33t41.5 29t48.5 31t47.5 29.5l27 135q-26 -63 -56 -99.5t-59 -36.5q-39 0 -58 38t-19 101q0 3 0.5 10.5t0.5 10.5q-40 -77 -120 -143q-39 -176 -84.5 -250t-106.5 -74q-26 0 -53 19 q-20 5 -35.5 28.5t-15.5 52.5q0 33 15 63t44.5 56t58 45.5t69.5 45.5l15 9q24 119 27 134q-26 -63 -57.5 -100t-59.5 -37q-39 0 -58 37t-19 99q0 78 26 164.5t74.5 150t102.5 63.5q28 0 45.5 -23.5t19.5 -50.5q26 0 44.5 -16.5t18.5 -43.5q0 -21 -10 -74.5t-24.5 -122.5 t-20.5 -104q88 74 114 163l3 8q25 113 77 195.5t115 82.5q30 0 50.5 -24t24.5 -50q20 -1 36.5 -17.5t16.5 -41.5q0 -23 -61 -326q76 64 112 140q7 16 17 16q7 0 7 -10q0 -4 -4 -16q-42 -107 -145 -190q-69 -358 -225 -358zM610 364q15 72 18 76q-16 24 -33 24 q-47 0 -89 -132.5t-42 -228.5q0 -50 16 -50q33 0 67.5 88.5t62.5 222.5zM228 351q5 23 7.5 37.5t3 18t0.5 5t1 3.5q-3 35 -28 35q-46 0 -87 -124t-41 -215q0 -49 17 -49q34 0 67.5 80.5t59.5 208.5zM383 -325q14 1 27.5 7t24.5 19t20 25t18 33.5t14.5 34t12.5 38t9.5 34.5 t9 34t6.5 27q-34 -22 -49 -32t-44.5 -33t-43.5 -40t-26 -42t-12 -50q0 -34 33 -55zM138 -109l7 33q-33 -22 -52.5 -37t-44 -37.5t-36 -45.5t-11.5 -48q0 -19 9.5 -32.5t28.5 -13.5q57 0 99 181z" />
<glyph unicode="gy" horiz-adv-x="746" d="M10 -303q-20 5 -35.5 28.5t-15.5 52.5q0 33 15 63t44.5 56t58 45.5t69.5 45.5l15 9q24 119 27 134q-26 -63 -57.5 -100t-59.5 -37q-39 0 -58 37t-19 99q0 78 26 164.5t74.5 150t102.5 63.5q28 0 45.5 -23.5t19.5 -50.5q26 0 44.5 -16.5t18.5 -43.5q0 -18 -9 -65.5 t-23.5 -118.5t-22.5 -117q88 74 117 171q7 35 28 121.5t28 127.5q4 28 36 28q21 0 38.5 -13t17.5 -31v-5q-11 -59 -31 -148.5t-30.5 -144t-10.5 -85.5q0 -41 21 -41q11 0 20.5 6.5t18.5 23t15.5 32.5t15 46.5t14.5 52.5t16 64.5t17 68.5q0 1 0.5 2t0.5 2l31 142q6 25 37 25 q20 0 36.5 -11.5t16.5 -27.5q0 -5 -1 -7q-41 -163 -83 -419q67 67 107 150q8 18 18 18q6 0 6 -10q0 -7 -4 -18q-48 -120 -140 -209q-29 -165 -91.5 -258.5t-126.5 -93.5q-19 0 -39 14q-20 5 -35.5 28t-15.5 53q0 26 9.5 51t21 42t37.5 39.5t42 34t52.5 36t51.5 35.5 q8 60 18 118q-42 -98 -103 -98q-88 0 -77 162q-37 -76 -115 -141l-28 -116q-30 -109 -73.5 -160.5t-90.5 -51.5q-26 0 -53 19zM228 351q9 44 11 61q0 2 1 3q-3 35 -28 35q-46 0 -87 -124t-41 -215q0 -49 17 -49q33 0 67 82t60 207zM386 -339q40 0 71 38t46.5 89t20.5 110 q-6 -5 -28 -21.5l-30 -22.5t-26.5 -21.5t-26.5 -24t-20.5 -23t-18 -26t-10 -26t-4.5 -28.5q0 -27 26 -44zM39 -290q62 0 107 216q-45 -31 -70.5 -51t-50 -53.5t-24.5 -65.5q0 -21 11.5 -33.5t26.5 -12.5z" />
<glyph unicode="yg" horiz-adv-x="746" d="M152 456q-11 -61 -30 -144t-29 -133.5t-10 -78.5q0 -38 21 -38q9 0 17 4t15 13t13 19t12.5 27.5t11 32.5t11.5 40.5t11.5 44t12.5 50.5t14 54v2l28 128q6 25 37 25q20 0 36.5 -11.5t16.5 -27.5q0 -5 -1 -7q-41 -164 -79 -397q67 61 107 144q0 1 0.5 1t0.5 1 q19 122 75 219.5t124 97.5q30 0 50.5 -24t24.5 -50q20 -1 36.5 -17.5t16.5 -41.5q0 -21 -10.5 -76.5t-27 -133t-23.5 -116.5q76 64 112 140q7 16 17 16q7 0 7 -10q0 -4 -4 -16q-42 -107 -145 -190q-76 -358 -225 -358q-29 0 -65.5 27.5t-36.5 76.5q0 22 6 42t21 39t28 33.5 t39.5 33t41.5 29t48.5 31t47.5 29.5l27 135q-26 -63 -56 -99.5t-59 -36.5q-77 0 -77 152q-43 -83 -112 -141q-26 -163 -76.5 -237.5t-108.5 -74.5q-28 0 -56 19q-20 5 -35.5 28.5t-15.5 52.5q0 26 9 49t19.5 38.5t35 33.5t39 26.5t49 27t47.5 26.5l14 94q-41 -85 -102 -85 q-80 0 -80 105q0 60 34.5 209t37.5 169q4 28 36 28q21 0 38.5 -13t17.5 -31v-5zM598 364l4.5 27t6.5 34t7 15q-16 24 -33 24q-47 0 -89 -132.5t-42 -228.5q0 -50 16 -50q33 0 69 91.5t61 219.5zM371 -325q14 1 27.5 7t24.5 19t20 25t18 33.5t14.5 34t12.5 38t9.5 34.5t9 34 t6.5 27q-34 -22 -49 -32t-44.5 -33t-43.5 -40t-26 -42t-12 -50q0 -34 33 -55zM-1 -238q0 -23 12 -34.5t29 -11.5q13 0 27 8t30.5 26.5t29.5 56.5t18 89l3 29q-80 -49 -105 -72q-44 -42 -44 -91z" />
<glyph unicode=" "  horiz-adv-x="207" />
<glyph unicode="&#x09;" horiz-adv-x="207" />
<glyph unicode="&#xa0;" horiz-adv-x="207" />
<glyph unicode="!" horiz-adv-x="315" d="M148 225q-7 -22 -22 -22q-16 0 -16 24q0 7 1 11q41 233 124 495q12 40 57 40q21 0 36 -12.5t15 -33.5q0 -14 -6 -29q-12 -29 -42.5 -99.5t-44 -102.5t-35 -85.5t-37.5 -97t-30 -88.5zM79 -10q-26 0 -43.5 14.5t-17.5 41.5q0 34 25.5 63t64.5 29q29 0 43.5 -16t14.5 -40 q0 -34 -24.5 -63t-62.5 -29z" />
<glyph unicode="&#x22;" horiz-adv-x="298" d="M143 497q-9 -24 -28 -24q-15 0 -26 12t-11 33q0 189 58 189q18 0 34 -11.5t16 -27.5q0 -50 -43 -171zM281 497q-9 -24 -29 -24q-14 0 -25 12.5t-11 33.5q0 189 60 189q18 0 32.5 -11.5t14.5 -28.5q0 -23 -13.5 -77t-28.5 -94z" />
<glyph unicode="#" horiz-adv-x="408" d="M252 215q-4 -25 -20 -25q-10 0 -17.5 10.5t-7.5 26.5q0 1 0.5 3t0.5 4l10 77q-4 0 -12.5 -0.5t-13.5 -0.5q-8 0 -26 0.5t-26 0.5q-2 -9 -4.5 -27t-5 -32.5t-6 -29t-9 -23t-12.5 -8.5q-9 0 -16.5 11t-7.5 29q0 17 10 80l-66 3q-28 1 -28 15q0 18 24 23.5t78 5.5 q7 44 18 87q-14 0 -38.5 -0.5t-33.5 -0.5q-29 0 -29 15q0 10 12 19t30 9q5 0 28.5 -0.5t39.5 -0.5q24 116 45 116q18 0 18 -28q0 -12 -3 -27t-7.5 -33.5t-6.5 -27.5h84l20 84q6 28 25 28q8 0 13.5 -6.5t5.5 -17.5q0 -6 -1 -9l-17 -78h10q12 0 29 1t23 1q23 0 23 -13 q0 -30 -93 -30l-17 -88h15q12 0 29.5 0.5t22.5 0.5q22 0 22 -12q0 -31 -97 -34zM163 445l-15 -87h79q2 11 8 40.5t10 46.5h-82z" />
<glyph unicode="$" horiz-adv-x="368" d="M160 386q0 -31 22.5 -61t49 -50.5t49 -50t22.5 -59.5q0 -34 -15 -54.5t-32 -24.5q-22 -31 -85 -33l-11 -58q-4 -24 -15 -24q-13 0 -13 30q0 5 2 19l5 35q-45 5 -90 26.5t-45 50.5q0 18 15.5 35.5t32.5 17.5q9 0 19 -8q82 -75 172 -75q5 0 5 15q0 18 -29 48t-63 58.5 t-63 68.5t-29 74q0 83 55 145t132 62h6q16 64 28 64t12 -22q0 -9 -11 -53l4 -3q34 -16 50.5 -56t16.5 -86q0 -23 -2 -37t-10 -25.5t-24 -11.5q-19 0 -36 12t-17 29q0 24 15.5 64t15.5 56q0 23 -17 40q-41 0 -81.5 -56t-40.5 -102z" />
<glyph unicode="%" horiz-adv-x="554" d="M56 -2q-20 -18 -29 -17q-6 0 -6 5q0 8 14 25q56 65 81.5 95.5t80 101t99 142t84.5 150.5q-37 -21 -88 -23q-2 -51 -22.5 -101.5t-59 -86t-85.5 -35.5q-51 0 -79 37.5t-28 94.5t31.5 114.5t77.5 57.5q14 0 23 -5.5t9 -13.5q0 -7 -7 -13q-65 -59 -65 -151q0 -38 14.5 -63 t40.5 -25q34 0 56.5 61t22.5 139q-56 19 -56 62q0 20 15 33.5t34 13.5q66 0 77 -86q6 -1 19 -1q63 0 96 45q3 6 9.5 20.5t10 21.5t11 13.5t16.5 6.5q11 0 19.5 -7.5t8.5 -18.5q0 -7 -3 -13q-47 -109 -189.5 -301t-232.5 -278zM396 308q8 2 15 1q6 2 13 2q49 0 75 -36t26 -88 q0 -74 -45.5 -136t-117.5 -62q-51 0 -78 35.5t-27 89.5q0 64 37 121t102 73zM412 293q-36 -18 -58.5 -75t-22.5 -116q0 -39 11.5 -64t33.5 -25q35 0 53.5 47.5t18.5 112.5q0 103 -36 120z" />
<glyph unicode="&#x26;" horiz-adv-x="597" d="M353 342q0 34 25 64t61 30q22 0 70 -6t69 -6q19 0 39.5 7.5t22.5 7.5q12 0 12 -12q0 -42 -26.5 -64.5t-68.5 -22.5q-36 0 -71 8q-12 -10 -26 -31t-25 -42.5t-31.5 -63t-36.5 -70.5q4 -34 4 -57q0 -128 -55.5 -200t-151.5 -72q-48 0 -91 23t-43 47q0 15 17.5 29t35.5 14 q13 0 25.5 -13.5t22.5 -30t29.5 -30.5t44.5 -15q42 15 57.5 65t16.5 134q-59 -45 -135 -45q-73 0 -115.5 55.5t-42.5 133.5q0 82 46.5 150t133.5 91q-25 68 -25 119q0 64 40.5 117.5t104.5 53.5q32 0 40 -11q2 1 7 1q31 0 54 -34.5t23 -69.5q0 -46 -35 -92t-110 -80 q9 -22 29 -64t35.5 -79.5t25.5 -74.5q5 9 16.5 32t18 34.5t16 28.5t18.5 29.5t18 22.5q-22 2 -39 -3.5t-27 -12t-13 -6.5q-10 0 -10 11zM276 92q-4 40 -16.5 85.5t-22 70.5t-31.5 77.5t-27 63.5q-45 -27 -70 -83.5t-25 -115.5q0 -60 25.5 -100t73.5 -40q51 0 93 42zM232 571 q0 -61 22 -119q88 52 88 145q0 28 -7.5 54.5t-15.5 36.5q-43 -4 -65 -39t-22 -78z" />
<glyph unicode="'" horiz-adv-x="103" d="M92 497q-6 -24 -28 -24q-15 0 -26 12t-11 33q0 189 58 189q18 0 34 -11.5t16 -27.5q0 -13 -7.5 -42.5t-20.5 -74.5t-15 -54z" />
<glyph unicode="(" horiz-adv-x="208" d="M63 97q0 -55 6.5 -94t12.5 -57t6 -23q0 -10 -7 -10q-13 0 -30 29.5t-30 87.5t-13 125q0 121 29.5 235.5t70 187t80 116t62.5 43.5q6 0 6 -5q0 -4 -6 -12q-78 -82 -132.5 -269.5t-54.5 -353.5z" />
<glyph unicode=")" horiz-adv-x="213" d="M146 531q0 56 -6.5 98.5t-13 64.5t-6.5 28q0 13 8 13q14 0 32 -39.5t31.5 -105.5t13.5 -130q0 -106 -23.5 -201t-56.5 -156.5t-69.5 -108t-62.5 -67t-35 -20.5q-7 0 -7 7q0 3 7 13l21 30t26 40q141 241 141 534z" />
<glyph unicode="*" horiz-adv-x="298" d="M330 485q-44 8 -119 43l-29 -105q-9 -30 -22 -30q-9 0 -16 13t-7 33q0 23 13 82q-93 -44 -114 -44q-10 0 -10 6q0 15 39 37l74 43l-82 44q-31 15 -31 32q0 12 20 12q19 0 124 -44q2 8 6.5 26.5t7 28.5t6.5 25.5t7 24t7 18t8.5 13.5t8.5 4q9 0 16 -12.5t7 -31.5 q0 -33 -14 -91l90 45q19 10 33 10q10 0 10 -8q0 -20 -116 -87q98 -45 115 -62q8 -9 8 -16q0 -12 -19 -12q-9 0 -21 3z" />
<glyph unicode="+" horiz-adv-x="311" d="M161 197q-4 -24 -21 -24q-11 0 -19 10.5t-8 28.5q0 21 12 79q-110 0 -110 18q0 20 30.5 25.5t90.5 5.5q24 94 38 110q7 6 12 6q9 0 15.5 -9t6.5 -22q0 -15 -9.5 -47.5t-10.5 -37.5h20.5h21.5h19t18 -1t14 -2.5t10 -4t3 -6.5q0 -31 -117 -35q-8 -39 -16 -94z" />
<glyph unicode="," horiz-adv-x="178" d="M157 54q0 -52 -44.5 -109t-74.5 -57q-6 0 -6 5q0 4 12 22t27.5 42.5t21.5 39.5q-12 -6 -26 -6q-23 0 -34.5 13.5t-11.5 35.5q0 30 21 55.5t56 25.5q31 0 45 -19.5t14 -47.5z" />
<glyph unicode="-" horiz-adv-x="298" d="M229 247q-39 -8 -73 -8h-11h-18t-21 0.5t-22.5 2t-19 3.5t-14.5 6t-5 10q0 38 93 38q10 0 30 -0.5t31 -0.5q6 0 20.5 0.5t22.5 0.5q22 0 22 -16q0 -11 -9.5 -21.5t-25.5 -14.5z" />
<glyph unicode="." horiz-adv-x="161" d="M73 -10q-24 0 -39 12.5t-15 37.5q0 30 22.5 55.5t57.5 25.5q26 0 38.5 -14t12.5 -36q0 -30 -22 -55.5t-55 -25.5z" />
<glyph unicode="/" horiz-adv-x="271" d="M10 -2q-12 -23 -22 -23q-7 0 -7 10q0 11 8 26q21 41 44.5 93t54.5 129t52.5 129.5t65 163t64.5 162.5q8 22 28 22q11 0 19.5 -8t8.5 -20q0 -6 -3 -12q-152 -355 -313 -672z" />
<glyph unicode="0" horiz-adv-x="426" d="M284 611q57 0 87.5 -56t30.5 -138q0 -104 -29 -200t-83.5 -159t-119.5 -63q-137 0 -137 196q0 101 28 197.5t81 161.5t117 65q13 0 25 -4zM314 469q0 102 -36 121q-53 -7 -105 -159t-52 -290q0 -104 37 -121q52 7 104 159t52 290z" />
<glyph unicode="1" horiz-adv-x="277" d="M153 15q-4 -24 -36 -24q-20 0 -36.5 11.5t-16.5 30.5q0 24 30.5 174t66.5 283q-36 -60 -88 -110q-7 -7 -16 -7t-15 8t-6 17t8 17q49 41 78 75.5t66 98.5q7 25 37 25q20 0 37 -11.5t17 -27.5q0 -11 -20.5 -87.5t-52 -211.5t-53.5 -261z" />
<glyph unicode="2" horiz-adv-x="370" d="M2 45q6 14 37.5 42.5t70 66t77.5 86t65 118t26 146.5q0 71 -27 89h-1q-77 -17 -95 -232q-3 -30 -29 -30q-23 0 -44 21t-21 51q0 74 53.5 142.5t131.5 68.5q62 0 92 -44t30 -113q0 -60 -21 -115.5t-57.5 -101t-69 -77.5t-74.5 -67.5t-55 -48.5q19 7 75.5 19t110.5 32 q6 2 9 2q22 0 22 -36q0 -26 -12.5 -48.5t-31.5 -22.5q-35 0 -81 9t-64 9q-31 0 -62 -15q-6 -6 -16 -6q-14 0 -27 16.5t-13 31.5q0 5 1 7z" />
<glyph unicode="3" horiz-adv-x="378" d="M145 -3q-67 0 -106 40t-39 107q0 81 65 81q37 0 37 -22q0 -5 -7 -41t-7 -66q0 -54 37 -73h2q38 1 66 69.5t28 138.5q0 47 -15 71q-18 -9 -32 -9q-36 0 -36 27q0 11 10 20t26 9q15 0 39 -4q55 70 97 163q-5 -1 -17 -1q-22 0 -65 6.5t-63 6.5q-33 0 -53.5 -12t-22.5 -12 q-11 0 -11 13q0 37 27.5 71.5t70.5 34.5q25 0 74 -6.5t69 -6.5q19 0 42 8.5t26 8.5q13 0 13 -14q0 -68 -58 -90q8 -8 8 -23q0 -34 -31.5 -80.5t-68.5 -79.5q68 -36 68 -127q0 -78 -49.5 -143t-123.5 -65z" />
<glyph unicode="4" horiz-adv-x="360" d="M299 152q-25 -3 -58 -3q-9 -46 -23 -128q-6 -31 -34 -31q-19 0 -35.5 14.5t-16.5 35.5q0 18 17 109q-102 0 -152 -5q-10 0 -18 7t-8 14q0 6 5 11q39 33 125 167.5t150 245.5q7 25 37 25q20 0 37 -11.5t17 -27.5q0 -5 -1 -7q-60 -228 -91 -378q15 0 37.5 1t28.5 1 q19 0 19 -13q0 -8 -10.5 -17t-25.5 -10zM156 190q20 116 57 261q-92 -178 -162 -264q40 3 105 3z" />
<glyph unicode="5" horiz-adv-x="369" d="M159 -4q-67 0 -108.5 43.5t-41.5 112.5q0 73 43 73q21 0 41 -14.5t20 -31.5q0 -4 -5.5 -38.5t-5.5 -53.5q0 -48 33 -65q40 0 68.5 63t28.5 136q0 60 -22.5 99t-67.5 39q-14 0 -24 -3q-20 -53 -51 -53q-8 0 -14 6t-6 15q0 28 36 48q19 109 23 219q0 16 15 16q8 0 15 -6.5 t7 -17.5v-13q25 35 63 35q22 0 47 -2.5t43 -2.5q27 0 47 7t22 7q11 0 11 -18q0 -92 -81 -92q-24 0 -66.5 5t-62.5 5q-14 0 -25 -6q-3 -69 -15 -121q17 4 43 4q66 0 114 -39t48 -120q0 -88 -49 -162t-123 -74z" />
<glyph unicode="6" horiz-adv-x="355" d="M299 557q-85 -45 -146 -184q35 35 75 35q55 0 81.5 -48t22.5 -119q-6 -95 -57.5 -171t-130.5 -76q-48 0 -78.5 32.5t-40.5 76t-7 93.5q5 96 38.5 180.5t75.5 134t78.5 77.5t54.5 28q17 0 31.5 -14t13.5 -28q-2 -12 -11 -17zM134 22q44 4 73 68t33 142q3 56 -8.5 94 t-36.5 38q-26 0 -46.5 -24.5t-31.5 -62.5t-16.5 -72t-7.5 -65q-4 -92 41 -118z" />
<glyph unicode="7" horiz-adv-x="350" d="M292 303q-22 -3 -43 -3q-44 -117 -79 -294q-4 -19 -30 -19q-24 0 -47 17t-23 43q0 36 27.5 118.5t63.5 135.5q-11 0 -38.5 -2t-43.5 -2q-18 0 -18 11q0 36 96 36h31q12 19 34.5 51.5t41 60.5t33.5 54q-13 -3 -29 -3q-23 0 -73 6.5t-77 6.5q-36 0 -57.5 -12t-22.5 -12 q-11 0 -11 13q0 37 27.5 71.5t70.5 34.5q34 0 91.5 -12t79.5 -12q25 0 44 10q3 19 20 19q16 0 16 -20q0 -33 -32 -63q-6 -18 -78 -196q8 0 22.5 1t20.5 1q19 0 19 -13q0 -8 -10.5 -17t-25.5 -10z" />
<glyph unicode="8" horiz-adv-x="382" d="M229 614q62 0 102.5 -33.5t40.5 -93.5q0 -52 -32.5 -99.5t-86.5 -64.5q25 -27 39.5 -46t27.5 -49t13 -61q0 -73 -53.5 -125t-117.5 -52q-76 0 -114 40t-38 100q0 59 33.5 111.5t87.5 68.5q-58 67 -58 134t44.5 118.5t111.5 51.5zM85 121q0 -29 12 -63t36 -45q46 1 77 38 t31 86q0 13 -2 24.5t-8.5 24t-10.5 20.5t-15.5 22t-15.5 19t-19 21t-18 19q-30 -28 -48.5 -74t-18.5 -92zM164 476q0 -36 17.5 -65.5t51.5 -66.5q27 30 44 75.5t17 86.5q0 63 -41 86q-41 -7 -65 -39.5t-24 -76.5z" />
<glyph unicode="9" horiz-adv-x="358" d="M70 53q85 45 146 184q-35 -35 -75 -35q-55 0 -81.5 48t-22.5 119q6 95 57.5 171t130.5 76q48 0 78.5 -32.5t40.5 -76t7 -93.5q-5 -96 -38.5 -180.5t-75.5 -134t-78.5 -77.5t-54.5 -28q-17 0 -31.5 14t-13.5 28q2 12 11 17zM235 588q-44 -4 -73 -68t-33 -142 q-3 -56 8.5 -94t36.5 -38q26 0 46.5 24.5t31.5 62.5t16.5 72t7.5 65q4 92 -41 118z" />
<glyph unicode=":" horiz-adv-x="265" d="M73 -10q-24 0 -39 12.5t-15 37.5q0 30 22.5 55.5t57.5 25.5q26 0 38.5 -14t12.5 -36q0 -30 -22 -55.5t-55 -25.5zM140 290q-24 0 -39 12.5t-15 37.5q0 30 22.5 55.5t57.5 25.5q26 0 38.5 -14t12.5 -36q0 -30 -22 -55.5t-55 -25.5z" />
<glyph unicode=";" horiz-adv-x="264" d="M140 290q-24 0 -39 12.5t-15 37.5q0 30 22.5 55.5t57.5 25.5q26 0 38.5 -14t12.5 -36q0 -30 -22 -55.5t-55 -25.5zM157 54q0 -52 -44.5 -109t-74.5 -57q-6 0 -6 5q0 4 12 22t27.5 42.5t21.5 39.5q-12 -6 -26 -6q-23 0 -34.5 13.5t-11.5 35.5q0 30 21 55.5t56 25.5 q31 0 45 -19.5t14 -47.5z" />
<glyph unicode="&#x3c;" horiz-adv-x="330" d="M301 473q5 3 9 3q16 0 16 -25q0 -9 -8 -20t-26.5 -23.5t-33.5 -22.5t-44 -24t-42 -20.5t-44.5 -20.5t-35.5 -16q99 -49 173 -104q10 -7 10 -34q0 -19 -6 -34.5t-16 -15.5q-5 0 -24 13t-77.5 44t-143.5 65q-16 6 -16 27q1 19 12.5 38t27.5 27q13 7 58 29t75 37t70 37.5 t66 39.5z" />
<glyph unicode="=" horiz-adv-x="311" d="M258 249q-85 -9 -138 -9q-104 0 -104 21q0 11 9.5 18t34 9.5t39.5 3t51 0.5h20h22h21.5t21 -0.5t18.5 -1t17 -2t12.5 -3.5t8.5 -4.5t3 -6.5q0 -9 -10 -16.5t-26 -8.5zM77 379q101 8 139 8q104 0 104 -19q0 -31 -151 -31h-13h-22h-23.5h-21t-19.5 1.5t-14.5 3t-11 5 t-3.5 7.5q0 8 10 16t26 9z" />
<glyph unicode="&#x3e;" horiz-adv-x="379" d="M347 260q-78 -38 -146.5 -75.5t-97.5 -54t-34 -16.5q-8 0 -13.5 8t-5.5 19q0 44 219 138q12 5 17 7q-81 42 -172 104q-11 7 -11 34q0 19 6 34t16 15q6 0 44 -23.5t96.5 -54t105.5 -43.5q17 -4 17 -26q0 -18 -13 -38.5t-28 -27.5z" />
<glyph unicode="?" horiz-adv-x="335" d="M17 498q0 10 5 32t18.5 53.5t32.5 59t52 47t72 19.5q66 0 105 -46t39 -108q0 -52 -25.5 -106t-57.5 -92t-62.5 -87.5t-37.5 -91.5q-4 -24 -27 -24q-17 0 -33 12.5t-16 26.5q0 37 26 84.5t57 87.5t57 96.5t26 109.5q0 46 -13.5 81.5t-38.5 35.5q-22 -7 -35.5 -27.5 t-19 -41.5t-16 -70t-19.5 -84q-7 -26 -32 -26q-21 0 -39 17.5t-18 41.5zM87 -10q-20 0 -33.5 11.5t-13.5 31.5q0 26 19.5 48t49.5 22q22 0 33 -12t11 -31q0 -26 -19 -48t-47 -22z" />
<glyph unicode="@" horiz-adv-x="710" d="M265 -58q41 0 74.5 11.5t49.5 25t30.5 25t21.5 11.5q10 0 18 -9t8 -19q0 -6 -2 -8q-59 -67 -151 -67q-134 0 -225 87t-91 234q0 99 43 190.5t128 153t192 61.5q78 0 140 -27.5t98.5 -72.5t55 -98.5t18.5 -110.5q0 -112 -57 -196.5t-145 -84.5q-58 0 -85 27.5t-28 83.5 q-47 -104 -105 -104q-41 0 -61.5 36.5t-20.5 96.5q0 70 24 145t70 129t99 54q28 0 46.5 -24t20.5 -50h6q21 0 38 -16t17 -42q0 -16 -23.5 -120t-23.5 -146q0 -40 23 -40q41 0 83.5 93.5t42.5 197.5q0 43 -10 83t-31 76.5t-59.5 58.5t-90.5 22q-96 0 -173.5 -59.5 t-118 -148.5t-40.5 -185q0 -89 39.5 -161t117.5 -109q16 -4 37 -4zM374 280l32 140q0 38 -28 38q-44 0 -79 -100.5t-35 -182.5q0 -52 18 -52q52 0 92 157z" />
<glyph unicode="A" horiz-adv-x="396" d="M-26 179q13 0 59 -2q120 224 200 448l8 53q3 19 16.5 29t31.5 10q15 0 26 -9t11 -25q0 -13 -9 -104.5t-18.5 -215t-10.5 -209.5q-2 -94 18 -94q4 0 8.5 2t9 7t8.5 10t9.5 14.5t9.5 17t10.5 20.5t10.5 21.5t11.5 25t12.5 25.5q9 18 18 18q6 0 6 -10q0 -9 -4 -18 q-3 -8 -13 -33.5t-16 -39.5t-16.5 -37t-20.5 -36.5t-23 -28t-28 -21t-32 -6.5q-57 0 -65 153q-82 -5 -121 -5q-49 -119 -59.5 -134t-23.5 -15q-16 0 -30 10.5t-14 23.5q0 7 7.5 22t25 46t25.5 47l-36 2q-13 1 -20 7t-7 13t7 12.5t18 5.5zM200 171q-1 13 -1 40q0 124 19 290 q-54 -150 -122 -326z" />
<glyph unicode="B" horiz-adv-x="495" d="M81 512q-7 -15 -21 -15q-18 0 -37 23t-19 48q0 14 7 25q31 52 91.5 82.5t128.5 30.5q97 0 171 -65t74 -165q0 -63 -30.5 -116t-85.5 -79q63 -34 63 -108q0 -68 -58 -125t-148 -57q-78 0 -140 13.5t-91.5 31.5t-29.5 36q0 17 14.5 31t32.5 14q9 0 17 -5.5t20.5 -19 t20.5 -20.5q30 18 49.5 105t39 213t40.5 192q7 24 37 24q21 0 39.5 -13t18.5 -31q0 -6 -1 -9q-10 -33 -23 -100.5t-25.5 -126t-31 -119.5t-48 -103t-67.5 -54q51 -38 107 -38q58 0 96 52.5t38 114.5q0 55 -32 86q-16 -2 -24 -2q-42 0 -42 17q0 21 39 21q9 0 27 -2 q37 26 62 89t25 131q0 69 -26 120l-1 1q-34 17 -75 17q-60 0 -116 -39t-86 -106z" />
<glyph unicode="C" horiz-adv-x="356" d="M278 707q33 0 47 -17q46 -22 46 -94q0 -42 -20 -124.5t-20 -104.5q-1 -18 -16 -27.5t-35 -9.5t-34.5 8.5t-14.5 22.5q0 37 43.5 136.5t43.5 139.5q0 20 -7 34q-50 -1 -104 -79.5t-88 -187.5t-34 -199q0 -148 96 -148q54 0 95 40t80 106q10 17 19 17q5 0 5 -8q0 -6 -4 -17 q-12 -31 -30 -62.5t-46 -65.5t-67.5 -55.5t-83.5 -21.5q-78 0 -116 61.5t-38 160.5q0 106 38 220.5t105 194.5t140 80z" />
<glyph unicode="D" horiz-adv-x="494" d="M81 512q-7 -15 -21 -15q-18 0 -37 23t-19 48q0 42 72 92t154 50q106 0 175.5 -83.5t69.5 -200.5q0 -102 -37 -201t-107 -166.5t-154 -67.5q-69 0 -123 16t-76 34t-22 31q0 17 14.5 31t32.5 14q9 0 17 -5.5t20.5 -19t20.5 -20.5q30 18 49.5 105t39 213t40.5 192 q9 27 44 27q20 0 36.5 -10.5t16.5 -26.5q0 -1 -3.5 -16t-10 -45t-12.5 -59q-8 -45 -13 -69t-15.5 -70.5t-19 -74t-22.5 -65t-28 -59.5t-33.5 -40t-40.5 -24q47 -37 90 -37q48 0 88.5 49t64.5 124t37 157t13 156q0 104 -26 139l-1 1q-34 17 -75 17q-60 0 -114.5 -38.5 t-84.5 -105.5z" />
<glyph unicode="E" horiz-adv-x="363" d="M306 666q-32 0 -72.5 -48.5t-68.5 -115t-28 -115.5q0 -54 37 -64q16 2 22 2q36 0 36 -20q0 -21 -35 -21q-21 0 -37 6q-38 -12 -61.5 -52.5t-23.5 -86.5q0 -40 20 -66.5t59 -26.5q119 0 209 145q10 17 19 17q5 0 5 -7t-4 -18q-7 -20 -23.5 -48.5t-47.5 -67.5t-81 -65.5 t-107 -26.5q-70 0 -106.5 43.5t-36.5 104.5q0 69 34.5 115t87.5 62q-53 35 -53 102q0 98 70 197t145 99q17 0 35 -7.5t24 -16.5q55 -26 55 -99q0 -33 -13.5 -96.5t-14.5 -84.5q-1 -17 -18 -27t-38 -10q-19 0 -31.5 8t-12.5 23q0 37 35.5 114.5t35.5 110.5q0 23 -11 41h-5z " />
<glyph unicode="F" horiz-adv-x="341" d="M396 610q-20 -3 -42 -3q-38 0 -89 8q10 -10 4 -25q-46 -179 -75 -308q25 -1 63 -1.5t58.5 -1t43 -1.5t32 -3.5t9.5 -6.5q0 -21 -134 -21q-50 0 -80 1q-29 -131 -48 -227q-6 -26 -34 -26q-16 0 -29 10.5t-13 28.5q0 9 1.5 36t0.5 44t-5 42.5t-17.5 49.5t-35.5 46l-59 3 q-20 1 -30.5 10t-10.5 21q0 13 11 22t31 9q41 0 76 -28q27 -2 77 -4q24 128 70 292q4 15 19 27t32 17q-65 9 -111 9q-11 0 -32 -2t-32 -2q-16 0 -16 14q0 15 16 34t32 21q34 5 84 5q26 0 76.5 -2t74.5 -2q16 0 44 3t41 3q25 0 25 -42q0 -19 -7.5 -33.5t-20.5 -16.5zM84 181 q3 23 11 69q-26 0 -39 1q19 -32 28 -70z" />
<glyph unicode="G" horiz-adv-x="456" d="M127 -330q-33 0 -59.5 21t-26.5 54q0 13 3 26.5t7 24.5t13.5 24t16 21.5t21 22t22 20t26 20.5t26 19.5t28.5 20.5l28 20q25 108 31 145q-53 -119 -123 -119q-62 0 -93 56t-31 148q0 80 22.5 169.5t59.5 166t91.5 127t112.5 50.5q33 0 47 -17q57 -28 57 -127 q0 -39 -10 -106.5t-11 -79.5q-3 -36 -50 -36q-20 0 -35 8t-15 22q0 35 30 125t30 129q0 27 -10 46q-56 -1 -109 -86t-83.5 -197t-30.5 -203q0 -126 60 -126q54 0 110 153q11 24 41 24q18 0 30.5 -11.5t12.5 -32.5q0 -16 -24 -141q74 69 114 152q7 16 17 16q7 0 7 -10 q0 -4 -4 -16q-49 -121 -147 -205l-25 -98q-29 -111 -78 -165.5t-99 -54.5zM76 -267q0 -12 7 -22t20 -10q29 0 60.5 47t53.5 154q-42 -30 -66 -50t-49.5 -54t-25.5 -65z" />
<glyph unicode="H" horiz-adv-x="478" d="M351 16q-6 -23 -32 -23q-16 0 -29.5 11t-13.5 28q0 32 35 219q-76 -2 -121 -2q-43 -183 -50 -231q-3 -23 -33 -23q-18 0 -32 10t-14 27q0 4 2.5 43t0.5 58.5t-18 55t-47 64.5l-53 4q-19 1 -30 10t-11 20q0 12 11.5 21t31.5 9q38 0 68 -27q30 -1 89 -1q43 227 99 388 q10 27 41 27q19 0 35 -10.5t16 -23.5q0 -7 -16 -62.5t-40 -147t-40 -169.5l119 6q38 188 95 385q7 23 43 23q19 0 34 -8.5t15 -22.5q0 -8 -16 -64.5t-39.5 -146.5t-37.5 -161q46 2 60 2q59 0 59 -19q0 -8 -6.5 -12.5t-36 -9.5t-87.5 -8zM83 165q2 10 7 39t8 46q-16 1 -49 1 q23 -34 34 -86z" />
<glyph unicode="I" horiz-adv-x="322" d="M244 627q0 42 -22 52q-33 -1 -73 -52.5t-68 -122.5t-28 -125q0 -67 46 -80q16 -4 16 -14t-19 -10q-58 0 -87.5 43t-29.5 96q0 63 32 131.5t85 115t108 46.5q47 0 77.5 -29t30.5 -90q0 -103 -27 -227.5t-90 -349.5q-5 -19 -35 -19q-20 0 -36.5 9.5t-16.5 25.5 q0 9 34.5 125.5t68.5 259.5t34 215z" />
<glyph unicode="J" horiz-adv-x="437" d="M72 -22q-15 -23 -15 -51q0 -33 19.5 -56.5t46.5 -23.5q8 0 17 3q99 86 157 412q28 152 28 260q0 144 -60 160q-38 0 -81 -73t-70.5 -171t-27.5 -172q0 -49 10 -72t39 -23q28 0 56.5 20t31.5 20q6 0 6 -8q0 -24 -38 -60t-86 -36q-57 0 -84.5 43t-27.5 115q0 89 36.5 192.5 t99 178t126.5 74.5q158 0 158 -280q0 -143 -43 -285.5t-120.5 -238.5t-166.5 -96q-38 0 -61.5 25.5t-23.5 62.5q0 40 21.5 74t51.5 34q8 0 8 -9t-7 -19z" />
<glyph unicode="K" horiz-adv-x="354" d="M49 24q-5 -27 -35 -27q-16 0 -28 10.5t-12 29.5q0 23 4 52.5t14 80t13 68.5q-6 8 -6 19q0 19 16 33q43 211 97 394q7 26 39 26q19 0 34.5 -11.5t15.5 -30.5q0 -10 -17.5 -74.5t-41.5 -155t-35 -146.5q6 -2 12 -7q78 101 121.5 180.5t106.5 227.5q7 16 24 16 q18 0 34.5 -15t16.5 -34q0 -36 -86.5 -175t-187.5 -224q24 -29 39.5 -80.5t26 -85t27.5 -33.5q23 0 55 44t58 97q6 13 15 13q8 0 8 -10q0 -6 -3 -13q-12 -29 -21.5 -51t-26.5 -52.5t-33 -50t-38 -33.5t-45 -14q-28 0 -46 20t-26 44.5t-22.5 74t-26.5 82.5q-35 -160 -40 -189 z" />
<glyph unicode="L" horiz-adv-x="378" d="M288 691q63 -29 63 -141q0 -21 -2.5 -64.5t-2.5 -63.5q0 -10 1.5 -27.5t1.5 -25.5q0 -21 -14 -32.5t-34 -11.5q-53 0 -53 65q0 35 19.5 115.5t19.5 114.5q0 33 -12 53q-7 0 -15 -2q-20 -6 -41.5 -82t-40 -169.5t-51.5 -190.5t-72 -136q8 -1 34 -7t49 -9t48 -3 q41 0 87 29.5t71 56.5t35 43q8 13 16 13q7 0 7 -9q0 -5 -3 -14q-5 -16 -27.5 -46.5t-56 -66t-80.5 -61.5t-92 -26q-41 0 -80 10.5t-54 10.5q-35 0 -54 -8.5t-22 -8.5q-10 0 -10 11q0 22 21.5 45t47.5 34q28 30 48.5 106.5t35 160.5t33 164.5t53 133t85.5 52.5q13 0 27 -6z " />
<glyph unicode="M" horiz-adv-x="562" d="M172 669q3 19 16.5 29t31.5 10q15 0 26 -9t11 -25q0 -7 -11 -186.5t-9 -323.5q98 243 165 479q3 38 14.5 56t38.5 18q15 0 26 -9t11 -25q0 -7 -19 -227.5t-19 -301.5q0 -94 18 -94q4 0 8.5 2t9 7t8.5 10t9.5 14.5t9.5 17t10.5 20.5t10.5 21.5t11.5 25t12.5 25.5 q9 18 18 18q6 0 6 -10q0 -9 -4 -18q-3 -8 -13 -33.5t-16 -39.5t-16.5 -37t-20.5 -36.5t-23 -28t-28 -21t-32 -6.5q-68 0 -68 222q0 100 17 270q-63 -224 -144 -434q-11 -29 -50 -29q-34 0 -35 25q-6 88 -6 203q0 135 8 250q-118 -412 -153 -485q-7 -14 -21 -14q-13 0 -25 12 t-12 27q0 10 33 79.5t89.5 215t101.5 311.5q2 10 4 25z" />
<glyph unicode="N" horiz-adv-x="422" d="M134 661q1 20 19.5 32t40.5 12q34 0 34 -21q0 -17 -2 -49t-2 -48q0 -193 67 -474q40 348 84 567q7 34 50 34q33 0 33 -18q0 -5 -17 -54t-55.5 -206t-79.5 -390q2 -7 2 -14q0 -16 -17 -29t-36 -13q-24 0 -31 25q-74 268 -88 490q-22 -148 -42.5 -246.5t-64.5 -245.5 q-6 -21 -44 -21q-35 0 -35 18q0 3 10 23t28.5 64t41 108t50.5 175.5t53 245.5q0 23 1 35z" />
<glyph unicode="O" horiz-adv-x="436" d="M249 703q168 0 168 -230q0 -104 -34.5 -214.5t-97 -187.5t-132.5 -77q-74 0 -115 65.5t-41 169.5q0 66 15 113t61 72q-12 28 -12 68q0 83 54 152t134 69zM324 548q0 33 -0.5 48t-9 40t-26.5 37q-56 -1 -97.5 -70.5t-41.5 -146.5q0 -79 47 -112q10 -7 10 -15q0 -7 -11 -7 q-36 0 -80 34l-4 -14q-32 -107 -29 -177q0 -124 57 -148q44 0 88.5 93t70.5 216.5t26 221.5z" />
<glyph unicode="P" horiz-adv-x="447" d="M81 500q-7 -15 -21 -15q-18 0 -37 23t-19 48q0 40 68.5 91t157.5 51q101 0 163.5 -66t62.5 -179q0 -53 -16.5 -102t-47.5 -90t-83 -66t-118 -25h-11q-28 -125 -34 -161q-3 -16 -26 -16q-18 0 -33 9.5t-15 24.5q0 38 20 156q-32 8 -32 24q0 9 15 9q10 0 22 -4 q31 184 87 374q6 21 30 21q22 0 43 -15.5t21 -33.5q0 -5 -1 -7q-41 -151 -87 -339q84 23 138.5 113.5t54.5 190.5q0 66 -23 116q-34 17 -75 17q-60 0 -117 -41t-87 -108z" />
<glyph unicode="Q" horiz-adv-x="434" d="M313 681q-7 3 -18 3q-40 0 -80 -55.5t-67 -152t-27 -201.5q0 -99 42 -113q15 -5 15 -14q0 -7 -15 -7q-65 0 -98 57.5t-33 138.5q0 149 71.5 262t161.5 113q78 0 120 -55t42 -161q0 -76 -21.5 -158.5t-59 -155t-97 -121.5t-128.5 -55q6 -3 29.5 -18t36 -21t35.5 -16 t48 -14t54 -4q19 0 19 -16q0 -19 -24 -42.5t-48 -23.5q-36 0 -73.5 21.5t-63 47t-56.5 47t-57 21.5q-24 0 -24 20q0 11 8.5 19.5t22.5 8.5q30 0 57 -11q55 7 104.5 69.5t80.5 148.5t49.5 176.5t18.5 160.5q0 83 -25 101z" />
<glyph unicode="R" horiz-adv-x="437" d="M77 510q-7 -15 -21 -15q-18 0 -37 23t-19 48q0 39 68 90.5t158 51.5q96 0 164 -70.5t68 -163.5q0 -91 -57 -161.5t-162 -78.5q19 -28 33.5 -73t25.5 -72t26 -27q23 0 55 44t58 97q6 13 15 13q8 0 8 -10q0 -6 -3 -13q-79 -201 -163 -201q-22 0 -37 10t-25.5 32t-17.5 43.5 t-17.5 59.5t-19.5 64q-39 -139 -45 -177q-2 -13 -12 -20t-23 -7q-16 0 -28 10.5t-12 29.5q0 40 36 194q-13 9 -13 24q0 23 28 32q6 22 87 299q9 29 44 29q18 0 32 -8.5t14 -22.5q0 -5 -1 -7q-14 -53 -45 -160.5t-41 -142.5q5 -3 17 -12q74 21 118 92.5t44 159.5 q0 67 -26 123q-34 17 -75 17q-60 0 -114.5 -38.5t-84.5 -105.5z" />
<glyph unicode="S" horiz-adv-x="397" d="M171 432q0 -32 16 -60.5t38.5 -51.5l45 -46t38.5 -53t16 -63q0 -35 -15 -64t-35 -41q-11 -25 -52.5 -44t-93.5 -19q-42 0 -82.5 19t-98.5 73q-11 11 -11 23q0 17 18.5 31t42.5 14q22 0 42.5 -15.5t36 -34t45.5 -34t69 -15.5q42 0 60 15.5t18 36.5q0 22 -20 46.5t-48.5 50 t-57.5 54.5t-49 69t-20 85q0 61 32.5 132t82 120.5t92.5 49.5q21 0 41 -10t22 -20q52 -25 52 -89q0 -25 -28 -185q-9 -50 -51 -50q-49 0 -49 48q0 32 35.5 110t35.5 110q0 22 -12 42q-51 2 -103.5 -82t-52.5 -152z" />
<glyph unicode="T" horiz-adv-x="333" d="M392 610q-20 -4 -49 -4q-23 0 -75 4q5 -8 1 -20q-78 -313 -131 -569q-6 -26 -34 -26q-16 0 -29 10.5t-13 28.5q0 34 33 210.5t76 332.5q7 25 36 38q-40 4 -90 4q-14 0 -41.5 -2t-40.5 -2q-17 0 -17 16q0 18 16 40t32 24q34 5 86 5q26 0 78.5 -2t77.5 -2q16 0 45.5 3 t41.5 3q25 0 25 -42q0 -19 -7.5 -33.5t-20.5 -16.5z" />
<glyph unicode="U" horiz-adv-x="543" d="M546 657q0 -27 -60 -265.5t-60 -297.5q0 -34 14 -34q7 0 15 5.5t15 13.5t16 20.5t15.5 23.5t14 25.5t12 23t9.5 19.5t6 12q9 17 17 17q7 0 7 -10q0 -8 -4 -17q-43 -108 -78 -151q-38 -48 -78 -48q-33 0 -53.5 27t-18.5 87q-45 -118 -106 -118q-39 0 -64.5 37.5 t-25.5 101.5q0 61 52.5 234t52.5 262q0 46 -22 54q-33 -1 -73 -52.5t-68 -122.5t-28 -125q0 -67 46 -80q16 -4 16 -14t-19 -10q-58 0 -87.5 43t-29.5 96q0 63 32 131.5t85 115t108 46.5q16 0 32 -7q80 -12 80 -112q0 -80 -43 -240t-43 -212q0 -66 38 -66q25 0 51 69t43 152 q46 225 92 393q6 24 37 24q21 0 38 -14t17 -37z" />
<glyph unicode="V" horiz-adv-x="462" d="M563 644q-21 -91 -154 -341.5t-153 -310.5q-3 -8 -13 -8q-19 0 -41.5 29.5t-22.5 65.5q0 59 32.5 254.5t32.5 285.5q0 51 -22 60q-33 -1 -73 -58t-68 -136t-28 -139q0 -74 46 -87q16 -4 16 -14t-19 -10q-58 0 -87.5 46t-29.5 104q0 69 32 144t85 126.5t108 51.5 q50 0 86 -29.5t36 -89.5q0 -53 -10.5 -139t-27.5 -199.5t-22 -154.5q6 16 65 159.5t93 244t48 185.5q4 24 35 24q22 0 39.5 -14t17.5 -37q0 -9 -1 -13z" />
<glyph unicode="W" horiz-adv-x="699" d="M744 656q0 -49 -40.5 -180t-102.5 -263t-111 -166q-14 -22 -38 -37.5t-45 -15.5q-33 0 -53.5 27.5t-18.5 86.5q-45 -118 -106 -118q-39 0 -64.5 37.5t-25.5 101.5q0 61 52.5 234t52.5 262q0 46 -22 54q-33 -1 -73 -52.5t-68 -122.5t-28 -125q0 -67 46 -80q16 -4 16 -14 t-19 -10q-58 0 -87.5 43t-29.5 96q0 63 32 131.5t85 115t108 46.5q48 0 85.5 -33t37.5 -92q0 -80 -48.5 -237t-48.5 -209q0 -66 38 -66q45 0 94 221q64 289 92 393q6 24 37 24q21 0 38 -14t17 -37q0 -8 -1 -13q-8 -34 -43 -169t-56.5 -234.5t-21.5 -145.5q0 -37 22 -37 q12 0 27 13q102 140 179 613q4 24 34 24q22 0 40 -14t18 -38z" />
<glyph unicode="X" horiz-adv-x="379" d="M154 279q-19 222 -10 384q1 21 19 34t39 13q36 0 36 -30q0 -17 -0.5 -68t-0.5 -84q0 -84 2 -130q66 149 185 301q11 14 33 14q20 0 37.5 -11t17.5 -24q0 -10 -10 -17q-178 -146 -261 -311q7 -159 15.5 -224.5t29.5 -65.5q10 0 26 25.5t37 64.5t30 53q11 17 18 17 q6 0 6 -9t-4 -18l-16 -40t-19 -46.5t-20 -41.5t-24.5 -39t-28.5 -24.5t-34 -10.5q-39 0 -62 52t-37 182q-53 -104 -148 -225q-11 -14 -30 -14q-17 0 -32.5 10.5t-15.5 22.5q0 6 7 12q126 105 215 248z" />
<glyph unicode="Y" horiz-adv-x="561" d="M233 -240q-32 0 -59 21t-27 54q0 32 12.5 56.5t40 44t50 30.5t62.5 29q9 4 14 6l42 186q-52 -111 -112 -111q-33 0 -55 31t-22 87q0 72 44.5 235t44.5 208q0 34 -22 42q-33 -1 -73 -52.5t-68 -122t-28 -124.5q0 -68 46 -81q16 -4 16 -14t-19 -10q-58 0 -87.5 43t-29.5 96 q0 63 32 131.5t85 115t108 46.5q16 0 32 -7q80 -12 80 -112q0 -36 -35 -184.5t-35 -184.5q0 -65 29 -65q51 0 118 250q49 216 69 286q6 22 29 22q20 0 37.5 -16t17.5 -40q0 -8 -1 -12q-62 -283 -140 -589q88 57 132 148q7 16 17 16q7 0 7 -10q0 -4 -4 -16 q-52 -128 -165 -190l-6 -23q-29 -111 -78 -165.5t-99 -54.5zM182 -177q0 -32 26 -32q27 0 55.5 38.5t51.5 128.5q-133 -58 -133 -135z" />
<glyph unicode="Z" horiz-adv-x="378" d="M110 232q15 -5 15 -14q0 -7 -15 -7q-62 0 -93.5 48t-31.5 115q0 74 31.5 151.5t88.5 131.5t122 54q78 0 116 -54.5t38 -153.5q0 -130 -62.5 -256.5t-160.5 -160.5q37 -17 53 -52q116 62 167 169q7 16 17 16q7 0 7 -10q0 -4 -4 -16q-55 -134 -177 -195q1 -7 1 -21 q0 -76 -53 -145.5t-120 -69.5q-31 0 -58 18t-27 56q0 32 13 57t44.5 46t51 30.5t65.5 29.5q-3 55 -32 77q-14 -4 -24 -4q-29 0 -29 17q0 15 27 15q12 0 34 -4q49 23 91 101.5t64.5 173.5t22.5 176q0 112 -44 136q-1 0 -2 1q-40 0 -82 -62t-68 -147t-26 -153q0 -82 40 -94z M-1 -177q0 -33 28 -33q36 0 68 53t41 116q-137 -57 -137 -136z" />
<glyph unicode="[" horiz-adv-x="223" d="M342 771q0 -43 -103 -43q-15 0 -47 2q-20 -77 -41 -169t-42 -195.5t-33 -166.5t-31 -165t-20 -109q40 4 100 4q27 0 27 -20q0 -12 -12.5 -23.5t-30.5 -11.5l-107 -2q-23 0 -23 18q0 8 6 17q23 150 78 406.5t103 429.5q-2 4 -2 7q0 13 12.5 24t31.5 11q5 0 15 -0.5 t15 -0.5q15 -1 42.5 1t39.5 2q22 0 22 -16z" />
<glyph unicode="\" horiz-adv-x="241" d="M124 -31q-27 372 -29 741q0 14 8.5 21.5t19.5 7.5q12 0 20 -8.5t8 -24.5q-3 -142 -3 -733q0 -33 -11 -33t-13 29z" />
<glyph unicode="]" horiz-adv-x="226" d="M-102 -112q0 43 103 43q15 0 47 -2q20 77 41 169t42 195.5t33 166.5t31 165t20 109q-40 -4 -100 -4q-27 0 -27 20q0 12 12.5 23.5t30.5 11.5l107 2q23 0 23 -18q0 -8 -6 -17q-23 -150 -78 -406.5t-103 -429.5q2 -4 2 -7q0 -13 -12.5 -24t-31.5 -11q-5 0 -15 0.5t-15 0.5 q-15 1 -42.5 -1t-39.5 -2q-22 0 -22 16z" />
<glyph unicode="^" horiz-adv-x="315" d="M49 575q0 3 2 5.5t9 11t17.5 21t31.5 41t47 66.5q15 22 49 22q19 0 23 -12q20 -58 39 -93t27.5 -45t8.5 -15q0 -10 -17 -19.5t-34 -9.5q-24 0 -46.5 40t-36.5 84q-67 -111 -98 -111q-9 0 -15.5 4t-6.5 10z" />
<glyph unicode="_" horiz-adv-x="311" d="M273 -68h-303q-23 0 -23 23q0 13 8.5 23.5t22.5 10.5h309q19 0 19 -20q0 -14 -9.5 -25.5t-23.5 -11.5z" />
<glyph unicode="`" horiz-adv-x="414" d="M262 527q-28 0 -86 55.5t-58 92.5q0 16 12.5 29t26.5 13t20.5 -11t16 -37.5t21.5 -47.5q14 -23 29 -42t20.5 -27.5t5.5 -17.5q0 -7 -8 -7z" />
<glyph unicode="a" horiz-adv-x="375" d="M324 361q-10 -48 -27 -114.5t-26 -107t-9 -61.5q0 -25 14 -25q26 0 99 150q8 17 18 17q6 0 6 -10q0 -8 -4 -17q-80 -199 -154 -199q-68 0 -68 92q0 12 1 19q-54 -111 -103 -111q-39 0 -58 37t-19 99q0 78 26 164.5t74.5 150t102.5 63.5q28 0 46.5 -24t20.5 -50h6 q21 0 38 -16t17 -42q0 -10 -1 -15zM101 62q27 0 57 60t49 146l32 144q0 38 -27 38q-46 0 -87 -124t-41 -215q0 -49 17 -49z" />
<glyph unicode="b" horiz-adv-x="356" d="M98 680q10 39 52 39q17 0 29.5 -10t12.5 -27q0 -4 -46 -181q24 9 56 9q56 0 83.5 -45.5t27.5 -118.5q0 -111 -52 -215q65 7 95 72q7 16 17 16q7 0 7 -10q0 -8 -4 -16q-39 -91 -135 -97q-64 -103 -146 -103q-98 0 -98 158q0 73 22 176q63 294 79 353zM182 468 q-30 0 -52 -49.5t-22 -115.5q0 -57 19.5 -101t61.5 -61q31 103 31 211q0 113 -38 116zM176 103q-57 16 -95 79q-3 -27 -3 -49q0 -91 46 -91q27 0 52 61z" />
<glyph unicode="c" horiz-adv-x="348" d="M251 429q0 15 -8 27t-16 12q-41 0 -86 -109t-45 -204q0 -108 73 -108q53 0 102.5 50t76.5 106q7 15 16 15q7 0 7 -10q0 -6 -3 -15q-32 -79 -92.5 -141t-138.5 -62q-71 0 -105 51t-34 133q0 75 25.5 152t71 129.5t96.5 52.5q31 0 54 -19q32 -6 47 -37.5t15 -76.5 q0 -59 -18 -96.5t-56 -37.5q-18 0 -31.5 9t-13.5 22t10 30t21.5 32.5t21.5 41t10 53.5z" />
<glyph unicode="d" horiz-adv-x="384" d="M395 664q0 -26 -67.5 -265t-67.5 -303q0 -42 20 -42q6 0 12 3t12.5 10t12 13.5t12.5 18t12 19.5t12 22.5t10.5 21.5l11 22l9.5 19q8 17 18 17q6 0 6 -10q0 -8 -4 -17q-2 -6 -11 -29.5t-15 -37t-17.5 -36.5t-22.5 -37.5t-26 -29.5t-33 -22t-38 -7q-29 0 -46 28.5t-17 74.5 q0 9 1 15q-26 -55 -54.5 -86.5t-53.5 -31.5q-39 0 -58 37t-19 99q0 78 26 164.5t74.5 150t102.5 63.5q34 0 52 -48q28 125 59 239q6 22 32 22q21 0 38 -15.5t17 -41.5zM210 282q17 83 30 137q-2 31 -28 31q-46 0 -87 -124t-41 -215q0 -49 17 -49q54 0 109 220z" />
<glyph unicode="e" horiz-adv-x="329" d="M246 491q30 -4 45.5 -28.5t15.5 -63.5q0 -79 -52 -155t-126 -76q-19 0 -38 6q0 -120 66 -120q23 0 44.5 9t36 20t31.5 31t24.5 31.5t20.5 33t15 24.5q8 14 16 14q7 0 7 -10q0 -7 -3 -14q-80 -200 -230 -200q-61 0 -91 48t-30 125q0 75 25.5 154t70.5 133.5t95 54.5 q37 0 57 -17zM93 201q3 -1 8 -1q28 0 62.5 42.5t58 98.5t23.5 95q0 33 -17 33q-41 0 -83.5 -87t-51.5 -181z" />
<glyph unicode="f" horiz-adv-x="309" d="M338 634q0 -85 -26 -170t-64.5 -145t-82.5 -97.5t-80 -39.5q-2 -8 -11.5 -55.5t-14.5 -76.5q93 12 153.5 45t96.5 108q7 15 16 15q7 0 7 -11q0 -7 -3 -14q-35 -85 -101 -129t-165 -63q27 -13 46 -62t19 -104q0 -56 -24 -92.5t-74 -36.5q-82 0 -82 145q0 111 55 371 q14 66 22.5 104t22 95.5t24.5 91t26.5 77t31 67.5t34.5 48t41.5 34t47.5 10q18 0 30.5 -8.5t15.5 -20.5q39 -21 39 -86zM293 673q0 14 -1 20.5t-5.5 12t-13.5 5.5q-63 0 -182 -496q65 58 133.5 220t68.5 238zM24 -263q19 0 33.5 33t14.5 81q0 62 -27 123q-38 -178 -38 -203 q0 -34 17 -34z" />
<glyph unicode="g" horiz-adv-x="379" d="M50 -330q-43 0 -72.5 28.5t-29.5 69.5q0 19 5.5 37.5t12 32.5t23 31t25.5 26t34 25.5t34 22.5t40 24.5t38 22.5l28 141q-26 -63 -57.5 -100t-59.5 -37q-39 0 -58 37t-19 99q0 78 26 164.5t74.5 150t102.5 63.5q28 0 45.5 -23.5t19.5 -50.5h7q21 0 38.5 -16.5t17.5 -43.5 q0 -14 -4 -38t-9.5 -52t-18.5 -92t-25 -128q73 59 111 139q7 16 17 16q7 0 7 -10q0 -4 -4 -16q-46 -114 -146 -196q-68 -327 -203 -327zM227 347l13 68q-3 35 -28 35q-46 0 -87 -124t-41 -215q0 -49 17 -49q34 0 68 81t58 204zM138 -109l6 30q-31 -21 -44.5 -30t-39.5 -29.5 t-37.5 -35.5t-22 -36.5t-10.5 -43.5q0 -18 10 -31.5t26 -13.5q28 0 58 44t54 146z" />
<glyph unicode="h" horiz-adv-x="368" d="M325 419q0 -61 -41.5 -191.5t-41.5 -157.5q0 -25 18 -25q7 0 14 4t14.5 13.5t14 18.5t16 26t15.5 29t17 33.5t17 33.5q8 17 18 17q6 0 6 -9q0 -7 -4 -18q-1 -2 -8 -22t-13 -34t-16.5 -38t-22 -40.5t-25.5 -33t-31 -25.5t-35 -9q-33 0 -55.5 22.5t-22.5 65.5 q0 46 39.5 177t39.5 161q0 24 -14 24q-15 0 -41.5 -35.5t-58 -108.5t-51.5 -160q-4 -19 -8.5 -42t-6.5 -34.5t-5.5 -25.5t-6.5 -20.5t-7.5 -13t-10.5 -8.5t-15 -2q-16 0 -27 11.5t-11 32.5q0 53 45 270t93 379q7 26 39 26q19 0 34.5 -11.5t15.5 -30.5q0 -13 -8 -40.5 t-28 -99.5t-41 -162q62 137 126 137q40 0 57 -25t17 -59z" />
<glyph unicode="i" horiz-adv-x="194" d="M120 561q-22 0 -33.5 13.5t-11.5 34.5q0 35 25.5 67t64.5 32q29 0 44 -14.5t15 -37.5q0 -34 -29.5 -64.5t-74.5 -30.5zM156 464q0 -24 -41.5 -177t-41.5 -194q0 -33 18 -33q7 0 15 5.5t15 13.5t16 20.5t15.5 23.5t14 25.5t12 23t9.5 19.5t6 12q9 17 17 17q7 0 7 -10 q0 -8 -4 -17q-43 -108 -78 -151q-38 -48 -78 -48q-32 0 -52 25t-20 78q0 44 23.5 161.5t54.5 230.5q8 26 40 26q21 0 36.5 -13.5t15.5 -37.5z" />
<glyph unicode="j" horiz-adv-x="181" d="M-152 -330q-13 0 -29 5.5t-21 14.5q-21 6 -36.5 27.5t-15.5 50.5q0 22 5.5 42t18.5 37t25.5 29.5t35 27.5t37.5 23.5t44 24.5t43 24q18 83 50 257t49 246q7 29 37 29q21 0 38 -14t17 -35q0 -11 -11 -61t-33 -151.5t-40 -197.5q74 62 119 154q10 18 20 18q5 0 5 -8 q0 -9 -5 -20q-53 -125 -153 -206q-70 -317 -200 -317zM101 561q-45 7 -45 55q0 34 25.5 63t64.5 29q29 0 43.5 -16t14.5 -40q0 -34 -24.5 -63t-62.5 -29q-11 0 -16 1zM-187 -293q36 -3 67 37t56 147q4 17 5 23q-35 -22 -44 -27.5t-37 -26t-38 -33.5t-20.5 -34t-10.5 -43 q0 -30 22 -43z" />
<glyph unicode="k" horiz-adv-x="355" d="M45 17q-3 -21 -24 -21q-17 0 -31.5 12t-14.5 29q0 44 44.5 269.5t89.5 377.5q7 23 35 23q20 0 37 -11.5t17 -28.5q0 -5 -1 -8q-36 -113 -71 -258q55 108 113 108q37 0 55.5 -27t18.5 -72q0 -74 -43.5 -151t-107.5 -100q34 -90 43 -101q10 -13 26 -13q22 0 45 25.5 t38 52.5t41 80q8 17 19 17q5 0 5 -7t-4 -18q-15 -39 -29 -68t-35.5 -63.5t-48.5 -53.5t-57 -19q-34 0 -57 18.5t-36.5 46t-36.5 87.5q-2 7 -4 11l-1 -1q-20 -98 -25 -136zM230 386q0 51 -29 51t-61.5 -66.5t-58.5 -169.5q15 12 31 12q21 0 35 -21q34 25 58.5 85.5 t24.5 108.5z" />
<glyph unicode="l" horiz-adv-x="271" d="M207 751q26 0 40 -20q22 -13 33 -34t11 -67q0 -74 -23 -163.5t-70.5 -158.5t-103.5 -63q-13 -83 -13 -127q0 -63 40 -63q37 0 79 44.5t71 103.5q7 15 16 15q7 0 7 -11q0 -5 -3 -14q-28 -70 -86.5 -136t-116.5 -66q-91 0 -91 151q0 80 23 198q76 411 187 411zM232 711 q-26 -8 -67.5 -151t-66.5 -291q57 46 97 174t40 225q0 25 -3 43z" />
<glyph unicode="m" horiz-adv-x="564" d="M55 24q-5 -29 -40 -29q-16 0 -28.5 10.5t-12.5 28.5q0 32 27.5 175.5t57.5 246.5q7 26 37 26q19 0 34 -12.5t15 -33.5q0 -10 -11 -48q56 115 120 115q98 0 66 -143q59 143 124 143q40 0 57 -25t17 -59q0 -61 -42.5 -195.5t-42.5 -161.5q0 -25 17 -25q12 0 27 14.5 t29 38.5t25 45t21.5 43.5t11.5 24.5q8 17 17 17q7 0 7 -11q0 -7 -4 -16q0 -1 -8 -21.5t-14 -34.5t-17 -38t-22.5 -40.5t-26 -33t-31.5 -25.5t-35 -9q-32 0 -55 22.5t-23 65.5q0 46 39.5 177t39.5 161q0 24 -14 24q-22 0 -62.5 -74.5t-70.5 -187.5q-3 -16 -15 -70t-19 -87 q-6 -28 -41 -28q-19 0 -33 12t-14 35q0 16 34.5 165.5t34.5 197.5q0 36 -16 36q-35 0 -85 -128t-75 -288z" />
<glyph unicode="n" horiz-adv-x="387" d="M58 24q-6 -33 -41 -33q-17 0 -30.5 12t-13.5 33q0 2 0.5 5t0.5 4q23 188 88 411q7 26 37 26q19 0 34 -12.5t15 -33.5q0 -16 -11.5 -53.5t-11.5 -39.5q73 167 144 167q40 0 57 -28t17 -63q0 -63 -48.5 -193t-48.5 -154q0 -21 16 -21q10 0 23.5 10.5t25.5 24.5t26 34t22 34 t17.5 31t10.5 18q10 17 19 17q5 0 5 -7t-4 -18q-6 -19 -20.5 -48t-37 -66.5t-53.5 -63.5t-61 -26q-33 0 -55.5 22.5t-22.5 65.5q0 48 48 177.5t48 160.5q0 24 -16 24q-30 0 -83 -103.5t-81 -232.5l-3 -7q-8 -45 -12 -74z" />
<glyph unicode="o" horiz-adv-x="373" d="M209 472q-26 0 -48 -52.5t-22 -117.5q0 -107 65 -146q38 123 38 226q0 90 -33 90zM137 42q27 4 55 79q-71 24 -99 107q-11 -50 -11 -94q0 -93 46 -93q6 0 9 1zM393 195q-11 -31 -49 -57.5t-85 -26.5q-67 -118 -149 -118q-57 0 -85 46.5t-28 120.5q0 106 45 201 q19 43 50 38q15 50 46.5 80.5t76.5 30.5q57 0 85 -42.5t28 -111.5q0 -108 -53 -216q65 2 98 63q10 17 18 17q6 0 6 -7t-4 -18z" />
<glyph unicode="p" horiz-adv-x="377" d="M133 -10q-61 0 -88 22q-46 -210 -50 -260q-3 -30 -37 -30q-18 0 -30.5 10.5t-12.5 32.5q0 27 56 303t84 376q10 36 46 36q17 0 30 -10.5t13 -27.5q0 -7 -8 -40q49 107 108 107q43 0 64.5 -36.5t21.5 -94.5q0 -91 -42.5 -195.5t-103.5 -155.5q66 15 111 57t82 119 q7 16 16 16q7 0 7 -11q0 -6 -3 -15q-41 -102 -101 -152.5t-163 -50.5zM91 211l-33 -145q19 0 38 -23q32 6 65 68t52.5 138.5t19.5 130.5q0 57 -26 57q-28 0 -59 -62.5t-57 -163.5z" />
<glyph unicode="q" horiz-adv-x="385" d="M103 62q16 0 32.5 22.5t32.5 66t27 80t26.5 94t21.5 77.5q0 48 -29 48q-46 0 -87 -124t-41 -215q0 -49 17 -49zM180 -258q-6 -33 -41 -33q-17 0 -30.5 12t-13.5 33q0 59 57 305q-41 -65 -79 -65q-39 0 -58 37t-19 99q0 78 26 164.5t74.5 150t102.5 63.5q30 0 46.5 -26 t16.5 -54v-4q8 3 18 3q19 0 34 -12.5t15 -32.5q0 -10 -2 -16q-40 -141 -100 -401q23 49 80 122t78 116q7 15 15 15t8 -12q0 -6 -3 -13q-28 -68 -75 -132t-83 -117.5t-49 -110.5q-11 -49 -18 -91z" />
<glyph unicode="r" horiz-adv-x="331" d="M68 130l-16 -106q-2 -16 -12.5 -24.5t-24.5 -8.5q-16 0 -27 11.5t-11 32.5q0 55 23.5 182.5t55.5 238.5q7 25 38 25q19 0 34 -12t15 -32q0 -8 -3 -18.5t-7.5 -23t-6.5 -18.5q62 133 129 133q51 0 51 -65q0 -31 -24 -100t-24 -84q0 -22 23 -22q22 0 48 36.5t43 75.5 q10 24 19 24q13 0 5 -28q-13 -50 -54 -98.5t-88 -48.5q-78 0 -78 77q0 31 22 86t22 67t-10 12q-28 0 -76 -97t-66 -215z" />
<glyph unicode="s" horiz-adv-x="286" d="M69 -7q-77 0 -114 31.5t-37 73.5q0 27 15.5 48.5t40.5 15.5q54 82 133 251q-15 40 -15 80q0 50 20 85.5t49 35.5q37 0 37 -45q0 -61 -63 -162q7 -23 28.5 -75t35 -96t13.5 -80q0 -57 -24 -98q14 11 27 26.5t19.5 26.5t24.5 43.5t27 48.5t17 16q6 0 6 -11q0 -6 -3 -15 q-42 -104 -94 -152t-143 -48zM110 339q-33 -77 -111 -191q10 -11 10 -69v-12q0 -51 35 -51q30 0 51.5 37t21.5 123q0 21 -7 163z" />
<glyph unicode="t" horiz-adv-x="208" d="M18 508q31 0 47 -1q21 77 37 129q7 25 41 25q21 0 36.5 -13t15.5 -37q0 -14 -26 -109q87 -7 94 -17q1 -2 1 -4q0 -20 -110 -32q-3 -11 -12.5 -44t-13.5 -47t-12.5 -44t-12.5 -46t-10.5 -41.5t-10 -41.5t-7 -35t-5 -33.5t-1.5 -26.5q0 -42 21 -42q11 0 24 11t26.5 31 t24.5 38.5t24 42t19 32.5q10 18 17 18t7 -11q0 -8 -4 -17q-9 -23 -21 -47.5t-35 -63.5t-52.5 -63.5t-58.5 -24.5q-32 0 -52 25t-20 78q0 105 60 350l-32 3q-17 1 -17 27q0 12 5 21.5t13 9.5z" />
<glyph unicode="u" horiz-adv-x="376" d="M147 461q-11 -53 -31 -141t-29 -137.5t-9 -78.5q0 -42 22 -42q13 0 25.5 12t24.5 40.5t21 55.5t21.5 76.5t20 83t20.5 95.5q2 8 3 12.5t2.5 11.5t2.5 13q5 24 20.5 36t34.5 12q17 0 30 -11t13 -30q0 -16 -42 -183.5t-42 -205.5q0 -27 13 -27q33 0 108 150q8 17 17 17 q7 0 7 -10q0 -8 -4 -17q-80 -199 -163 -199q-27 0 -47 19t-21 65q-44 -84 -101 -84q-75 0 -75 107q0 43 10.5 104t27.5 139t24 119q4 22 19.5 33.5t34.5 11.5q18 0 30.5 -10t12.5 -27q0 -7 -1 -10z" />
<glyph unicode="v" horiz-adv-x="352" d="M147 464q0 -21 -40 -172.5t-40 -203.5q0 -49 26 -49q38 0 103 190q-19 32 -19 84q0 73 32.5 142t70.5 69q40 0 40 -57q0 -75 -61 -234q12 -5 25 -5q38 0 73 40.5t55 91.5q5 15 13 15q6 0 6 -12q0 -7 -1 -10q-19 -61 -62.5 -113t-96.5 -52q-17 0 -29 4q-38 -88 -82.5 -143 t-90.5 -55q-74 0 -74 142q0 136 60 353q8 26 40 26q21 0 36.5 -13.5t15.5 -37.5z" />
<glyph unicode="w" horiz-adv-x="556" d="M337 464q0 -26 -40 -172t-40 -204q0 -49 26 -49q38 0 103 190q-19 32 -19 84q0 73 32.5 142t70.5 69q40 0 40 -57q0 -75 -61 -234q12 -5 25 -5q38 0 73 40.5t55 91.5q5 15 13 15q7 0 7 -10q0 -6 -2 -12q-19 -61 -62.5 -113t-96.5 -52q-17 0 -29 4q-38 -88 -82.5 -143 t-90.5 -55q-68 0 -73 119q-50 -119 -117 -119q-74 0 -74 142q0 136 60 353q8 26 40 26q21 0 36.5 -13.5t15.5 -37.5q0 -31 -40 -172.5t-40 -203.5q0 -50 26 -50q19 0 37 30.5t33.5 84.5t28 108t28 122.5t25.5 105.5q8 26 40 26q21 0 36.5 -13.5t15.5 -37.5z" />
<glyph unicode="x" horiz-adv-x="389" d="M20 193q-4 -8 -11 -8q-11 0 -11 11q0 1 2 7q13 32 47 119t63 157q5 13 18.5 21t28.5 8q34 0 38 -31q2 -17 10 -74.5t13 -90.5q16 79 50.5 137.5t80.5 58.5q21 0 35 -11.5t14 -29.5q0 -22 -10.5 -34t-26.5 -15.5t-36.5 -12t-39 -22t-34.5 -48.5t-23 -88q31 -187 71 -187 q5 0 10.5 3.5t11.5 11.5t11.5 16t13 23l13 26t15 31t15.5 32q9 17 18 17q6 0 6 -9t-4 -18l-16 -40t-19 -46.5t-20 -41.5t-24.5 -39t-28.5 -24.5t-34 -10.5q-62 0 -107 146q-17 -62 -50 -104.5t-83 -42.5q-20 0 -34.5 11.5t-14.5 28.5q0 30 18.5 42t62.5 16q23 2 50.5 25.5 t40.5 59.5q-24 96 -36 212q-80 -162 -94 -192z" />
<glyph unicode="y" horiz-adv-x="367" d="M50 -330q-38 0 -70 29t-32 69q0 27 9.5 50.5t21 39.5t36 35t41 29t50.5 30t49 29q6 47 15 98q-41 -85 -102 -85q-80 0 -80 105q0 60 34.5 209t37.5 169q4 28 36 28q21 0 38.5 -13t17.5 -31q0 -16 -4 -36t-12.5 -55t-11.5 -49q-41 -180 -41 -221q0 -38 21 -38q9 0 17 4 t15 13t13 19t12.5 28t11 32.5t11.5 40.5t11.5 44.5t12.5 51t14 54.5l28 128q6 25 37 25q20 0 36.5 -11.5t16.5 -27.5q0 -7 -2 -16t-8 -33.5t-14 -61t-23 -115t-33 -179.5q67 62 107 145q8 18 18 18q6 0 6 -10q0 -7 -4 -18q-47 -119 -138 -199q-62 -324 -199 -324zM17 -298 q3 -1 10 -1q27 0 48 17.5t32.5 39t21 57.5t12 55t6.5 49q-84 -54 -110 -78q-47 -45 -47 -95q0 -28 27 -44z" />
<glyph unicode="z" horiz-adv-x="365" d="M20 193q-10 -20 -19 -20q-6 0 -6 9q0 10 5 21q38 94 66 211q-16 16 -16 38q0 21 13.5 38.5t29.5 17.5q26 0 26 -43q41 1 119 24t82 23q16 0 25.5 -12t9.5 -29q0 -37 -37 -53l-23 -10q10 -27 10 -60q0 -71 -46 -146.5t-112 -123.5q35 -15 56 -51q117 81 162 176 q8 18 19 18q6 0 6 -8q0 -9 -5 -20q-50 -115 -168 -205q4 -24 4 -39q0 -51 -20 -113.5t-64 -114.5t-99 -52q-42 0 -51 18q-20 5 -36 28.5t-16 52.5q0 34 13.5 63t43.5 55t54.5 42.5t68.5 43.5l15 9q-7 46 -33 67q-37 -17 -63 -17q-37 0 -37 25q0 15 17 27t47 12q12 0 32 -2 q27 29 57 83.5t64.5 126.5t47.5 95q-46 -11 -88 -11q-41 0 -71 9q-30 -95 -83 -203zM125 -109q4 21 5 35q-37 -26 -55 -40t-45.5 -39t-40 -50t-12.5 -51q0 -30 24 -44q3 -1 9 -1q29 0 60.5 44t54.5 146z" />
<glyph unicode="{" horiz-adv-x="258" d="M195 631q-17 -114 -36 -160q-37 -90 -118 -115q73 -27 73 -110q0 -48 -25.5 -143t-25.5 -123q0 -76 82 -77q15 0 15 -7t-15 -11.5t-36 -4.5q-50 0 -76 31.5t-26 84.5q0 40 23.5 126.5t23.5 116.5q0 76 -67 114q-5 2 -5 4q0 5 19 7q31 16 55 42t36.5 46.5t24 66t14 62 t9.5 73.5q1 9 2 13q17 132 114 132q22 0 52 -8.5t30 -19.5q0 -6 -10 -6q-11 0 -28 3.5t-23 3.5q-38 0 -54.5 -30t-27.5 -111z" />
<glyph unicode="|" horiz-adv-x="179" d="M54 -51q-3 -13 -14 -13q-10 0 -18.5 9.5t-8.5 23.5q0 55 55.5 310t107.5 457q3 12 13 12q9 0 17.5 -8t8.5 -17q0 -13 -15.5 -72t-56.5 -247.5t-89 -454.5z" />
<glyph unicode="}" horiz-adv-x="291" d="M67 54q16 116 37 164q36 86 116 111q-73 26 -73 108q0 48 25.5 144t25.5 124q0 76 -81 77q-16 0 -16 7t15.5 11.5t36.5 4.5q50 0 75.5 -31.5t25.5 -84.5q0 -41 -23 -127t-23 -116q0 -78 67 -114q4 -3 4 -5q0 -6 -18 -6q-33 -16 -57 -43t-37 -50.5t-23.5 -67.5t-14 -67 t-9.5 -75q-16 -132 -114 -132q-22 0 -52 8t-30 19q0 7 10 7q11 0 28 -3.5t23 -3.5q38 0 54 29.5t28 111.5z" />
<glyph unicode="~" horiz-adv-x="452" d="M88 579q0 29 29.5 55t71.5 26q26 0 65 -9t58 -9q10 0 37.5 7.5t36.5 7.5q12 0 12 -8q0 -18 -20.5 -48t-58.5 -30q-20 0 -66.5 12t-70.5 12q-42 0 -74 -25q-6 -4 -10 -4q-10 0 -10 13z" />
<glyph unicode="&#xa1;" horiz-adv-x="332" d="M232 524q7 22 22 22q16 0 16 -24q0 -7 -1 -11q-41 -233 -124 -495q-12 -40 -57 -40q-21 0 -36 12.5t-15 33.5q0 14 6 29q12 29 42.5 99.5t44 102.5t35 85.5t37.5 97t30 88.5zM301 759q26 0 43.5 -14.5t17.5 -41.5q0 -34 -25.5 -63t-64.5 -29q-29 0 -43.5 16t-14.5 40 q0 34 24.5 63t62.5 29z" />
<glyph unicode="&#xa2;" horiz-adv-x="346" d="M248 555q26 -12 26 -21q43 -32 43 -127q0 -113 -39 -113q-18 0 -34.5 14.5t-16.5 33.5q0 23 21 74.5t21 72.5q0 33 -22 33q-36 0 -73 -52.5t-59 -126.5t-22 -136q0 -110 73 -110q47 0 106 51q9 8 17 8q9 0 9 -9q0 -5 -6 -13q-69 -82 -140 -92l-9 -56q-3 -13 -8 -13 q-6 0 -12.5 12t-6.5 27q0 1 0.5 3t1 9t1.5 17q-53 0 -79.5 49t-26.5 121q0 78 25.5 158t74 136.5t105.5 56.5q2 6 6.5 28.5t9 34.5t10.5 12q17 0 17 -24q0 -14 -13 -58z" />
<glyph unicode="&#xa3;" horiz-adv-x="380" d="M30 218q0 9 18.5 16t35.5 9q7 166 24 236q34 134 121 134q52 0 82 -48.5t30 -106.5q0 -15 -1 -25t-4 -22t-10.5 -18.5t-19.5 -6.5q-21 0 -40.5 14.5t-19.5 32.5q0 22 12.5 58.5t12.5 51.5q0 12 -5.5 27.5t-16.5 15.5q-27 0 -43 -58.5t-27.5 -164.5t-14.5 -122 q30 -2 44 -2q16 0 42 6.5t29 6.5q6 0 6 -6q0 -19 -30 -29.5t-56 -10.5q-15 0 -41 4q-18 -82 -55 -115q23 -1 69 -8t66 -7q16 0 37 7.5t25 7.5q12 0 12 -11q0 -38 -33 -64t-69 -26q-23 0 -58 9t-62 9q-34 0 -57 -12l-23 -12q-11 0 -11 13q0 23 14 47t35 36q30 32 35 134 q-8 -1 -23 -5t-20 -4q-10 0 -10 9z" />
<glyph unicode="&#xa4;" horiz-adv-x="429" d="M140 456q23 15 54 24t52 -1q33 11 75 -21l48 55q6 7 11 7q13 0 13 -19q0 -10 -6 -16l-43 -51q24 -36 24 -88q0 -95 -69 -152q6 -10 20.5 -31t22 -34t7.5 -18q0 -10 -13 -10q-10 0 -22 11t-20 22t-21 32q-1 2 -2.5 4t-2.5 4q-42 -21 -93 -21q-33 0 -57 12l-54 -73 q-6 -7 -12 -7q-13 0 -13 19q0 17 49 82q-35 36 -35 99q0 89 61 150q-43 75 -43 81q0 11 14 11t22 -13zM185 186q41 0 67.5 53.5t26.5 117.5q0 76 -38 101q-46 -13 -76.5 -73t-30.5 -120q0 -35 13 -57t38 -22z" />
<glyph unicode="&#xa5;" horiz-adv-x="347" d="M23 272l37 3q-4 64 -13 136.5t-16 117.5t-7 51q0 14 16.5 24t36.5 10q31 0 34 -22q15 -105 26 -312h12q23 58 63 167t53 142q11 27 45 27q15 0 26 -7t11 -18q0 -9 -16.5 -37.5t-57.5 -104t-84 -169.5l50 -3q27 -1 27 -16q0 -17 -26 -23t-75 -8l-24 -45l76 -3 q23 -1 23 -15q0 -17 -27.5 -23t-77.5 -8q-14 -84 -24 -121q-6 -24 -35 -24q-18 0 -32 11.5t-14 29.5q0 20 3 37t9 39.5t7 24.5q-5 0 -15.5 0.5t-17 1t-16 1.5t-15.5 2t-11.5 3t-8.5 5.5t-3 7.5q0 9 12 18t30 10l56 3q1 3 2.5 11t2.5 10l-2 24h-6q-63 0 -69 12q-1 2 -1 5 q0 8 10 16t26 9z" />
<glyph unicode="&#xa6;" horiz-adv-x="187" d="M138 410q-3 -10 -12 -10q-8 0 -15.5 6.5t-7.5 17.5q0 24 65 312q3 12 15 12q11 0 21.5 -8.5t10.5 -17.5q0 -7 -6 -27.5t-26 -98t-45 -186.5zM73 311q3 12 15 12t22.5 -8t10.5 -18q0 -6 -71 -348q-3 -13 -13 -13q-8 0 -16 9.5t-8 22.5q0 16 20.5 134.5t39.5 208.5z" />
<glyph unicode="&#xa7;" horiz-adv-x="378" d="M179 518q0 -22 18 -44t43.5 -41l51 -38t43.5 -42t18 -47q0 -45 -24.5 -72.5t-51.5 -38.5q31 -34 31 -67q0 -44 -30.5 -77.5t-58.5 -46.5q-23 -16 -65 -16q-58 0 -106.5 28.5t-48.5 61.5q0 19 18 41t34 22q9 0 15 -11q47 -100 147 -100q13 0 25 11t12 26q0 31 -34.5 63 t-76 55.5t-76 58t-34.5 69.5q0 78 81 114q-21 29 -21 56q0 56 43 95.5t108 39.5q51 0 91.5 -32t40.5 -84q0 -47 -31 -47q-19 0 -37 12.5t-18 27.5q0 9 3 24t3 21q0 16 -6.5 36t-18.5 20q-34 0 -61 -23t-27 -55zM105 361q0 -27 22.5 -50t68 -53t64.5 -47q35 16 35 44 q0 17 -28.5 40.5t-73 56t-67.5 57.5q-21 -19 -21 -48z" />
<glyph unicode="&#xa8;" horiz-adv-x="426" d="M294 558q-38 0 -38 37q0 23 16.5 43t40.5 20q18 0 28 -11.5t10 -28.5q0 -23 -16 -41.5t-41 -18.5zM157 560q-16 0 -27 9t-11 26q0 21 16 39t41 18q35 0 35 -35q0 -21 -15.5 -39t-38.5 -18z" />
<glyph unicode="&#xa9;" horiz-adv-x="754" d="M501 700q114 -32 170.5 -115.5t56.5 -191.5q0 -99 -43 -190.5t-128 -153t-193 -61.5q-52 0 -111 17q-111 31 -166 114.5t-55 191.5q0 73 25.5 145t71 130t115 93.5t150.5 35.5q65 0 107 -15zM494 681q-34 4 -51 4q-98 0 -177.5 -57.5t-120.5 -144.5t-41 -182 q0 -88 39.5 -162t117.5 -116q29 -4 55 -4q99 0 178.5 57.5t120.5 144.5t41 181q0 88 -42.5 164.5t-119.5 114.5zM487 244q9 8 17 8q9 0 9 -9q0 -5 -6 -13q-81 -94 -161 -94q-63 0 -93.5 46t-30.5 119q0 106 54 198.5t132 92.5q53 0 78.5 -44t25.5 -109q0 -115 -39 -115 q-18 0 -34.5 14.5t-16.5 33.5q0 23 21.5 75t21.5 74q0 32 -25 32q-34 0 -66.5 -41t-51 -99t-18.5 -111q0 -109 77 -109q47 0 106 51z" />
<glyph unicode="&#xaa;" horiz-adv-x="375" d="M351 468q3 4 8 4q14 0 14 -12q0 -3 -2 -7q-49 -78 -92 -78q-46 0 -52 61q-33 -61 -73 -61q-29 0 -43 27t-14 71q0 81 39 157t95 76q25 0 37.5 -21t13.5 -47h4q17 0 30.5 -13.5t13.5 -35.5q0 -5 -2 -17q-28 -114 -28 -126q0 -18 12 -18q17 0 39 40zM244 548q2 9 6.5 32 t7.5 36q-1 3 -3.5 14t-6 17t-10.5 6q-22 0 -43 -69.5t-21 -118.5q0 -28 12 -28q7 0 16 7.5t21 34.5t21 69z" />
<glyph unicode="&#xab;" horiz-adv-x="516" d="M23 321q73 38 128.5 70.5t80 49.5t40 28.5t21 15.5t11.5 4q17 0 17 -25q0 -48 -241 -165q208 -128 208 -176q0 -22 -11.5 -42t-24.5 -20q-5 0 -14 8.5t-26 25t-41 37t-67 49.5t-96 57q-16 8 -16 29q0 16 9 31.5t22 22.5zM216 324q65 36 114.5 67t72 48t37 29.5t21 16.5 t13.5 4q14 0 14 -24q0 -62 -224 -162q53 -26 115 -82.5t62 -84.5q0 -19 -15 -39.5t-29 -20.5q-6 0 -12 6.5t-18 21t-30 33t-54 48t-83 61.5q-18 12 -18 32q0 28 34 46z" />
<glyph unicode="&#xae;" horiz-adv-x="751" d="M394 715q28 0 54.5 -3.5t38.5 -7.5l12 -3q104 -22 166.5 -107.5t62.5 -200.5q0 -99 -43 -190.5t-128 -153t-193 -61.5q-52 0 -111 17q-111 31 -166 114.5t-55 191.5q0 73 25.5 145t71 130t115 93.5t150.5 35.5zM494 681q-34 4 -51 4q-98 0 -177.5 -57.5t-120.5 -144.5 t-41 -182q0 -88 39.5 -162t117.5 -116q29 -4 55 -4q99 0 178.5 57.5t120.5 144.5t41 181q0 89 -40.5 164t-121.5 115zM504 230q6 7 11 7q8 0 8 -11q0 -2 -2 -8q-29 -80 -84 -80q-24 0 -41.5 16.5t-28 39t-25.5 61.5q-3 9 -5 14q-5 -19 -10.5 -42t-8.5 -35.5t-7.5 -25 t-10.5 -17.5t-15 -5q-16 0 -29 8.5t-13 21.5q0 56 85 343q4 15 29 15q17 0 32 -7.5t15 -17.5v-3q-9 -33 -29 -101t-27 -94l11 -3q47 13 75 58t28 101q0 42 -16 77q-20 10 -43 10q-39 0 -67 -16.5t-38.5 -36t-20 -36t-15.5 -16.5q-14 0 -31 21.5t-17 40.5q0 36 52 59.5 t101 23.5q61 0 95 -29q70 -39 70 -122q0 -57 -36 -102.5t-100 -54.5q16 -14 29.5 -36.5t22.5 -36t18 -13.5q12 0 38 32z" />
<glyph unicode="&#xb0;" horiz-adv-x="216" d="M171 613q44 0 69 -32.5t25 -70.5q0 -45 -30 -78.5t-81 -33.5q-53 0 -81.5 29.5t-28.5 72.5q0 49 35.5 81t91.5 32zM176 588q-28 1 -45.5 -35.5t-17.5 -78.5q0 -50 22 -50q25 0 44.5 38t19.5 77q0 40 -23 49z" />
<glyph unicode="&#xb1;" horiz-adv-x="307" d="M176 269q-4 -24 -21 -24q-11 0 -19 10.5t-8 28.5q0 21 12 79q-110 0 -110 18q0 20 30.5 25.5t90.5 5.5q24 94 38 110q7 6 12 6q9 0 15.5 -9t6.5 -22q0 -15 -9.5 -47.5t-10.5 -37.5h20.5h21.5h19t18 -1t14 -2.5t10 -4t3 -6.5q0 -31 -117 -35q-8 -39 -16 -94zM228 173 q-86 -9 -139 -9q-105 0 -105 20q0 31 152 31h4.5h4h4.5h22h23.5h21t19.5 -1.5t14.5 -3t11 -5t3.5 -7.5q0 -9 -10 -16.5t-26 -8.5z" />
<glyph unicode="&#xb2;" horiz-adv-x="326" d="M147 424q44 5 94.5 21t58.5 16q20 0 20 -23q0 -18 -8.5 -30t-18.5 -17.5t-30.5 -8.5t-32 -3.5t-35.5 -0.5q-57 0 -65 4q-16 -1 -29 15.5t-13 32.5q0 20 31 45t67.5 47t67.5 55.5t31 67.5t-23 34t-42 -27.5t-20 -71.5q0 -28 -21 -28q-17 0 -34.5 17.5t-17.5 37.5 q0 43 34.5 72.5t73.5 29.5q40 0 76.5 -31t36.5 -72t-27 -71.5t-60.5 -45t-68 -32t-45.5 -33.5z" />
<glyph unicode="&#xb3;" horiz-adv-x="309" d="M190 376q-46 0 -80.5 21.5t-34.5 61.5q0 21 16.5 34t37.5 13q27 0 27 -21q0 -6 -1 -16t-1 -14q0 -38 23 -54q19 1 34 26.5t15 53.5q0 11 -3 22q-36 0 -36 18q0 7 5.5 11.5t13.5 3.5l11 -2q15 11 25 38t10 55q0 18 -5.5 37t-16.5 19q-20 0 -34 -26t-14 -61q0 -27 -22 -27 q-17 0 -32.5 14.5t-15.5 33.5q0 35 34 62.5t74 27.5q42 0 73.5 -27.5t31.5 -70.5q0 -29 -15 -55t-40 -39q31 -22 31 -56q0 -33 -30 -58t-81 -25z" />
<glyph unicode="&#xb4;" horiz-adv-x="534" d="M346 669q0 -32 -60 -79q-28 -22 -57.5 -37.5t-43.5 -15.5q-9 0 -9 7t6.5 14t25 25.5t36.5 42.5q17 22 28.5 45.5t17.5 32t18 8.5q14 0 26 -13.5t12 -29.5z" />
<glyph unicode="&#xb5;" horiz-adv-x="376" d="M147 461q-11 -53 -31 -141t-29 -137.5t-9 -78.5q0 -42 22 -42q13 0 25.5 12t24.5 40.5t21 55.5t21.5 76.5t20 83t20.5 95.5q2 8 3 12.5t2.5 11.5t2.5 13q5 24 20.5 36t34.5 12q17 0 30 -11t13 -30q0 -16 -42 -183.5t-42 -205.5q0 -27 13 -27q33 0 108 150q8 17 17 17 q7 0 7 -10q0 -8 -4 -17q-80 -199 -163 -199q-27 0 -47 19t-21 65q-44 -84 -101 -84q-12 0 -23 3q-40 -188 -45 -245q-1 -17 -12 -26.5t-25 -9.5q-17 0 -30 13t-13 36q0 9 12 70t33 165.5t35 181.5q7 41 27 137.5t28 143.5q4 22 19.5 33.5t34.5 11.5q18 0 30.5 -10t12.5 -27 q0 -7 -1 -10z" />
<glyph unicode="&#xb6;" horiz-adv-x="445" d="M288 -5q-3 -15 -15 -15q-10 0 -19.5 10t-9.5 24q0 4 1 6q59 330 112 529q-27 0 -56 -6q7 -11 5 -21q-85 -396 -108 -517q-3 -16 -16 -16q-10 0 -19 10t-9 24q0 4 1 7q19 116 27.5 162.5t28.5 132t53 205.5q-84 -22 -133 -88.5t-49 -173.5q0 -35 9 -63.5t18 -45t9 -22.5 q0 -4 -3 -4q-14 0 -38 21.5t-46 70.5t-22 108q0 107 78 191t187 84q46 0 94 -18q7 24 23 24q10 0 18 -10t8 -24q0 -3 -2 -13q24 -11 24 -23q0 -9 -11 -9q-7 0 -21 5q-84 -304 -119 -545z" />
<glyph unicode="&#xb7;" horiz-adv-x="215" d="M95 288q-24 0 -40 13.5t-16 37.5q0 31 23.5 58t58.5 27q27 0 40.5 -15t13.5 -37q0 -31 -23 -57.5t-57 -26.5z" />
<glyph unicode="&#xb8;" horiz-adv-x="260" d="M78 12l41 -4q-4 -43 -18 -85h15q51 0 78 -24t27 -58q0 -37 -30.5 -66t-80.5 -29q-29 0 -29 10t15 10q22 0 37.5 21t15.5 47q0 24 -15 40.5t-44 16.5h-3q-24 -41 -47 -41q-8 0 -14 6t-6 15q0 27 39 42q13 38 19 99z" />
<glyph unicode="&#xb9;" horiz-adv-x="258" d="M180 396q-4 -18 -28 -18q-17 0 -31 9.5t-14 23.5q0 27 48 203q-28 -48 -46 -48q-8 0 -14 7.5t-6 15.5t5 11q1 1 13 9l15 10t13 10.5t15 15.5t12.5 19.5t14.5 26.5q0 8 8 13t17 5q16 0 29.5 -9t13.5 -21q0 -14 -13.5 -73t-32 -131.5t-19.5 -78.5z" />
<glyph unicode="&#xba;" horiz-adv-x="367" d="M249 707q8 0 14 -3q6 2 11 2q34 0 52.5 -34t18.5 -80q0 -78 -42 -146.5t-107 -68.5q-43 0 -65 34t-22 86q0 79 40 144.5t100 65.5zM204 410q25 0 45 74t20 142q0 44 -10 55q-24 -7 -51 -85.5t-27 -136.5q0 -49 23 -49z" />
<glyph unicode="&#xbb;" horiz-adv-x="544" d="M234 60q-5 -4 -10 -4q-17 0 -17 24q0 46 241 166q-209 125 -209 176q0 21 12 41.5t25 20.5q5 0 9 -4q119 -116 235 -173q16 -9 16 -29t-12.5 -37.5t-27.5 -22.5q-160 -79 -262 -158zM64 60q-5 -4 -10 -4q-15 0 -15 24q0 57 225 162q-118 66 -172 150q-5 8 -5 17 q0 20 14.5 39.5t28.5 19.5q8 0 12 -5q53 -62 90.5 -96.5t95.5 -67.5q17 -10 17 -33q0 -17 -10 -31t-23 -15q-116 -59 -248 -160z" />
<glyph unicode="&#xbc;" horiz-adv-x="556" d="M514 76q-7 -1 -19 -2t-13 -1l-16 -66q-3 -15 -26 -15q-16 0 -30.5 9t-14.5 23l10 50q-14 0 -43.5 -2t-46.5 -2q-29 0 -29 19q0 6 5 11q32 33 55 90t31 120q1 13 17 13q12 0 23 -7t11 -15q0 -31 -21.5 -95.5t-55.5 -103.5q29 3 60 3q18 82 53 198q4 15 24 15q16 0 29.5 -9 t13.5 -21q0 -21 -41 -185q6 0 18 1t19 1q20 0 20 -10q0 -6 -9 -12t-24 -7zM153 306q-4 -18 -28 -18q-17 0 -31 9.5t-14 23.5q0 27 48 203q-28 -48 -46 -48q-8 0 -14 7.5t-6 15.5t5 11q1 1 13 9l15 10t13 10.5t15 15.5t12.5 19.5t14.5 26.5q0 8 8 13t17 5q16 0 29.5 -9 t13.5 -21q0 -16 -13.5 -75t-32 -130.5t-19.5 -77.5zM110 -30q-15 -22 -27 -22q-6 0 -6 6q0 9 10 25q116 193 168 306q77 166 119 335q7 27 29 27q11 0 19 -7.5t8 -19.5q0 -5 -1 -8q-27 -113 -135.5 -324.5t-183.5 -317.5z" />
<glyph unicode="&#xbd;" horiz-adv-x="547" d="M153 306q-4 -18 -28 -18q-17 0 -31 9.5t-14 23.5q0 27 48 203q-28 -48 -46 -48q-8 0 -14 7.5t-6 15.5t5 11q1 1 13 9l15 10t13 10.5t15 15.5t12.5 19.5t14.5 26.5q0 8 8 13t17 5q16 0 29.5 -9t13.5 -21q0 -16 -13.5 -75t-32 -130.5t-19.5 -77.5zM110 -30q-15 -22 -27 -22 q-6 0 -6 6q0 9 10 25q116 193 168 306q77 166 119 335q7 27 29 27q11 0 19 -7.5t8 -19.5q0 -5 -1 -8q-27 -113 -135.5 -324.5t-183.5 -317.5zM347 42q44 5 94.5 21t58.5 16q20 0 20 -23q0 -18 -8.5 -30t-18.5 -17.5t-30.5 -8.5t-32 -3.5t-35.5 -0.5q-57 0 -65 4 q-16 -1 -29 15.5t-13 32.5q0 20 31 45t67.5 47t67.5 55.5t31 67.5t-23 34t-42 -27.5t-20 -71.5q0 -28 -21 -28q-17 0 -34.5 17.5t-17.5 37.5q0 43 34.5 72.5t73.5 29.5q40 0 76.5 -31t36.5 -72t-27 -71.5t-60.5 -45t-68 -32t-45.5 -33.5z" />
<glyph unicode="&#xbe;" horiz-adv-x="531" d="M494 76q-7 -1 -19 -2t-13 -1l-16 -66q-3 -15 -26 -15q-16 0 -30.5 9t-14.5 23l10 50q-14 0 -43.5 -2t-46.5 -2q-29 0 -29 19q0 6 5 11q32 33 55 90t31 120q1 13 17 13q12 0 23 -7t11 -15q0 -31 -21.5 -95.5t-55.5 -103.5q29 3 60 3q18 82 53 198q4 15 24 15q16 0 29.5 -9 t13.5 -21q0 -21 -41 -185q6 0 18 1t19 1q20 0 20 -10q0 -6 -9 -12t-24 -7zM110 -30q-15 -22 -27 -22q-6 0 -6 6q0 9 10 25q116 193 168 306q77 166 119 335q7 27 29 27q11 0 19 -7.5t8 -19.5q0 -5 -1 -8q-27 -113 -135.5 -324.5t-183.5 -317.5zM138 284q-46 0 -80.5 21.5 t-34.5 61.5q0 21 16.5 34t37.5 13q27 0 27 -21q0 -6 -1 -16t-1 -14q0 -38 23 -54q19 1 34 26.5t15 53.5q0 11 -3 22q-36 0 -36 18q0 7 5.5 11.5t13.5 3.5l11 -2q15 11 25 38t10 55q0 18 -5.5 37t-16.5 19q-20 0 -34 -26t-14 -61q0 -27 -22 -27q-17 0 -32.5 14.5t-15.5 33.5 q0 35 34 62.5t74 27.5q42 0 73.5 -27.5t31.5 -70.5q0 -29 -15 -55t-40 -39q31 -22 31 -56q0 -33 -30 -58t-81 -25z" />
<glyph unicode="&#xbf;" horiz-adv-x="335" d="M323 205q0 -10 -5 -32t-18.5 -53.5t-32.5 -59t-52 -47t-72 -19.5q-66 0 -105 46t-39 108q0 52 25.5 106t57.5 92t62.5 87.5t37.5 91.5q4 24 27 24q17 0 33 -12.5t16 -26.5q0 -37 -26 -84.5t-57 -87.5t-57 -96.5t-26 -109.5q0 -46 13.5 -81.5t38.5 -35.5q22 7 35.5 27.5 t19 41.5t16 70t19.5 84q7 26 32 26q21 0 39 -17.5t18 -41.5zM253 713q20 0 33.5 -11.5t13.5 -31.5q0 -26 -19.5 -48t-49.5 -22q-22 0 -33 12t-11 31q0 26 19 48t47 22z" />
<glyph unicode="&#xc0;" horiz-adv-x="396" d="M-26 179q13 0 59 -2q120 224 200 448l8 53q3 19 16.5 29t31.5 10q15 0 26 -9t11 -25q0 -13 -9 -104.5t-18.5 -215t-10.5 -209.5q-2 -94 18 -94q4 0 8.5 2t9 7t8.5 10t9.5 14.5t9.5 17t10.5 20.5t10.5 21.5t11.5 25t12.5 25.5q9 18 18 18q6 0 6 -10q0 -9 -4 -18 q-3 -8 -13 -33.5t-16 -39.5t-16.5 -37t-20.5 -36.5t-23 -28t-28 -21t-32 -6.5q-57 0 -65 153q-82 -5 -121 -5q-49 -119 -59.5 -134t-23.5 -15q-16 0 -30 10.5t-14 23.5q0 7 7.5 22t25 46t25.5 47l-36 2q-13 1 -20 7t-7 13t7 12.5t18 5.5zM200 171q-1 13 -1 40q0 124 19 290 q-54 -150 -122 -326zM308 747q-28 0 -86 55.5t-58 92.5q0 16 12.5 29t26.5 13t20.5 -11t16 -37.5t21.5 -47.5q14 -23 29 -42t20.5 -27.5t5.5 -17.5q0 -7 -8 -7z" />
<glyph unicode="&#xc1;" horiz-adv-x="396" d="M-26 179q13 0 59 -2q120 224 200 448l8 53q3 19 16.5 29t31.5 10q15 0 26 -9t11 -25q0 -13 -9 -104.5t-18.5 -215t-10.5 -209.5q-2 -94 18 -94q4 0 8.5 2t9 7t8.5 10t9.5 14.5t9.5 17t10.5 20.5t10.5 21.5t11.5 25t12.5 25.5q9 18 18 18q6 0 6 -10q0 -9 -4 -18 q-3 -8 -13 -33.5t-16 -39.5t-16.5 -37t-20.5 -36.5t-23 -28t-28 -21t-32 -6.5q-57 0 -65 153q-82 -5 -121 -5q-49 -119 -59.5 -134t-23.5 -15q-16 0 -30 10.5t-14 23.5q0 7 7.5 22t25 46t25.5 47l-36 2q-13 1 -20 7t-7 13t7 12.5t18 5.5zM200 171q-1 13 -1 40q0 124 19 290 q-54 -150 -122 -326zM443 882q0 -32 -60 -79q-28 -22 -57.5 -37.5t-43.5 -15.5q-9 0 -9 7t6.5 14t25 25.5t36.5 42.5q17 22 28.5 45.5t17.5 32t18 8.5q14 0 26 -13.5t12 -29.5z" />
<glyph unicode="&#xc2;" horiz-adv-x="396" d="M-26 179q13 0 59 -2q120 224 200 448l8 53q3 19 16.5 29t31.5 10q15 0 26 -9t11 -25q0 -13 -9 -104.5t-18.5 -215t-10.5 -209.5q-2 -94 18 -94q4 0 8.5 2t9 7t8.5 10t9.5 14.5t9.5 17t10.5 20.5t10.5 21.5t11.5 25t12.5 25.5q9 18 18 18q6 0 6 -10q0 -9 -4 -18 q-3 -8 -13 -33.5t-16 -39.5t-16.5 -37t-20.5 -36.5t-23 -28t-28 -21t-32 -6.5q-57 0 -65 153q-82 -5 -121 -5q-49 -119 -59.5 -134t-23.5 -15q-16 0 -30 10.5t-14 23.5q0 7 7.5 22t25 46t25.5 47l-36 2q-13 1 -20 7t-7 13t7 12.5t18 5.5zM200 171q-1 13 -1 40q0 124 19 290 q-54 -150 -122 -326zM185 738q0 3 2 5.5t9 11t17.5 21t31.5 41t47 66.5q15 22 49 22q19 0 23 -12q20 -58 39 -93t27.5 -45t8.5 -15q0 -10 -17 -19.5t-34 -9.5q-24 0 -46.5 40t-36.5 84q-67 -111 -98 -111q-9 0 -15.5 4t-6.5 10z" />
<glyph unicode="&#xc3;" horiz-adv-x="396" d="M-26 179q13 0 59 -2q120 224 200 448l8 53q3 19 16.5 29t31.5 10q15 0 26 -9t11 -25q0 -13 -9 -104.5t-18.5 -215t-10.5 -209.5q-2 -94 18 -94q4 0 8.5 2t9 7t8.5 10t9.5 14.5t9.5 17t10.5 20.5t10.5 21.5t11.5 25t12.5 25.5q9 18 18 18q6 0 6 -10q0 -9 -4 -18 q-3 -8 -13 -33.5t-16 -39.5t-16.5 -37t-20.5 -36.5t-23 -28t-28 -21t-32 -6.5q-57 0 -65 153q-82 -5 -121 -5q-49 -119 -59.5 -134t-23.5 -15q-16 0 -30 10.5t-14 23.5q0 7 7.5 22t25 46t25.5 47l-36 2q-13 1 -20 7t-7 13t7 12.5t18 5.5zM200 171q-1 13 -1 40q0 124 19 290 q-54 -150 -122 -326zM153 745q0 42 25.5 67.5t68.5 25.5q20 0 62.5 -15t60.5 -15q30 0 48 30q8 12 14 12q12 0 12 -20q0 -49 -24.5 -73t-64.5 -24q-25 0 -71 19.5t-63 19.5q-30 0 -45 -37q-4 -10 -11 -10q-12 0 -12 20z" />
<glyph unicode="&#xc4;" horiz-adv-x="396" d="M-26 179q13 0 59 -2q120 224 200 448l8 53q3 19 16.5 29t31.5 10q15 0 26 -9t11 -25q0 -13 -9 -104.5t-18.5 -215t-10.5 -209.5q-2 -94 18 -94q4 0 8.5 2t9 7t8.5 10t9.5 14.5t9.5 17t10.5 20.5t10.5 21.5t11.5 25t12.5 25.5q9 18 18 18q6 0 6 -10q0 -9 -4 -18 q-3 -8 -13 -33.5t-16 -39.5t-16.5 -37t-20.5 -36.5t-23 -28t-28 -21t-32 -6.5q-57 0 -65 153q-82 -5 -121 -5q-49 -119 -59.5 -134t-23.5 -15q-16 0 -30 10.5t-14 23.5q0 7 7.5 22t25 46t25.5 47l-36 2q-13 1 -20 7t-7 13t7 12.5t18 5.5zM200 171q-1 13 -1 40q0 124 19 290 q-54 -150 -122 -326zM372 747q-38 0 -38 37q0 23 16.5 43t40.5 20q18 0 28 -11.5t10 -28.5q0 -23 -16 -41.5t-41 -18.5zM235 749q-16 0 -27 9t-11 26q0 21 16 39t41 18q35 0 35 -35q0 -21 -15.5 -39t-38.5 -18z" />
<glyph unicode="&#xc5;" horiz-adv-x="396" d="M312 838q44 0 69 -32.5t25 -70.5t-23 -69.5t-62 -40.5q-2 -25 -10 -112.5t-11.5 -135t-7.5 -113.5t-4 -108q0 -96 18 -96q4 0 8.5 2t9 7t8.5 10t9.5 14.5t9.5 17t10.5 20.5t10.5 21.5t11.5 25t12.5 25.5q9 18 18 18q6 0 6 -10q0 -9 -4 -18q-3 -8 -13 -33.5t-16 -39.5 t-16.5 -37t-20.5 -36.5t-23 -28t-28 -21t-32 -6.5q-57 0 -65 153q-82 -5 -121 -5q-49 -119 -59.5 -134t-23.5 -15q-16 0 -30 10.5t-14 23.5q0 7 7.5 22t25 46t25.5 47l-36 2q-13 1 -20 7t-7 13t7 12.5t18 5.5l59 -2q119 223 199 461q-47 26 -47 87q0 49 35.5 81t91.5 32z M200 171q-3 30 -3.5 61t2 72t4.5 60t8 73t7 64q-54 -150 -122 -326zM317 813q-28 1 -45.5 -35.5t-17.5 -78.5q0 -50 22 -50q25 0 44.5 38t19.5 77q0 40 -23 49z" />
<glyph unicode="&#xc6;" horiz-adv-x="587" d="M-26 179q13 0 59 -2q123 229 203 456l5 45q1 16 13.5 25t28.5 9q31 0 31 -27q0 -30 -5.5 -100t-6.5 -88q23 85 76 149t111 64q17 0 35 -7.5t24 -16.5q55 -26 55 -99q0 -33 -13.5 -96.5t-14.5 -84.5q-1 -17 -18 -27t-38 -10q-19 0 -31.5 8t-12.5 23q0 37 35.5 114.5 t35.5 110.5q0 23 -11 41q-34 0 -76 -48.5t-70 -115t-28 -115.5q0 -54 37 -64q16 2 22 2q36 0 36 -20q0 -21 -36 -21q-20 0 -36 6q-35 -11 -55 -49t-20 -83q0 -48 22 -77.5t64 -29.5q23 0 45 7t40.5 20t33.5 26t28 31t20.5 29t16 24.5t8.5 14.5q10 17 19 17q5 0 5 -7t-4 -18 q-7 -21 -23.5 -50t-46.5 -67.5t-77 -64.5t-100 -26q-69 0 -105 36.5t-47 121.5q-68 -6 -127 -6q-49 -119 -59.5 -134t-23.5 -15q-16 0 -30 10.5t-14 23.5q0 7 7.5 22t25 46t25.5 47l-36 2q-13 1 -20 7t-7 13t7 12.5t18 5.5zM221 508q-76 -210 -125 -333l110 -4q-3 33 -3 75 q0 114 18 262zM335 310q-30 24 -40 62q-1 -12 -1.5 -26.5t-1 -30.5t-0.5 -25q19 12 43 20z" />
<glyph unicode="&#xc7;" horiz-adv-x="356" d="M278 707q33 0 47 -17q46 -22 46 -94q0 -42 -20 -124.5t-20 -104.5q-1 -18 -16 -27.5t-35 -9.5t-34.5 8.5t-14.5 22.5q0 37 43.5 136.5t43.5 139.5q0 20 -7 34q-50 -1 -104 -79.5t-88 -187.5t-34 -199q0 -148 96 -148q54 0 95 40t80 106q10 17 19 17q5 0 5 -8q0 -6 -4 -17 q-12 -31 -30 -62.5t-46 -65.5t-67.5 -55.5t-83.5 -21.5q-78 0 -116 61.5t-38 160.5q0 106 38 220.5t105 194.5t140 80zM95 12l41 -4q-4 -43 -18 -85h15q51 0 78 -24t27 -58q0 -37 -30.5 -66t-80.5 -29q-29 0 -29 10t15 10q22 0 37.5 21t15.5 47q0 24 -15 40.5t-44 16.5h-3 q-24 -41 -47 -41q-8 0 -14 6t-6 15q0 27 39 42q13 38 19 99z" />
<glyph unicode="&#xc8;" horiz-adv-x="363" d="M306 666q-32 0 -72.5 -48.5t-68.5 -115t-28 -115.5q0 -54 37 -64q16 2 22 2q36 0 36 -20q0 -21 -35 -21q-21 0 -37 6q-38 -12 -61.5 -52.5t-23.5 -86.5q0 -40 20 -66.5t59 -26.5q119 0 209 145q10 17 19 17q5 0 5 -7t-4 -18q-7 -20 -23.5 -48.5t-47.5 -67.5t-81 -65.5 t-107 -26.5q-70 0 -106.5 43.5t-36.5 104.5q0 69 34.5 115t87.5 62q-53 35 -53 102q0 98 70 197t145 99q17 0 35 -7.5t24 -16.5q55 -26 55 -99q0 -33 -13.5 -96.5t-14.5 -84.5q-1 -17 -18 -27t-38 -10q-19 0 -31.5 8t-12.5 23q0 37 35.5 114.5t35.5 110.5q0 23 -11 41h-5z M333 726q-28 0 -86 55.5t-58 92.5q0 16 12.5 29t26.5 13t20.5 -11t16 -37.5t21.5 -47.5q14 -23 29 -42t20.5 -27.5t5.5 -17.5q0 -7 -8 -7z" />
<glyph unicode="&#xc9;" horiz-adv-x="363" d="M306 666q-32 0 -72.5 -48.5t-68.5 -115t-28 -115.5q0 -54 37 -64q16 2 22 2q36 0 36 -20q0 -21 -35 -21q-21 0 -37 6q-38 -12 -61.5 -52.5t-23.5 -86.5q0 -40 20 -66.5t59 -26.5q119 0 209 145q10 17 19 17q5 0 5 -7t-4 -18q-7 -20 -23.5 -48.5t-47.5 -67.5t-81 -65.5 t-107 -26.5q-70 0 -106.5 43.5t-36.5 104.5q0 69 34.5 115t87.5 62q-53 35 -53 102q0 98 70 197t145 99q17 0 35 -7.5t24 -16.5q55 -26 55 -99q0 -33 -13.5 -96.5t-14.5 -84.5q-1 -17 -18 -27t-38 -10q-19 0 -31.5 8t-12.5 23q0 37 35.5 114.5t35.5 110.5q0 23 -11 41h-5z M415 861q0 -32 -60 -79q-28 -22 -57.5 -37.5t-43.5 -15.5q-9 0 -9 7t6.5 14t25 25.5t36.5 42.5q17 22 28.5 45.5t17.5 32t18 8.5q14 0 26 -13.5t12 -29.5z" />
<glyph unicode="&#xca;" horiz-adv-x="363" d="M306 666q-32 0 -72.5 -48.5t-68.5 -115t-28 -115.5q0 -54 37 -64q16 2 22 2q36 0 36 -20q0 -21 -35 -21q-21 0 -37 6q-38 -12 -61.5 -52.5t-23.5 -86.5q0 -40 20 -66.5t59 -26.5q119 0 209 145q10 17 19 17q5 0 5 -7t-4 -18q-7 -20 -23.5 -48.5t-47.5 -67.5t-81 -65.5 t-107 -26.5q-70 0 -106.5 43.5t-36.5 104.5q0 69 34.5 115t87.5 62q-53 35 -53 102q0 98 70 197t145 99q17 0 35 -7.5t24 -16.5q55 -26 55 -99q0 -33 -13.5 -96.5t-14.5 -84.5q-1 -17 -18 -27t-38 -10q-19 0 -31.5 8t-12.5 23q0 37 35.5 114.5t35.5 110.5q0 23 -11 41h-5z M183 758q0 3 2 5.5t9 11t17.5 21t31.5 41t47 66.5q15 22 49 22q19 0 23 -12q20 -58 39 -93t27.5 -45t8.5 -15q0 -10 -17 -19.5t-34 -9.5q-24 0 -46.5 40t-36.5 84q-67 -111 -98 -111q-9 0 -15.5 4t-6.5 10z" />
<glyph unicode="&#xcb;" horiz-adv-x="363" d="M306 666q-32 0 -72.5 -48.5t-68.5 -115t-28 -115.5q0 -54 37 -64q16 2 22 2q36 0 36 -20q0 -21 -35 -21q-21 0 -37 6q-38 -12 -61.5 -52.5t-23.5 -86.5q0 -40 20 -66.5t59 -26.5q119 0 209 145q10 17 19 17q5 0 5 -7t-4 -18q-7 -20 -23.5 -48.5t-47.5 -67.5t-81 -65.5 t-107 -26.5q-70 0 -106.5 43.5t-36.5 104.5q0 69 34.5 115t87.5 62q-53 35 -53 102q0 98 70 197t145 99q17 0 35 -7.5t24 -16.5q55 -26 55 -99q0 -33 -13.5 -96.5t-14.5 -84.5q-1 -17 -18 -27t-38 -10q-19 0 -31.5 8t-12.5 23q0 37 35.5 114.5t35.5 110.5q0 23 -11 41h-5z M361 748q-38 0 -38 37q0 23 16.5 43t40.5 20q18 0 28 -11.5t10 -28.5q0 -23 -16 -41.5t-41 -18.5zM224 750q-16 0 -27 9t-11 26q0 21 16 39t41 18q35 0 35 -35q0 -21 -15.5 -39t-38.5 -18z" />
<glyph unicode="&#xcc;" horiz-adv-x="322" d="M244 627q0 42 -22 52q-33 -1 -73 -52.5t-68 -122.5t-28 -125q0 -67 46 -80q16 -4 16 -14t-19 -10q-58 0 -87.5 43t-29.5 96q0 63 32 131.5t85 115t108 46.5q47 0 77.5 -29t30.5 -90q0 -103 -27 -227.5t-90 -349.5q-5 -19 -35 -19q-20 0 -36.5 9.5t-16.5 25.5 q0 9 34.5 125.5t68.5 259.5t34 215zM305 715q-28 0 -86 55.5t-58 92.5q0 16 12.5 29t26.5 13t20.5 -11t16 -37.5t21.5 -47.5q14 -23 29 -42t20.5 -27.5t5.5 -17.5q0 -7 -8 -7z" />
<glyph unicode="&#xcd;" horiz-adv-x="322" d="M244 627q0 42 -22 52q-33 -1 -73 -52.5t-68 -122.5t-28 -125q0 -67 46 -80q16 -4 16 -14t-19 -10q-58 0 -87.5 43t-29.5 96q0 63 32 131.5t85 115t108 46.5q47 0 77.5 -29t30.5 -90q0 -103 -27 -227.5t-90 -349.5q-5 -19 -35 -19q-20 0 -36.5 9.5t-16.5 25.5 q0 9 34.5 125.5t68.5 259.5t34 215zM359 866q0 -32 -60 -79q-28 -22 -57.5 -37.5t-43.5 -15.5q-9 0 -9 7t6.5 14t25 25.5t36.5 42.5q17 22 28.5 45.5t17.5 32t18 8.5q14 0 26 -13.5t12 -29.5z" />
<glyph unicode="&#xce;" horiz-adv-x="322" d="M244 627q0 42 -22 52q-33 -1 -73 -52.5t-68 -122.5t-28 -125q0 -67 46 -80q16 -4 16 -14t-19 -10q-58 0 -87.5 43t-29.5 96q0 63 32 131.5t85 115t108 46.5q47 0 77.5 -29t30.5 -90q0 -103 -27 -227.5t-90 -349.5q-5 -19 -35 -19q-20 0 -36.5 9.5t-16.5 25.5 q0 9 34.5 125.5t68.5 259.5t34 215zM115 742q0 3 2 5.5t9 11t17.5 21t31.5 41t47 66.5q15 22 49 22q19 0 23 -12q20 -58 39 -93t27.5 -45t8.5 -15q0 -10 -17 -19.5t-34 -9.5q-24 0 -46.5 40t-36.5 84q-67 -111 -98 -111q-9 0 -15.5 4t-6.5 10z" />
<glyph unicode="&#xcf;" horiz-adv-x="322" d="M244 627q0 42 -22 52q-33 -1 -73 -52.5t-68 -122.5t-28 -125q0 -67 46 -80q16 -4 16 -14t-19 -10q-58 0 -87.5 43t-29.5 96q0 63 32 131.5t85 115t108 46.5q47 0 77.5 -29t30.5 -90q0 -103 -27 -227.5t-90 -349.5q-5 -19 -35 -19q-20 0 -36.5 9.5t-16.5 25.5 q0 9 34.5 125.5t68.5 259.5t34 215zM316 746q-38 0 -38 37q0 23 16.5 43t40.5 20q18 0 28 -11.5t10 -28.5q0 -23 -16 -41.5t-41 -18.5zM179 748q-16 0 -27 9t-11 26q0 21 16 39t41 18q35 0 35 -35q0 -21 -15.5 -39t-38.5 -18z" />
<glyph unicode="&#xd0;" horiz-adv-x="494" d="M81 512q-7 -15 -21 -15q-18 0 -37 23t-19 48q0 43 70.5 92.5t155.5 49.5q86 0 139 -48q106 -69 106 -236q0 -102 -36.5 -201t-106.5 -166.5t-155 -67.5q-47 0 -86 6.5t-63.5 15.5t-41 20.5t-23.5 21t-7 17.5q0 17 14.5 31t32.5 14q9 0 17 -5.5t20.5 -19t20.5 -20.5 q37 22 65 179q-67 0 -67 18q0 29 75 29q34 215 56 284q9 27 44 27q20 0 36.5 -10.5t16.5 -26.5q0 -10 -6 -30.5t-21 -85t-32 -158.5q4 0 13.5 0.5t14.5 0.5q22 0 22 -12t-17.5 -21.5t-43.5 -12.5q-49 -177 -128 -203q44 -37 100 -37q43 0 80.5 49t61.5 123.5t37.5 157.5 t13.5 156q0 104 -27 140q-34 17 -75 17q-60 0 -114.5 -38.5t-84.5 -105.5z" />
<glyph unicode="&#xd1;" horiz-adv-x="422" d="M134 661q1 20 19.5 32t40.5 12q34 0 34 -21q0 -17 -2 -49t-2 -48q0 -193 67 -474q40 348 84 567q7 34 50 34q33 0 33 -18q0 -5 -17 -54t-55.5 -206t-79.5 -390q2 -7 2 -14q0 -16 -17 -29t-36 -13q-24 0 -31 25q-74 268 -88 490q-22 -148 -42.5 -246.5t-64.5 -245.5 q-6 -21 -44 -21q-35 0 -35 18q0 3 10 23t28.5 64t41 108t50.5 175.5t53 245.5q0 23 1 35zM176 766q0 42 25.5 67.5t68.5 25.5q20 0 62.5 -15t60.5 -15q30 0 48 30q7 12 14 12q12 0 12 -20q0 -49 -24.5 -73t-64.5 -24q-25 0 -71 19.5t-63 19.5q-30 0 -45 -37q-4 -10 -11 -10 q-12 0 -12 20z" />
<glyph unicode="&#xd2;" horiz-adv-x="436" d="M249 703q168 0 168 -230q0 -104 -34.5 -214.5t-97 -187.5t-132.5 -77q-74 0 -115 65.5t-41 169.5q0 66 15 113t61 72q-12 28 -12 68q0 83 54 152t134 69zM324 548q0 33 -0.5 48t-9 40t-26.5 37q-56 -1 -97.5 -70.5t-41.5 -146.5q0 -79 47 -112q10 -7 10 -15q0 -7 -11 -7 q-36 0 -80 34l-4 -14q-32 -107 -29 -177q0 -124 57 -148q44 0 88.5 93t70.5 216.5t26 221.5zM298 727q-28 0 -86 55.5t-58 92.5q0 16 12.5 29t26.5 13t20.5 -11t16 -37.5t21.5 -47.5q14 -23 29 -42t20.5 -27.5t5.5 -17.5q0 -7 -8 -7z" />
<glyph unicode="&#xd3;" horiz-adv-x="436" d="M249 703q168 0 168 -230q0 -104 -34.5 -214.5t-97 -187.5t-132.5 -77q-74 0 -115 65.5t-41 169.5q0 66 15 113t61 72q-12 28 -12 68q0 83 54 152t134 69zM324 548q0 33 -0.5 48t-9 40t-26.5 37q-56 -1 -97.5 -70.5t-41.5 -146.5q0 -79 47 -112q10 -7 10 -15q0 -7 -11 -7 q-36 0 -80 34l-4 -14q-32 -107 -29 -177q0 -124 57 -148q44 0 88.5 93t70.5 216.5t26 221.5zM395 854q0 -32 -60 -79q-28 -22 -57.5 -37.5t-43.5 -15.5q-9 0 -9 7t6.5 14t25 25.5t36.5 42.5q17 22 28.5 45.5t17.5 32t18 8.5q14 0 26 -13.5t12 -29.5z" />
<glyph unicode="&#xd4;" horiz-adv-x="436" d="M249 703q168 0 168 -230q0 -104 -34.5 -214.5t-97 -187.5t-132.5 -77q-74 0 -115 65.5t-41 169.5q0 66 15 113t61 72q-12 28 -12 68q0 83 54 152t134 69zM324 548q0 33 -0.5 48t-9 40t-26.5 37q-56 -1 -97.5 -70.5t-41.5 -146.5q0 -79 47 -112q10 -7 10 -15q0 -7 -11 -7 q-36 0 -80 34l-4 -14q-32 -107 -29 -177q0 -124 57 -148q44 0 88.5 93t70.5 216.5t26 221.5zM169 745q0 3 2 5.5t9 11t17.5 21t31.5 41t47 66.5q15 22 49 22q19 0 23 -12q20 -58 39 -93t27.5 -45t8.5 -15q0 -10 -17 -19.5t-34 -9.5q-24 0 -46.5 40t-36.5 84 q-67 -111 -98 -111q-9 0 -15.5 4t-6.5 10z" />
<glyph unicode="&#xd5;" horiz-adv-x="436" d="M249 703q168 0 168 -230q0 -104 -34.5 -214.5t-97 -187.5t-132.5 -77q-74 0 -115 65.5t-41 169.5q0 66 15 113t61 72q-12 28 -12 68q0 83 54 152t134 69zM324 548q0 33 -0.5 48t-9 40t-26.5 37q-56 -1 -97.5 -70.5t-41.5 -146.5q0 -79 47 -112q10 -7 10 -15q0 -7 -11 -7 q-36 0 -80 34l-4 -14q-32 -107 -29 -177q0 -124 57 -148q44 0 88.5 93t70.5 216.5t26 221.5zM150 755q0 42 25.5 67.5t68.5 25.5q20 0 62.5 -15t60.5 -15q30 0 48 30q7 12 14 12q12 0 12 -20q0 -49 -24.5 -73t-64.5 -24q-25 0 -71 19.5t-63 19.5q-30 0 -45 -37 q-4 -10 -11 -10q-12 0 -12 20z" />
<glyph unicode="&#xd6;" horiz-adv-x="436" d="M249 703q168 0 168 -230q0 -104 -34.5 -214.5t-97 -187.5t-132.5 -77q-74 0 -115 65.5t-41 169.5q0 66 15 113t61 72q-12 28 -12 68q0 83 54 152t134 69zM324 548q0 33 -0.5 48t-9 40t-26.5 37q-56 -1 -97.5 -70.5t-41.5 -146.5q0 -79 47 -112q10 -7 10 -15q0 -7 -11 -7 q-36 0 -80 34l-4 -14q-32 -107 -29 -177q0 -124 57 -148q44 0 88.5 93t70.5 216.5t26 221.5zM356 745q-38 0 -38 37q0 23 16.5 43t40.5 20q18 0 28 -11.5t10 -28.5q0 -23 -16 -41.5t-41 -18.5zM219 747q-16 0 -27 9t-11 26q0 21 16 39t41 18q35 0 35 -35q0 -21 -15.5 -39 t-38.5 -18z" />
<glyph unicode="&#xd7;" horiz-adv-x="279" d="M170 309q66 -83 66 -97q0 -17 -19 -17q-8 0 -16.5 4.5t-18.5 14.5t-16 17.5t-17.5 23.5t-15.5 21q-91 -77 -104 -77t-13 15q0 28 89 103q-60 87 -60 111q0 18 17 18q14 0 27 -14.5t29.5 -44t22.5 -38.5q105 95 120 95q11 0 11 -14q0 -32 -102 -121z" />
<glyph unicode="&#xd8;" horiz-adv-x="436" d="M249 703q168 0 168 -230q0 -104 -34.5 -214.5t-97 -187.5t-132.5 -77q-40 0 -71 20l-8 -16q-12 -23 -22 -23q-7 0 -7 10q0 11 8 26l9 19q-65 62 -65 199q0 66 15 113t61 72q-12 28 -12 68q0 83 54 152t134 69zM324 556q-131 -318 -222 -502q14 -28 37 -37q44 0 88 93 t70.5 218.5t26.5 227.5zM196 344l118 293q-9 24 -26 36q-56 -1 -97.5 -70.5t-41.5 -146.5q0 -79 47 -112zM89 91q42 94 98 231q-35 4 -72 34q-48 -168 -26 -265z" />
<glyph unicode="&#xd9;" horiz-adv-x="543" d="M546 657q0 -27 -60 -265.5t-60 -297.5q0 -34 14 -34q7 0 15 5.5t15 13.5t16 20.5t15.5 23.5t14 25.5t12 23t9.5 19.5t6 12q9 17 17 17q7 0 7 -10q0 -8 -4 -17q-43 -108 -78 -151q-38 -48 -78 -48q-33 0 -53.5 27t-18.5 87q-45 -118 -106 -118q-39 0 -64.5 37.5 t-25.5 101.5q0 61 52.5 234t52.5 262q0 46 -22 54q-33 -1 -73 -52.5t-68 -122.5t-28 -125q0 -67 46 -80q16 -4 16 -14t-19 -10q-58 0 -87.5 43t-29.5 96q0 63 32 131.5t85 115t108 46.5q16 0 32 -7q80 -12 80 -112q0 -80 -43 -240t-43 -212q0 -66 38 -66q25 0 51 69t43 152 q46 225 92 393q6 24 37 24q21 0 38 -14t17 -37zM411 717q-28 0 -86 55.5t-58 92.5q0 16 12.5 29t26.5 13t20.5 -11t16 -37.5t21.5 -47.5q14 -23 29 -42t20.5 -27.5t5.5 -17.5q0 -7 -8 -7z" />
<glyph unicode="&#xda;" horiz-adv-x="543" d="M546 657q0 -27 -60 -265.5t-60 -297.5q0 -34 14 -34q7 0 15 5.5t15 13.5t16 20.5t15.5 23.5t14 25.5t12 23t9.5 19.5t6 12q9 17 17 17q7 0 7 -10q0 -8 -4 -17q-43 -108 -78 -151q-38 -48 -78 -48q-33 0 -53.5 27t-18.5 87q-45 -118 -106 -118q-39 0 -64.5 37.5 t-25.5 101.5q0 61 52.5 234t52.5 262q0 46 -22 54q-33 -1 -73 -52.5t-68 -122.5t-28 -125q0 -67 46 -80q16 -4 16 -14t-19 -10q-58 0 -87.5 43t-29.5 96q0 63 32 131.5t85 115t108 46.5q16 0 32 -7q80 -12 80 -112q0 -80 -43 -240t-43 -212q0 -66 38 -66q25 0 51 69t43 152 q46 225 92 393q6 24 37 24q21 0 38 -14t17 -37zM491 857q0 -32 -60 -79q-28 -22 -57.5 -37.5t-43.5 -15.5q-9 0 -9 7t6.5 14t25 25.5t36.5 42.5q17 22 28.5 45.5t17.5 32t18 8.5q14 0 26 -13.5t12 -29.5z" />
<glyph unicode="&#xdb;" horiz-adv-x="543" d="M546 657q0 -27 -60 -265.5t-60 -297.5q0 -34 14 -34q7 0 15 5.5t15 13.5t16 20.5t15.5 23.5t14 25.5t12 23t9.5 19.5t6 12q9 17 17 17q7 0 7 -10q0 -8 -4 -17q-43 -108 -78 -151q-38 -48 -78 -48q-33 0 -53.5 27t-18.5 87q-45 -118 -106 -118q-39 0 -64.5 37.5 t-25.5 101.5q0 61 52.5 234t52.5 262q0 46 -22 54q-33 -1 -73 -52.5t-68 -122.5t-28 -125q0 -67 46 -80q16 -4 16 -14t-19 -10q-58 0 -87.5 43t-29.5 96q0 63 32 131.5t85 115t108 46.5q16 0 32 -7q80 -12 80 -112q0 -80 -43 -240t-43 -212q0 -66 38 -66q25 0 51 69t43 152 q46 225 92 393q6 24 37 24q21 0 38 -14t17 -37zM264 760q0 3 2 5.5t9 11t17.5 21t31.5 41t47 66.5q15 22 49 22q19 0 23 -12q20 -58 39 -93t27.5 -45t8.5 -15q0 -10 -17 -19.5t-34 -9.5q-24 0 -46.5 40t-36.5 84q-67 -111 -98 -111q-9 0 -15.5 4t-6.5 10z" />
<glyph unicode="&#xdc;" horiz-adv-x="543" d="M546 657q0 -27 -60 -265.5t-60 -297.5q0 -34 14 -34q7 0 15 5.5t15 13.5t16 20.5t15.5 23.5t14 25.5t12 23t9.5 19.5t6 12q9 17 17 17q7 0 7 -10q0 -8 -4 -17q-43 -108 -78 -151q-38 -48 -78 -48q-33 0 -53.5 27t-18.5 87q-45 -118 -106 -118q-39 0 -64.5 37.5 t-25.5 101.5q0 61 52.5 234t52.5 262q0 46 -22 54q-33 -1 -73 -52.5t-68 -122.5t-28 -125q0 -67 46 -80q16 -4 16 -14t-19 -10q-58 0 -87.5 43t-29.5 96q0 63 32 131.5t85 115t108 46.5q16 0 32 -7q80 -12 80 -112q0 -80 -43 -240t-43 -212q0 -66 38 -66q25 0 51 69t43 152 q46 225 92 393q6 24 37 24q21 0 38 -14t17 -37zM454 749q-38 0 -38 37q0 23 16.5 43t40.5 20q18 0 28 -11.5t10 -28.5q0 -23 -16 -41.5t-41 -18.5zM317 751q-16 0 -27 9t-11 26q0 21 16 39t41 18q35 0 35 -35q0 -21 -15.5 -39t-38.5 -18z" />
<glyph unicode="&#xdd;" horiz-adv-x="561" d="M233 -240q-32 0 -59 21t-27 54q0 32 12.5 56.5t40 44t50 30.5t62.5 29q9 4 14 6l42 186q-52 -111 -112 -111q-33 0 -55 31t-22 87q0 72 44.5 235t44.5 208q0 34 -22 42q-33 -1 -73 -52.5t-68 -122t-28 -124.5q0 -68 46 -81q16 -4 16 -14t-19 -10q-58 0 -87.5 43t-29.5 96 q0 63 32 131.5t85 115t108 46.5q16 0 32 -7q80 -12 80 -112q0 -36 -35 -184.5t-35 -184.5q0 -65 29 -65q51 0 118 250q49 216 69 286q6 22 29 22q20 0 37.5 -16t17.5 -40q0 -8 -1 -12q-62 -283 -140 -589q88 57 132 148q7 16 17 16q7 0 7 -10q0 -4 -4 -16 q-52 -128 -165 -190l-6 -23q-29 -111 -78 -165.5t-99 -54.5zM182 -177q0 -32 26 -32q27 0 55.5 38.5t51.5 128.5q-133 -58 -133 -135zM510 874q0 -32 -60 -79q-28 -22 -57.5 -37.5t-43.5 -15.5q-9 0 -9 7t6.5 14t25 25.5t36.5 42.5q17 22 28.5 45.5t17.5 32t18 8.5 q14 0 26 -13.5t12 -29.5z" />
<glyph unicode="&#xde;" horiz-adv-x="447" d="M69 390q-7 -15 -21 -15q-18 0 -37 23t-19 48q0 38 61.5 85.5t130.5 54.5q1 5 6.5 28t9 34.5t10 28t14.5 24t19 7.5q22 0 43 -15.5t21 -33.5q0 -5 -1 -7l-20 -74q33 -10 65 -32q45 -28 70 -75t25 -99q0 -102 -78.5 -152.5t-183.5 -42.5q-29 -117 -38 -168q-3 -16 -26 -16 q-18 0 -33 9.5t-15 24.5q0 31 24 164q-38 10 -38 26t44 3q24 132 61 282q-61 -39 -94 -112zM274 534q-80 -313 -81 -318q80 10 127 64t47 130q0 55 -24 107q-34 16 -69 17z" />
<glyph unicode="&#xdf;" horiz-adv-x="382" d="M165 -7q-77 0 -114 29t-37 67q0 32 21 50q-36 9 -36 37q0 90 30 223.5t82 242.5t104 109q26 0 40 -20q49 -28 49 -149q0 -56 -10.5 -102t-23.5 -68.5t-23.5 -40t-10.5 -24.5q0 -13 11.5 -28t26 -29t26 -46.5t11.5 -76.5q0 -65 -30 -111q12 9 21.5 18.5t19.5 24.5t16.5 26 t20.5 36.5t23 41.5t17 16q6 0 6 -11q0 -6 -3 -15q-42 -104 -94 -152t-143 -48zM229 152q0 35 -10 63t-22 42t-22 33.5t-10 40.5q0 14 21.5 73t39 142t9.5 162q-37 -26 -93 -233t-56 -311q0 -11 -6 -17q16 -6 20.5 -24t4.5 -59q0 -48 35 -48q38 0 63.5 42t25.5 94z" />
<glyph unicode="&#xe0;" horiz-adv-x="375" d="M324 361q-10 -48 -27 -114.5t-26 -107t-9 -61.5q0 -25 14 -25q26 0 99 150q8 17 18 17q6 0 6 -10q0 -8 -4 -17q-80 -199 -154 -199q-68 0 -68 92q0 12 1 19q-54 -111 -103 -111q-39 0 -58 37t-19 99q0 78 26 164.5t74.5 150t102.5 63.5q28 0 46.5 -24t20.5 -50h6 q21 0 38 -16t17 -42q0 -10 -1 -15zM101 62q27 0 57 60t49 146l32 144q0 38 -27 38q-46 0 -87 -124t-41 -215q0 -49 17 -49zM298 517q-28 0 -86 55.5t-58 92.5q0 16 12.5 29t26.5 13t20.5 -11t16 -37.5t21.5 -47.5q14 -23 29 -42t20.5 -27.5t5.5 -17.5q0 -7 -8 -7z" />
<glyph unicode="&#xe1;" horiz-adv-x="375" d="M324 361q-10 -48 -27 -114.5t-26 -107t-9 -61.5q0 -25 14 -25q26 0 99 150q8 17 18 17q6 0 6 -10q0 -8 -4 -17q-80 -199 -154 -199q-68 0 -68 92q0 12 1 19q-54 -111 -103 -111q-39 0 -58 37t-19 99q0 78 26 164.5t74.5 150t102.5 63.5q28 0 46.5 -24t20.5 -50h6 q21 0 38 -16t17 -42q0 -10 -1 -15zM101 62q27 0 57 60t49 146l32 144q0 38 -27 38q-46 0 -87 -124t-41 -215q0 -49 17 -49zM329 669q0 -32 -60 -79q-28 -22 -57.5 -37.5t-43.5 -15.5q-9 0 -9 7t6.5 14t25 25.5t36.5 42.5q17 22 28.5 45.5t17.5 32t18 8.5q14 0 26 -13.5 t12 -29.5z" />
<glyph unicode="&#xe2;" horiz-adv-x="375" d="M324 361q-10 -48 -27 -114.5t-26 -107t-9 -61.5q0 -25 14 -25q26 0 99 150q8 17 18 17q6 0 6 -10q0 -8 -4 -17q-80 -199 -154 -199q-68 0 -68 92q0 12 1 19q-54 -111 -103 -111q-39 0 -58 37t-19 99q0 78 26 164.5t74.5 150t102.5 63.5q28 0 46.5 -24t20.5 -50h6 q21 0 38 -16t17 -42q0 -10 -1 -15zM101 62q27 0 57 60t49 146l32 144q0 38 -27 38q-46 0 -87 -124t-41 -215q0 -49 17 -49zM115 565q0 3 2 5.5t9 11t17.5 21t31.5 41t47 66.5q15 22 49 22q19 0 23 -12q20 -58 39 -93t27.5 -45t8.5 -15q0 -10 -17 -19.5t-34 -9.5 q-24 0 -46.5 40t-36.5 84q-67 -111 -98 -111q-9 0 -15.5 4t-6.5 10z" />
<glyph unicode="&#xe3;" horiz-adv-x="375" d="M324 361q-10 -48 -27 -114.5t-26 -107t-9 -61.5q0 -25 14 -25q26 0 99 150q8 17 18 17q6 0 6 -10q0 -8 -4 -17q-80 -199 -154 -199q-68 0 -68 92q0 12 1 19q-54 -111 -103 -111q-39 0 -58 37t-19 99q0 78 26 164.5t74.5 150t102.5 63.5q28 0 46.5 -24t20.5 -50h6 q21 0 38 -16t17 -42q0 -10 -1 -15zM101 62q27 0 57 60t49 146l32 144q0 38 -27 38q-46 0 -87 -124t-41 -215q0 -49 17 -49zM90 556q0 42 25.5 67.5t68.5 25.5q20 0 62.5 -15t60.5 -15q30 0 48 30q7 12 14 12q12 0 12 -20q0 -49 -24.5 -73t-64.5 -24q-25 0 -71 19.5t-63 19.5 q-30 0 -45 -37q-4 -10 -11 -10q-12 0 -12 20z" />
<glyph unicode="&#xe4;" horiz-adv-x="375" d="M324 361q-10 -48 -27 -114.5t-26 -107t-9 -61.5q0 -25 14 -25q26 0 99 150q8 17 18 17q6 0 6 -10q0 -8 -4 -17q-80 -199 -154 -199q-68 0 -68 92q0 12 1 19q-54 -111 -103 -111q-39 0 -58 37t-19 99q0 78 26 164.5t74.5 150t102.5 63.5q28 0 46.5 -24t20.5 -50h6 q21 0 38 -16t17 -42q0 -10 -1 -15zM101 62q27 0 57 60t49 146l32 144q0 38 -27 38q-46 0 -87 -124t-41 -215q0 -49 17 -49zM294 558q-38 0 -38 37q0 23 16.5 43t40.5 20q18 0 28 -11.5t10 -28.5q0 -23 -16 -41.5t-41 -18.5zM157 560q-16 0 -27 9t-11 26q0 21 16 39t41 18 q35 0 35 -35q0 -21 -15.5 -39t-38.5 -18z" />
<glyph unicode="&#xe5;" horiz-adv-x="375" d="M324 361q-10 -48 -27 -114.5t-26 -107t-9 -61.5q0 -25 14 -25q26 0 99 150q8 17 18 17q6 0 6 -10q0 -8 -4 -17q-80 -199 -154 -199q-68 0 -68 92q0 12 1 19q-54 -111 -103 -111q-39 0 -58 37t-19 99q0 78 26 164.5t74.5 150t102.5 63.5q28 0 46.5 -24t20.5 -50h6 q21 0 38 -16t17 -42q0 -10 -1 -15zM101 62q27 0 57 60t49 146l32 144q0 38 -27 38q-46 0 -87 -124t-41 -215q0 -49 17 -49zM272 712q37 0 58 -27t21 -59q0 -37 -25 -65.5t-68 -28.5q-44 0 -68 24.5t-24 61.5q0 40 29.5 67t76.5 27zM276 691q-23 1 -37.5 -29t-14.5 -66 q0 -42 18 -42q20 0 37 31.5t17 64.5q0 34 -20 41z" />
<glyph unicode="&#xe6;" horiz-adv-x="525" d="M442 491q30 -4 45.5 -28.5t15.5 -63.5q0 -79 -52 -155t-126 -76q-19 0 -38 6q0 -120 66 -120q23 0 44.5 9t36 20t31.5 31t24.5 31.5t20.5 33t15 24.5q8 14 16 14q7 0 7 -10q0 -7 -3 -14q-80 -200 -230 -200q-54 0 -84 37.5t-36 100.5q-20 -67 -49 -102t-75 -35 q-39 0 -58 37t-19 99q0 78 26 164.5t74.5 150t102.5 63.5q34 0 51.5 -25t20.5 -58q54 83 116 83q37 0 57 -17zM103 63q54 0 103 206q16 68 42 121q-1 4 -4 16.5t-5.5 20.5t-9.5 15.5t-17 7.5q-46 0 -87.5 -119.5t-41.5 -210.5q0 -57 20 -57zM289 201q45 -8 98.5 81t53.5 154 q0 33 -17 33q-41 0 -83.5 -87t-51.5 -181z" />
<glyph unicode="&#xe7;" horiz-adv-x="346" d="M249 429q0 15 -8 27t-16 12q-41 0 -86 -109t-45 -204q0 -108 73 -108q53 0 102.5 50t76.5 106q7 15 16 15q7 0 7 -10q0 -6 -3 -15q-32 -79 -92.5 -141t-138.5 -62q-71 0 -105 51t-34 133q0 75 25.5 152t71 129.5t96.5 52.5q31 0 54 -19q32 -6 47 -37.5t15 -76.5 q0 -59 -18 -96.5t-56 -37.5q-18 0 -31.5 9t-13.5 22t10 30t21.5 32.5t21.5 41t10 53.5zM89 32l41 -4q-4 -43 -18 -85h15q51 0 78 -24t27 -58q0 -37 -30.5 -66t-80.5 -29q-29 0 -29 10t15 10q22 0 37.5 21t15.5 47q0 24 -15 40.5t-44 16.5h-3q-24 -41 -47 -41q-8 0 -14 6 t-6 15q0 27 39 42q13 38 19 99z" />
<glyph unicode="&#xe8;" horiz-adv-x="329" d="M246 491q30 -4 45.5 -28.5t15.5 -63.5q0 -79 -52 -155t-126 -76q-19 0 -38 6q0 -120 66 -120q23 0 44.5 9t36 20t31.5 31t24.5 31.5t20.5 33t15 24.5q8 14 16 14q7 0 7 -10q0 -7 -3 -14q-80 -200 -230 -200q-61 0 -91 48t-30 125q0 75 25.5 154t70.5 133.5t95 54.5 q37 0 57 -17zM93 201q3 -1 8 -1q28 0 62.5 42.5t58 98.5t23.5 95q0 33 -17 33q-41 0 -83.5 -87t-51.5 -181zM293 507q-28 0 -86 55.5t-58 92.5q0 16 12.5 29t26.5 13t20.5 -11t16 -37.5t21.5 -47.5q14 -23 29 -42t20.5 -27.5t5.5 -17.5q0 -7 -8 -7z" />
<glyph unicode="&#xe9;" horiz-adv-x="329" d="M246 491q30 -4 45.5 -28.5t15.5 -63.5q0 -79 -52 -155t-126 -76q-19 0 -38 6q0 -120 66 -120q23 0 44.5 9t36 20t31.5 31t24.5 31.5t20.5 33t15 24.5q8 14 16 14q7 0 7 -10q0 -7 -3 -14q-80 -200 -230 -200q-61 0 -91 48t-30 125q0 75 25.5 154t70.5 133.5t95 54.5 q37 0 57 -17zM93 201q3 -1 8 -1q28 0 62.5 42.5t58 98.5t23.5 95q0 33 -17 33q-41 0 -83.5 -87t-51.5 -181zM325 669q0 -32 -60 -79q-28 -22 -57.5 -37.5t-43.5 -15.5q-9 0 -9 7t6.5 14t25 25.5t36.5 42.5q17 22 28.5 45.5t17.5 32t18 8.5q14 0 26 -13.5t12 -29.5z" />
<glyph unicode="&#xea;" horiz-adv-x="329" d="M246 491q30 -4 45.5 -28.5t15.5 -63.5q0 -79 -52 -155t-126 -76q-19 0 -38 6q0 -120 66 -120q23 0 44.5 9t36 20t31.5 31t24.5 31.5t20.5 33t15 24.5q8 14 16 14q7 0 7 -10q0 -7 -3 -14q-80 -200 -230 -200q-61 0 -91 48t-30 125q0 75 25.5 154t70.5 133.5t95 54.5 q37 0 57 -17zM93 201q3 -1 8 -1q28 0 62.5 42.5t58 98.5t23.5 95q0 33 -17 33q-41 0 -83.5 -87t-51.5 -181zM115 565q0 3 2 5.5t9 11t17.5 21t31.5 41t47 66.5q15 22 49 22q19 0 23 -12q20 -58 39 -93t27.5 -45t8.5 -15q0 -10 -17 -19.5t-34 -9.5q-24 0 -46.5 40t-36.5 84 q-67 -111 -98 -111q-9 0 -15.5 4t-6.5 10z" />
<glyph unicode="&#xeb;" horiz-adv-x="329" d="M246 491q30 -4 45.5 -28.5t15.5 -63.5q0 -79 -52 -155t-126 -76q-19 0 -38 6q0 -120 66 -120q23 0 44.5 9t36 20t31.5 31t24.5 31.5t20.5 33t15 24.5q8 14 16 14q7 0 7 -10q0 -7 -3 -14q-80 -200 -230 -200q-61 0 -91 48t-30 125q0 75 25.5 154t70.5 133.5t95 54.5 q37 0 57 -17zM93 201q3 -1 8 -1q28 0 62.5 42.5t58 98.5t23.5 95q0 33 -17 33q-41 0 -83.5 -87t-51.5 -181zM292 558q-38 0 -38 37q0 23 16.5 43t40.5 20q18 0 28 -11.5t10 -28.5q0 -23 -16 -41.5t-41 -18.5zM155 560q-16 0 -27 9t-11 26q0 21 16 39t41 18q35 0 35 -35 q0 -21 -15.5 -39t-38.5 -18z" />
<glyph unicode="&#xec;" horiz-adv-x="194" d="M155 449q-10 -49 -32 -129t-36 -138.5t-14 -88.5q0 -33 18 -33q7 0 15 5.5t15 13.5t16 20.5t15.5 23.5t14 25.5t12 23t9.5 19.5t6 12q9 17 17 17q7 0 7 -10q0 -8 -4 -17q-43 -108 -78 -151q-38 -48 -78 -48q-32 0 -52 25t-20 78q0 44 23.5 161.5t54.5 230.5q8 26 40 26 q21 0 36.5 -13.5t15.5 -37.5q0 -10 -1 -15zM167 527q-28 0 -86 55.5t-58 92.5q0 16 12.5 29t26.5 13t20.5 -11t16 -37.5t21.5 -47.5q14 -23 29 -42t20.5 -27.5t5.5 -17.5q0 -7 -8 -7z" />
<glyph unicode="&#xed;" horiz-adv-x="194" d="M155 449q-10 -49 -32 -129t-36 -138.5t-14 -88.5q0 -33 18 -33q7 0 15 5.5t15 13.5t16 20.5t15.5 23.5t14 25.5t12 23t9.5 19.5t6 12q9 17 17 17q7 0 7 -10q0 -8 -4 -17q-43 -108 -78 -151q-38 -48 -78 -48q-32 0 -52 25t-20 78q0 44 23.5 161.5t54.5 230.5q8 26 40 26 q21 0 36.5 -13.5t15.5 -37.5q0 -10 -1 -15zM239 669q0 -32 -60 -79q-28 -22 -57.5 -37.5t-43.5 -15.5q-9 0 -9 7t6.5 14t25 25.5t36.5 42.5q17 22 28.5 45.5t17.5 32t18 8.5q14 0 26 -13.5t12 -29.5z" />
<glyph unicode="&#xee;" horiz-adv-x="194" d="M155 449q-10 -49 -32 -129t-36 -138.5t-14 -88.5q0 -33 18 -33q7 0 15 5.5t15 13.5t16 20.5t15.5 23.5t14 25.5t12 23t9.5 19.5t6 12q9 17 17 17q7 0 7 -10q0 -8 -4 -17q-43 -108 -78 -151q-38 -48 -78 -48q-32 0 -52 25t-20 78q0 44 23.5 161.5t54.5 230.5q8 26 40 26 q21 0 36.5 -13.5t15.5 -37.5q0 -10 -1 -15zM12 565q0 3 2 5.5t9 11t17.5 21t31.5 41t47 66.5q15 22 49 22q19 0 23 -12q20 -58 39 -93t27.5 -45t8.5 -15q0 -10 -17 -19.5t-34 -9.5q-24 0 -46.5 40t-36.5 84q-67 -111 -98 -111q-9 0 -15.5 4t-6.5 10z" />
<glyph unicode="&#xef;" horiz-adv-x="194" d="M184 558q-38 0 -38 37q0 23 16.5 43t40.5 20q18 0 28 -11.5t10 -28.5q0 -23 -16 -41.5t-41 -18.5zM67 560q-16 0 -27 9t-11 26q0 21 16 39t41 18q35 0 35 -35q0 -21 -15.5 -39t-38.5 -18zM155 449q-10 -49 -32 -129t-36 -138.5t-14 -88.5q0 -33 18 -33q7 0 15 5.5 t15 13.5t16 20.5t15.5 23.5t14 25.5t12 23t9.5 19.5t6 12q9 17 17 17q7 0 7 -10q0 -8 -4 -17q-43 -108 -78 -151q-38 -48 -78 -48q-32 0 -52 25t-20 78q0 44 23.5 161.5t54.5 230.5q8 26 40 26q21 0 36.5 -13.5t15.5 -37.5q0 -10 -1 -15z" />
<glyph unicode="&#xf0;" horiz-adv-x="386" d="M366 654q-14 -14 -35 -28q16 -45 16 -99q0 -57 -19 -129q-69 -255 -69 -304q0 -40 23 -40q6 0 12 3t12.5 10t12 13.5t12.5 18t12 19.5t12 22.5t10.5 21.5l11 22l9.5 19q8 17 18 17q6 0 6 -10q0 -8 -4 -17q-2 -6 -11 -29.5t-15 -37t-17.5 -36.5t-22.5 -37.5t-26 -29.5 t-33 -22t-38 -7q-37 0 -52.5 39.5t-9.5 78.5q-26 -55 -54.5 -86.5t-53.5 -31.5q-39 0 -58 37t-19 99q0 78 26 164.5t74.5 150t102.5 63.5q34 0 51 -45q4 28 4 58q0 37 -7 62q-55 -18 -101 -18t-46 16q0 8 20.5 13t56 11t56.5 14q-9 16 -29 35.5t-34.5 33.5t-14.5 21 q0 15 20.5 30.5t40.5 15.5q17 0 49 -28t53 -69q4 2 17 10t21.5 12.5t13.5 4.5q10 0 10 -8q0 -11 -14 -23zM209 271q1 7 13.5 62.5t19.5 85.5q-2 31 -28 31q-46 0 -87 -124t-41 -215q0 -49 17 -49q28 0 56.5 59t49.5 150z" />
<glyph unicode="&#xf1;" horiz-adv-x="387" d="M58 24q-6 -33 -41 -33q-17 0 -30.5 12t-13.5 33q0 2 0.5 5t0.5 4q23 188 88 411q7 26 37 26q19 0 34 -12.5t15 -33.5q0 -16 -11.5 -53.5t-11.5 -39.5q73 167 144 167q40 0 57 -28t17 -63q0 -63 -48.5 -193t-48.5 -154q0 -21 16 -21q10 0 23.5 10.5t25.5 24.5t26 34t22 34 t17.5 31t10.5 18q10 17 19 17q5 0 5 -7t-4 -18q-6 -19 -20.5 -48t-37 -66.5t-53.5 -63.5t-61 -26q-33 0 -55.5 22.5t-22.5 65.5q0 48 48 177.5t48 160.5q0 24 -16 24q-30 0 -83 -103.5t-81 -232.5l-3 -7q-8 -45 -12 -74zM98 556q0 42 25.5 67.5t68.5 25.5q20 0 62.5 -15 t60.5 -15q30 0 48 30q7 12 14 12q12 0 12 -20q0 -49 -24.5 -73t-64.5 -24q-25 0 -71 19.5t-63 19.5q-30 0 -45 -37q-4 -10 -11 -10q-12 0 -12 20z" />
<glyph unicode="&#xf2;" horiz-adv-x="374" d="M210 472q-26 0 -48 -52.5t-22 -117.5q0 -107 65 -146q38 123 38 226q0 90 -33 90zM138 42q27 4 55 79q-71 24 -99 107q-11 -50 -11 -94q0 -93 46 -93q6 0 9 1zM394 195q-11 -31 -49 -57.5t-85 -26.5q-67 -118 -149 -118q-57 0 -85 46.5t-28 120.5q0 106 45 201 q19 43 50 38q15 50 46.5 80.5t76.5 30.5q57 0 85 -42.5t28 -111.5q0 -108 -53 -216q65 2 98 63q10 17 18 17q6 0 6 -7t-4 -18zM277 527q-28 0 -86 55.5t-58 92.5q0 16 12.5 29t26.5 13t20.5 -11t16 -37.5t21.5 -47.5q14 -23 29 -42t20.5 -27.5t5.5 -17.5q0 -7 -8 -7z" />
<glyph unicode="&#xf3;" horiz-adv-x="374" d="M210 472q-26 0 -48 -52.5t-22 -117.5q0 -107 65 -146q38 123 38 226q0 90 -33 90zM138 42q27 4 55 79q-71 24 -99 107q-11 -50 -11 -94q0 -93 46 -93q6 0 9 1zM394 195q-11 -31 -49 -57.5t-85 -26.5q-67 -118 -149 -118q-57 0 -85 46.5t-28 120.5q0 106 45 201 q19 43 50 38q15 50 46.5 80.5t76.5 30.5q57 0 85 -42.5t28 -111.5q0 -108 -53 -216q65 2 98 63q10 17 18 17q6 0 6 -7t-4 -18zM349 669q0 -32 -60 -79q-28 -22 -57.5 -37.5t-43.5 -15.5q-9 0 -9 7t6.5 14t25 25.5t36.5 42.5q17 22 28.5 45.5t17.5 32t18 8.5q14 0 26 -13.5 t12 -29.5z" />
<glyph unicode="&#xf4;" horiz-adv-x="374" d="M210 472q-26 0 -48 -52.5t-22 -117.5q0 -107 65 -146q38 123 38 226q0 90 -33 90zM138 42q27 4 55 79q-71 24 -99 107q-11 -50 -11 -94q0 -93 46 -93q6 0 9 1zM394 195q-11 -31 -49 -57.5t-85 -26.5q-67 -118 -149 -118q-57 0 -85 46.5t-28 120.5q0 106 45 201 q19 43 50 38q15 50 46.5 80.5t76.5 30.5q57 0 85 -42.5t28 -111.5q0 -108 -53 -216q65 2 98 63q10 17 18 17q6 0 6 -7t-4 -18zM115 555q0 3 2 5.5t9 11t17.5 21t31.5 41t47 66.5q15 22 49 22q19 0 23 -12q20 -58 39 -93t27.5 -45t8.5 -15q0 -10 -17 -19.5t-34 -9.5 q-24 0 -46.5 40t-36.5 84q-67 -111 -98 -111q-9 0 -15.5 4t-6.5 10z" />
<glyph unicode="&#xf5;" horiz-adv-x="374" d="M210 472q-26 0 -48 -52.5t-22 -117.5q0 -107 65 -146q38 123 38 226q0 90 -33 90zM138 42q27 4 55 79q-71 24 -99 107q-11 -50 -11 -94q0 -93 46 -93q6 0 9 1zM394 195q-11 -31 -49 -57.5t-85 -26.5q-67 -118 -149 -118q-57 0 -85 46.5t-28 120.5q0 106 45 201 q19 43 50 38q15 50 46.5 80.5t76.5 30.5q57 0 85 -42.5t28 -111.5q0 -108 -53 -216q65 2 98 63q10 17 18 17q6 0 6 -7t-4 -18zM102 556q0 42 25.5 67.5t68.5 25.5q20 0 62.5 -15t60.5 -15q30 0 48 30q7 12 14 12q12 0 12 -20q0 -49 -24.5 -73t-64.5 -24q-25 0 -71 19.5 t-63 19.5q-30 0 -45 -37q-4 -10 -11 -10q-12 0 -12 20z" />
<glyph unicode="&#xf6;" horiz-adv-x="374" d="M210 472q-26 0 -48 -52.5t-22 -117.5q0 -107 65 -146q38 123 38 226q0 90 -33 90zM138 42q27 4 55 79q-71 24 -99 107q-11 -50 -11 -94q0 -93 46 -93q6 0 9 1zM394 195q-11 -31 -49 -57.5t-85 -26.5q-67 -118 -149 -118q-57 0 -85 46.5t-28 120.5q0 106 45 201 q19 43 50 38q15 50 46.5 80.5t76.5 30.5q57 0 85 -42.5t28 -111.5q0 -108 -53 -216q65 2 98 63q10 17 18 17q6 0 6 -7t-4 -18zM296 558q-38 0 -38 37q0 23 16.5 43t40.5 20q18 0 28 -11.5t10 -28.5q0 -23 -16 -41.5t-41 -18.5zM159 560q-16 0 -27 9t-11 26q0 21 16 39t41 18 q35 0 35 -35q0 -21 -15.5 -39t-38.5 -18z" />
<glyph unicode="&#xf7;" horiz-adv-x="307" d="M164 380q-30 0 -30 28q0 17 12.5 31t31.5 14q29 0 29 -27q0 -17 -12.5 -31.5t-30.5 -14.5zM260 299q-86 -9 -139 -9q-105 0 -105 20q0 31 152 31h4.5h4h4.5h22h23.5h21t19.5 -1.5t14.5 -3t11 -5t3.5 -7.5q0 -9 -10 -16.5t-26 -8.5zM132 180q-30 0 -30 27q0 16 12.5 30 t31.5 14q27 0 27 -28q0 -16 -11.5 -29.5t-29.5 -13.5z" />
<glyph unicode="&#xf8;" horiz-adv-x="374" d="M394 193q-13 -33 -47 -57.5t-87 -24.5q-67 -118 -149 -118q-57 0 -85 46.5t-28 120.5q0 78 26 157.5t61 81.5q16 48 51.5 79.5t79.5 31.5q57 0 85 -42.5t28 -111.5q0 -108 -53 -216q69 2 98 63q7 14 15 14q7 0 7.5 -9.5t-2.5 -14.5zM210 472q-16 0 -37.5 -29.5 t-32.5 -67.5q7 -7 3 -13q-25 -39 -42.5 -105t-17.5 -123q0 -24 5 -46q52 116 149 353q-10 31 -27 31zM173 159q0 19 13 32t33 13q24 101 24 174q-63 -147 -147 -314q12 -23 33 -23q33 0 64 80q-20 13 -20 38z" />
<glyph unicode="&#xf9;" horiz-adv-x="376" d="M147 461q-11 -53 -31 -141t-29 -137.5t-9 -78.5q0 -42 22 -42q13 0 25.5 12t24.5 40.5t21 55.5t21.5 76.5t20 83t20.5 95.5q2 8 3 12.5t2.5 11.5t2.5 13q5 24 20.5 36t34.5 12q17 0 30 -11t13 -30q0 -16 -42 -183.5t-42 -205.5q0 -27 13 -27q33 0 108 150q8 17 17 17 q7 0 7 -10q0 -8 -4 -17q-80 -199 -163 -199q-27 0 -47 19t-21 65q-44 -84 -101 -84q-75 0 -75 107q0 43 10.5 104t27.5 139t24 119q4 22 19.5 33.5t34.5 11.5q18 0 30.5 -10t12.5 -27q0 -7 -1 -10zM258 547q-28 0 -86 55.5t-58 92.5q0 16 12.5 29t26.5 13t20.5 -11t16 -37.5 t21.5 -47.5q14 -23 29 -42t20.5 -27.5t5.5 -17.5q0 -7 -8 -7z" />
<glyph unicode="&#xfa;" horiz-adv-x="376" d="M147 461q-11 -53 -31 -141t-29 -137.5t-9 -78.5q0 -42 22 -42q13 0 25.5 12t24.5 40.5t21 55.5t21.5 76.5t20 83t20.5 95.5q2 8 3 12.5t2.5 11.5t2.5 13q5 24 20.5 36t34.5 12q17 0 30 -11t13 -30q0 -16 -42 -183.5t-42 -205.5q0 -27 13 -27q33 0 108 150q8 17 17 17 q7 0 7 -10q0 -8 -4 -17q-80 -199 -163 -199q-27 0 -47 19t-21 65q-44 -84 -101 -84q-75 0 -75 107q0 43 10.5 104t27.5 139t24 119q4 22 19.5 33.5t34.5 11.5q18 0 30.5 -10t12.5 -27q0 -7 -1 -10zM320 669q0 -32 -60 -79q-28 -22 -57.5 -37.5t-43.5 -15.5q-9 0 -9 7t6.5 14 t25 25.5t36.5 42.5q17 22 28.5 45.5t17.5 32t18 8.5q14 0 26 -13.5t12 -29.5z" />
<glyph unicode="&#xfb;" horiz-adv-x="376" d="M147 461q-11 -53 -31 -141t-29 -137.5t-9 -78.5q0 -42 22 -42q13 0 25.5 12t24.5 40.5t21 55.5t21.5 76.5t20 83t20.5 95.5q2 8 3 12.5t2.5 11.5t2.5 13q5 24 20.5 36t34.5 12q17 0 30 -11t13 -30q0 -16 -42 -183.5t-42 -205.5q0 -27 13 -27q33 0 108 150q8 17 17 17 q7 0 7 -10q0 -8 -4 -17q-80 -199 -163 -199q-27 0 -47 19t-21 65q-44 -84 -101 -84q-75 0 -75 107q0 43 10.5 104t27.5 139t24 119q4 22 19.5 33.5t34.5 11.5q18 0 30.5 -10t12.5 -27q0 -7 -1 -10zM100 575q0 3 2 5.5t9 11t17.5 21t31.5 41t47 66.5q15 22 49 22q19 0 23 -12 q20 -58 39 -93t27.5 -45t8.5 -15q0 -10 -17 -19.5t-34 -9.5q-24 0 -46.5 40t-36.5 84q-67 -111 -98 -111q-9 0 -15.5 4t-6.5 10z" />
<glyph unicode="&#xfc;" horiz-adv-x="376" d="M147 461q-11 -53 -31 -141t-29 -137.5t-9 -78.5q0 -42 22 -42q13 0 25.5 12t24.5 40.5t21 55.5t21.5 76.5t20 83t20.5 95.5q2 8 3 12.5t2.5 11.5t2.5 13q5 24 20.5 36t34.5 12q17 0 30 -11t13 -30q0 -16 -42 -183.5t-42 -205.5q0 -27 13 -27q33 0 108 150q8 17 17 17 q7 0 7 -10q0 -8 -4 -17q-80 -199 -163 -199q-27 0 -47 19t-21 65q-44 -84 -101 -84q-75 0 -75 107q0 43 10.5 104t27.5 139t24 119q4 22 19.5 33.5t34.5 11.5q18 0 30.5 -10t12.5 -27q0 -7 -1 -10zM277 558q-38 0 -38 37q0 23 16.5 43t40.5 20q18 0 28 -11.5t10 -28.5 q0 -23 -16 -41.5t-41 -18.5zM140 560q-16 0 -27 9t-11 26q0 21 16 39t41 18q35 0 35 -35q0 -21 -15.5 -39t-38.5 -18z" />
<glyph unicode="&#xfd;" horiz-adv-x="367" d="M50 -330q-38 0 -70 29t-32 69q0 27 9.5 50.5t21 39.5t36 35t41 29t50.5 30t49 29q6 47 15 98q-41 -85 -102 -85q-80 0 -80 105q0 60 34.5 209t37.5 169q4 28 36 28q21 0 38.5 -13t17.5 -31q0 -16 -4 -36t-12.5 -55t-11.5 -49q-41 -180 -41 -221q0 -38 21 -38q9 0 17 4 t15 13t13 19t12.5 28t11 32.5t11.5 40.5t11.5 44.5t12.5 51t14 54.5l28 128q6 25 37 25q20 0 36.5 -11.5t16.5 -27.5q0 -7 -2 -16t-8 -33.5t-14 -61t-23 -115t-33 -179.5q67 62 107 145q8 18 18 18q6 0 6 -10q0 -7 -4 -18q-47 -119 -138 -199q-62 -324 -199 -324zM17 -298 q3 -1 10 -1q27 0 48 17.5t32.5 39t21 57.5t12 55t6.5 49q-84 -54 -110 -78q-47 -45 -47 -95q0 -28 27 -44zM315 669q0 -32 -60 -79q-28 -22 -57.5 -37.5t-43.5 -15.5q-9 0 -9 7t6.5 14t25 25.5t36.5 42.5q17 22 28.5 45.5t17.5 32t18 8.5q14 0 26 -13.5t12 -29.5z" />
<glyph unicode="&#xfe;" horiz-adv-x="376" d="M132 -10q-57 0 -86 21q-8 -38 -16 -74.5t-12.5 -61.5t-9 -49t-7 -39t-6.5 -28.5t-7 -20.5t-7.5 -12.5t-10 -7.5t-13.5 -2q-17 0 -30 13t-13 36q0 37 80 412t129 547q10 36 46 36q17 0 30 -10.5t13 -27.5q0 -11 -9.5 -51.5t-30 -123t-33.5 -136.5q48 98 104 98 q43 0 64.5 -36t21.5 -95q0 -91 -42.5 -195.5t-103.5 -155.5q66 15 111 57t82 119q7 16 16 16q7 0 7 -11q0 -6 -3 -15q-41 -102 -101 -152.5t-163 -50.5zM105 267q-32 -136 -46 -201q19 0 36 -23q32 6 65 68t52.5 138.5t19.5 130.5q0 57 -26 57q-48 0 -101 -170z" />
<glyph unicode="&#xff;" horiz-adv-x="367" d="M50 -330q-38 0 -70 29t-32 69q0 27 9.5 50.5t21 39.5t36 35t41 29t50.5 30t49 29q6 47 15 98q-41 -85 -102 -85q-80 0 -80 105q0 60 34.5 209t37.5 169q4 28 36 28q21 0 38.5 -13t17.5 -31q0 -16 -4 -36t-12.5 -55t-11.5 -49q-41 -180 -41 -221q0 -38 21 -38q9 0 17 4 t15 13t13 19t12.5 28t11 32.5t11.5 40.5t11.5 44.5t12.5 51t14 54.5l28 128q6 25 37 25q20 0 36.5 -11.5t16.5 -27.5q0 -7 -2 -16t-8 -33.5t-14 -61t-23 -115t-33 -179.5q67 62 107 145q8 18 18 18q6 0 6 -10q0 -7 -4 -18q-47 -119 -138 -199q-62 -324 -199 -324zM17 -298 q3 -1 10 -1q27 0 48 17.5t32.5 39t21 57.5t12 55t6.5 49q-84 -54 -110 -78q-47 -45 -47 -95q0 -28 27 -44zM283 558q-38 0 -38 37q0 23 16.5 43t40.5 20q18 0 28 -11.5t10 -28.5q0 -23 -16 -41.5t-41 -18.5zM146 560q-16 0 -27 9t-11 26q0 21 16 39t41 18q35 0 35 -35 q0 -21 -15.5 -39t-38.5 -18z" />
<glyph unicode="&#x131;" horiz-adv-x="194" d="M155 449q-10 -49 -32 -129t-36 -138.5t-14 -88.5q0 -33 18 -33q7 0 15 5.5t15 13.5t16 20.5t15.5 23.5t14 25.5t12 23t9.5 19.5t6 12q9 17 17 17q7 0 7 -10q0 -8 -4 -17q-43 -108 -78 -151q-38 -48 -78 -48q-32 0 -52 25t-20 78q0 44 23.5 161.5t54.5 230.5q8 26 40 26 q21 0 36.5 -13.5t15.5 -37.5q0 -10 -1 -15z" />
<glyph unicode="&#x141;" horiz-adv-x="378" d="M228 248q-98 -58 -241 -82q-5 -1 -12 -1q-20 0 -20 11q0 8 10 16t26 12q161 34 240 78q9 5 15 5q8 0 8 -7q0 -17 -26 -32zM288 691q63 -29 63 -141q0 -21 -2.5 -64.5t-2.5 -63.5q0 -10 1.5 -27.5t1.5 -25.5q0 -21 -14 -32.5t-34 -11.5q-53 0 -53 65q0 35 19.5 115.5 t19.5 114.5q0 33 -12 53q-7 0 -15 -2q-20 -6 -41.5 -82t-40 -169.5t-51.5 -190.5t-72 -136q8 -1 34 -7t49 -9t48 -3q41 0 87 29.5t71 56.5t35 43q8 13 16 13q7 0 7 -9q0 -5 -3 -14q-5 -16 -27.5 -46.5t-56 -66t-80.5 -61.5t-92 -26q-41 0 -80 10.5t-54 10.5q-35 0 -54 -8.5 t-22 -8.5q-10 0 -10 11q0 22 21.5 45t47.5 34q28 30 48.5 106.5t35 160.5t33 164.5t53 133t85.5 52.5q13 0 27 -6z" />
<glyph unicode="&#x142;" horiz-adv-x="273" d="M228 283q-98 -58 -241 -82q-5 -1 -12 -1q-20 0 -20 11q0 8 10 16t26 12q161 34 240 78q9 5 15 5q8 0 8 -7q0 -17 -26 -32zM209 751q26 0 40 -20q22 -13 33 -34t11 -67q0 -74 -23 -163.5t-70.5 -158.5t-103.5 -63q-13 -83 -13 -127q0 -63 40 -63q37 0 79 44.5t71 103.5 q7 15 16 15q7 0 7 -11q0 -5 -3 -14q-28 -70 -86.5 -136t-116.5 -66q-91 0 -91 151q0 80 23 198q76 411 187 411zM234 711q-26 -8 -67.5 -151t-66.5 -291q57 46 97 174t40 225q0 25 -3 43z" />
<glyph unicode="&#x152;" horiz-adv-x="645" d="M479 321q19 0 19 -16q0 -24 -55 -15q-38 -11 -61.5 -52t-23.5 -87q0 -41 19.5 -67t58.5 -26q119 0 209 145q10 17 19 17q5 0 5 -7t-4 -18q-6 -18 -13.5 -36t-28.5 -51.5t-45.5 -58t-65 -43.5t-87.5 -19q-51 0 -89 31t-41 80q-47 -102 -161 -102q-63 0 -100 69.5 t-37 163.5q0 66 15 113t61 72q-12 28 -12 68q0 83 54 152t134 69q18 0 43 -6q34 0 65.5 -40.5t31.5 -103.5q0 -28 -3 -42q20 83 69.5 141t91.5 58q19 0 39.5 -9.5t22.5 -19.5q52 -26 52 -96q0 -33 -13.5 -95.5t-14.5 -83.5q-1 -24 -16.5 -37t-36.5 -13q-19 0 -33 11.5 t-14 32.5q0 37 35.5 114.5t35.5 109.5q0 22 -12 42q-52 0 -112.5 -100.5t-60.5 -178.5q0 -66 60 -66zM324 548q0 107 -36 125q-56 1 -97.5 -68t-41.5 -148q0 -80 47 -113q10 -7 10 -15q0 -7 -11 -7q-36 0 -80 34l-4 -14q-29 -98 -29 -177q0 -124 57 -148q44 0 88.5 93 t70.5 216.5t26 221.5zM394 311q-25 8 -30 47q-11 -55 -21 -82q12 22 51 35z" />
<glyph unicode="&#x153;" horiz-adv-x="555" d="M42 361q13 29 36 37q14 49 49.5 80.5t87.5 31.5q69 0 92 -89q52 87 108 87q37 0 57 -17q31 -4 47 -27t16 -59q0 -73 -59 -149t-159 -99q2 -103 66 -103q22 0 44 9t36.5 19.5t31.5 31.5t24.5 31.5t21 33t14.5 24.5q10 14 16 14q7 0 7 -10q0 -7 -3 -14q-39 -98 -86.5 -149 t-126.5 -51q-46 0 -77 32t-36 81q-54 -113 -139 -113q-57 0 -85 46.5t-28 120.5q0 106 45 201zM209 472q-28 0 -54.5 -53.5t-26.5 -114.5q0 -103 83 -125q31 108 31 203q0 90 -33 90zM318 188q68 29 112.5 103.5t44.5 134.5q0 43 -21 43q-43 0 -86.5 -93.5t-49.5 -187.5z M203 153q-74 14 -109 80q-12 -58 -12 -99q0 -93 46 -93q39 0 75 112z" />
<glyph unicode="&#x160;" horiz-adv-x="397" d="M171 432q0 -32 16 -60.5t38.5 -51.5l45 -46t38.5 -53t16 -63q0 -35 -15 -64t-35 -41q-11 -25 -52.5 -44t-93.5 -19q-42 0 -82.5 19t-98.5 73q-11 11 -11 23q0 17 18.5 31t42.5 14q22 0 42.5 -15.5t36 -34t45.5 -34t69 -15.5q42 0 60 15.5t18 36.5q0 22 -20 46.5t-48.5 50 t-57.5 54.5t-49 69t-20 85q0 61 32.5 132t82 120.5t92.5 49.5q21 0 41 -10t22 -20q52 -25 52 -89q0 -25 -28 -185q-9 -50 -51 -50q-49 0 -49 48q0 32 35.5 110t35.5 110q0 22 -12 42q-51 2 -103.5 -82t-52.5 -152zM452 907q0 -3 -2 -5.5t-9 -11t-17.5 -21t-31.5 -41 t-47 -66.5q-15 -22 -49 -22q-19 0 -23 12q-20 58 -39 93t-27.5 45t-8.5 15q0 10 17 19.5t34 9.5q24 0 46.5 -40t36.5 -84q67 111 98 111q9 0 15.5 -4t6.5 -10z" />
<glyph unicode="&#x161;" horiz-adv-x="286" d="M69 -7q-77 0 -114 31.5t-37 73.5q0 27 15.5 48.5t40.5 15.5q54 82 133 251q-15 40 -15 80q0 50 20 85.5t49 35.5q37 0 37 -45q0 -61 -63 -162q7 -23 28.5 -75t35 -96t13.5 -80q0 -57 -24 -98q14 11 27 26.5t19.5 26.5t24.5 43.5t27 48.5t17 16q6 0 6 -11q0 -6 -3 -15 q-42 -104 -94 -152t-143 -48zM110 339q-33 -77 -111 -191q10 -11 10 -69v-12q0 -51 35 -51q30 0 51.5 37t21.5 123q0 21 -7 163zM315 827q0 -3 -2 -5.5t-9 -11t-17.5 -21t-31.5 -41t-47 -66.5q-15 -22 -49 -22q-19 0 -23 12q-20 58 -39 93t-27.5 45t-8.5 15q0 10 17 19.5 t34 9.5q24 0 46.5 -40t36.5 -84q67 111 98 111q9 0 15.5 -4t6.5 -10z" />
<glyph unicode="&#x178;" horiz-adv-x="561" d="M233 -240q-32 0 -59 21t-27 54q0 32 12.5 56.5t40 44t50 30.5t62.5 29q9 4 14 6l42 186q-52 -111 -112 -111q-33 0 -55 31t-22 87q0 72 44.5 235t44.5 208q0 34 -22 42q-33 -1 -73 -52.5t-68 -122t-28 -124.5q0 -68 46 -81q16 -4 16 -14t-19 -10q-58 0 -87.5 43t-29.5 96 q0 63 32 131.5t85 115t108 46.5q16 0 32 -7q80 -12 80 -112q0 -36 -35 -184.5t-35 -184.5q0 -65 29 -65q51 0 118 250q49 216 69 286q6 22 29 22q20 0 37.5 -16t17.5 -40q0 -8 -1 -12q-62 -283 -140 -589q88 57 132 148q7 16 17 16q7 0 7 -10q0 -4 -4 -16 q-52 -128 -165 -190l-6 -23q-29 -111 -78 -165.5t-99 -54.5zM182 -177q0 -32 26 -32q27 0 55.5 38.5t51.5 128.5q-133 -58 -133 -135zM479 758q-38 0 -38 37q0 23 16.5 43t40.5 20q18 0 28 -11.5t10 -28.5q0 -23 -16 -41.5t-41 -18.5zM342 760q-16 0 -27 9t-11 26 q0 21 16 39t41 18q35 0 35 -35q0 -21 -15.5 -39t-38.5 -18z" />
<glyph unicode="&#x17d;" horiz-adv-x="378" d="M110 232q15 -5 15 -14q0 -7 -15 -7q-62 0 -93.5 48t-31.5 115q0 74 31.5 151.5t88.5 131.5t122 54q78 0 116 -54.5t38 -153.5q0 -130 -62.5 -256.5t-160.5 -160.5q37 -17 53 -52q116 62 167 169q7 16 17 16q7 0 7 -10q0 -4 -4 -16q-55 -134 -177 -195q1 -7 1 -21 q0 -76 -53 -145.5t-120 -69.5q-31 0 -58 18t-27 56q0 32 13 57t44.5 46t51 30.5t65.5 29.5q-3 55 -32 77q-14 -4 -24 -4q-29 0 -29 17q0 15 27 15q12 0 34 -4q49 23 91 101.5t64.5 173.5t22.5 176q0 112 -44 136q-1 0 -2 1q-40 0 -82 -62t-68 -147t-26 -153q0 -82 40 -94z M-1 -177q0 -33 28 -33q36 0 68 53t41 116q-137 -57 -137 -136zM405 917q0 -3 -2 -5.5t-9 -11t-17.5 -21t-31.5 -41t-47 -66.5q-15 -22 -49 -22q-19 0 -23 12q-20 58 -39 93t-27.5 45t-8.5 15q0 10 17 19.5t34 9.5q24 0 46.5 -40t36.5 -84q67 111 98 111q9 0 15.5 -4t6.5 -10 z" />
<glyph unicode="&#x17e;" horiz-adv-x="365" d="M20 193q-10 -20 -19 -20q-6 0 -6 9q0 10 5 21q38 94 66 211q-16 16 -16 38q0 21 13.5 38.5t29.5 17.5q26 0 26 -43q41 1 119 24t82 23q16 0 25.5 -12t9.5 -29q0 -37 -37 -53l-23 -10q10 -27 10 -60q0 -71 -46 -146.5t-112 -123.5q35 -15 56 -51q117 81 162 176 q8 18 19 18q6 0 6 -8q0 -9 -5 -20q-50 -115 -168 -205q4 -24 4 -39q0 -51 -20 -113.5t-64 -114.5t-99 -52q-42 0 -51 18q-20 5 -36 28.5t-16 52.5q0 34 13.5 63t43.5 55t54.5 42.5t68.5 43.5l15 9q-7 46 -33 67q-37 -17 -63 -17q-37 0 -37 25q0 15 17 27t47 12q12 0 32 -2 q27 29 57 83.5t64.5 126.5t47.5 95q-46 -11 -88 -11q-41 0 -71 9q-30 -95 -83 -203zM125 -109q4 21 5 35q-37 -26 -55 -40t-45.5 -39t-40 -50t-12.5 -51q0 -30 24 -44q3 -1 9 -1q29 0 60.5 44t54.5 146zM382 717q0 -3 -2 -5.5t-9 -11t-17.5 -21t-31.5 -41t-47 -66.5 q-15 -22 -49 -22q-19 0 -23 12q-20 58 -39 93t-27.5 45t-8.5 15q0 10 17 19.5t34 9.5q24 0 46.5 -40t36.5 -84q67 111 98 111q9 0 15.5 -4t6.5 -10z" />
<glyph unicode="&#x192;" horiz-adv-x="313" d="M11 329l71 5q15 67 29 113.5t32.5 86.5t42 60t52.5 20q50 0 76 -49t26 -105q0 -22 -2 -36t-10.5 -25.5t-23.5 -11.5q-19 0 -36 12t-17 29q0 24 15 64t15 56q0 35 -18 35q-29 0 -47.5 -57.5t-43.5 -188.5h29.5h38t35 -1.5t29 -6t10.5 -11.5q0 -19 -35.5 -25t-115.5 -6 q-11 -57 -18 -91.5t-20 -89t-24.5 -88.5t-29.5 -74t-36.5 -63t-44 -38.5t-54.5 -15.5q-53 0 -93 26.5t-40 66.5q0 18 13.5 28.5t32.5 10.5q32 0 35 -26q4 -35 15 -54t39 -35q14 8 26 25t22.5 46t19 57t18 72t16 76t16.5 84.5t16 82.5q-79 0 -91 7q-6 3 -6 10q0 8 10 16t26 9 z" />
<glyph unicode="&#x2c6;" horiz-adv-x="315" d="M49 575q0 3 2 5.5t9 11t17.5 21t31.5 41t47 66.5q15 22 49 22q19 0 23 -12q20 -58 39 -93t27.5 -45t8.5 -15q0 -10 -17 -19.5t-34 -9.5q-24 0 -46.5 40t-36.5 84q-67 -111 -98 -111q-9 0 -15.5 4t-6.5 10z" />
<glyph unicode="&#x2c7;" horiz-adv-x="315" d="M305 717q0 -3 -2 -5.5t-9 -11t-17.5 -21t-31.5 -41t-47 -66.5q-15 -22 -49 -22q-19 0 -23 12q-20 58 -39 93t-27.5 45t-8.5 15q0 10 17 19.5t34 9.5q24 0 46.5 -40t36.5 -84q67 111 98 111q9 0 15.5 -4t6.5 -10z" />
<glyph unicode="&#x2d8;" horiz-adv-x="268" d="M142 665q1 -14 28 -25t56 -11q23 0 37 13t15 13q8 0 8 -9q0 -34 -21 -51.5t-53 -17.5q-42 0 -65.5 20.5t-23.5 55.5q0 24 10 24q9 0 9 -12z" />
<glyph unicode="&#x2d9;" horiz-adv-x="161" d="M154 536q-35 0 -35 32q0 20 14.5 36.5t37.5 16.5q33 0 33 -33q0 -19 -14 -35.5t-36 -16.5z" />
<glyph unicode="&#x2da;" horiz-adv-x="268" d="M249 695q34 0 53 -24.5t19 -52.5q0 -34 -23 -59.5t-61 -25.5q-40 0 -62 22t-22 55q0 36 27 60.5t69 24.5zM253 677q-21 0 -34 -27.5t-13 -59.5q0 -37 16 -37q19 0 34 28.5t15 58.5t-18 37z" />
<glyph unicode="&#x2db;" horiz-adv-x="260" d="M185 18q11 8 20 8t9 -9q0 -5 -3 -9q-43 -64 -43 -110q0 -34 23 -53t67 -19q4 0 12.5 0.5t13.5 0.5q13 0 13 -6q0 -16 -36 -27.5t-68 -11.5q-43 0 -68 26.5t-25 66.5q0 37 21.5 75t63.5 68z" />
<glyph unicode="&#x2dc;" horiz-adv-x="428" d="M138 556q0 42 25.5 67.5t68.5 25.5q20 0 62.5 -15t60.5 -15q30 0 48 30q7 12 14 12q12 0 12 -20q0 -49 -24.5 -73t-64.5 -24q-25 0 -71 19.5t-63 19.5q-30 0 -45 -37q-4 -10 -11 -10q-12 0 -12 20z" />
<glyph unicode="&#x2dd;" horiz-adv-x="347" d="M120 545q-15 -9 -22 -9q-8 0 -8 6q0 10 13 26q45 60 71 140q6 21 24 21q15 0 28 -13.5t13 -30.5q0 -7 -3 -14q-33 -72 -116 -126zM209 543q-13 -6 -21 -6q-9 0 -9 7q0 9 17 25q54 51 92 126q8 17 23 17q14 0 26 -13.5t12 -29.5q0 -11 -6 -20q-44 -66 -134 -106z" />
<glyph unicode="&#x2013;" horiz-adv-x="340" d="M269 247q-68 -7 -130 -7h-14.5h-17.5h-17.5t-17.5 1.5t-13.5 4t-10 6.5t-3.5 9q0 17 16.5 26t35 10.5t50.5 1.5q14 0 42.5 -0.5t42.5 -0.5q9 0 25.5 0.5t24.5 0.5q23 0 23 -18q0 -11 -10 -22t-26 -12z" />
<glyph unicode="&#x2014;" horiz-adv-x="438" d="M369 247q-35 -7 -152 -7q-66 0 -144 2q-22 0 -22 19q0 11 5.5 18.5t19 11.5t27 6.5t38 3t42.5 0.5t50 -0.5t53 -0.5q11 0 27.5 0.5t25.5 0.5t21.5 -0.5t19 -1.5t13 -3t9.5 -6t3 -9q0 -11 -10 -21t-26 -13z" />
<glyph unicode="&#x2018;" horiz-adv-x="178" d="M22 584q0 52 44.5 109t74.5 57q6 0 6 -5q0 -4 -12 -22t-27.5 -42.5t-21.5 -39.5q12 6 26 6q23 0 34.5 -13.5t11.5 -35.5q0 -30 -21 -55.5t-56 -25.5q-31 0 -45 19.5t-14 47.5z" />
<glyph unicode="&#x2019;" horiz-adv-x="178" d="M174 654q0 -52 -44.5 -109t-74.5 -57q-6 0 -6 5q0 4 12 22t27.5 42.5t21.5 39.5q-12 -6 -26 -6q-23 0 -34.5 13.5t-11.5 35.5q0 30 21 55.5t56 25.5q31 0 45 -19.5t14 -47.5z" />
<glyph unicode="&#x201a;" horiz-adv-x="178" d="M157 54q0 -52 -44.5 -109t-74.5 -57q-6 0 -6 5q0 4 12 22t27.5 42.5t21.5 39.5q-12 -6 -26 -6q-23 0 -34.5 13.5t-11.5 35.5q0 30 21 55.5t56 25.5q31 0 45 -19.5t14 -47.5z" />
<glyph unicode="&#x201c;" horiz-adv-x="312" d="M164 560q0 52 44.5 106t69.5 54q6 0 6 -6q0 -2 -12 -21.5t-27.5 -45.5t-21.5 -42q13 12 31 12q22 0 33 -14t11 -35q0 -31 -18 -56.5t-52 -25.5t-49 21.5t-15 52.5zM22 584q0 52 44.5 109t74.5 57q6 0 6 -5q0 -4 -12 -22t-27.5 -42.5t-21.5 -39.5q12 6 26 6 q23 0 34.5 -13.5t11.5 -35.5q0 -30 -21 -55.5t-56 -25.5q-31 0 -45 19.5t-14 47.5z" />
<glyph unicode="&#x201d;" horiz-adv-x="325" d="M165 640q0 -58 -40.5 -114t-68.5 -56q-6 0 -6 6q0 4 12 22t27 41.5t21 37.5q-12 -6 -26 -6q-24 0 -36 13.5t-12 34.5q0 30 21.5 56t54.5 26q53 0 53 -61zM314 654q0 -52 -44.5 -109t-74.5 -57q-6 0 -6 5q0 4 12 22t27.5 42.5t21.5 39.5q-12 -6 -26 -6q-23 0 -34.5 13.5 t-11.5 35.5q0 30 21 55.5t56 25.5q31 0 45 -19.5t14 -47.5z" />
<glyph unicode="&#x201e;" horiz-adv-x="327" d="M157 54q0 -52 -44.5 -109t-74.5 -57q-6 0 -6 5q0 4 12 22t27.5 42.5t21.5 39.5q-12 -6 -26 -6q-23 0 -34.5 13.5t-11.5 35.5q0 30 21 55.5t56 25.5q31 0 45 -19.5t14 -47.5zM307 54q0 -52 -44.5 -109t-74.5 -57q-6 0 -6 5q0 4 12 22t27.5 42.5t21.5 39.5q-12 -6 -26 -6 q-23 0 -34.5 13.5t-11.5 35.5q0 30 21 55.5t56 25.5q31 0 45 -19.5t14 -47.5z" />
<glyph unicode="&#x2020;" horiz-adv-x="255" d="M212 408q-30 -6 -57 -8q-31 -147 -88 -451q-3 -13 -14 -13q-10 0 -18.5 9.5t-8.5 23.5q0 46 82 431l-52 3q-28 1 -28 19q0 13 8 21t24 11t28.5 4t33.5 1q33 145 67 277q3 12 13 12q9 0 17.5 -8t8.5 -17q0 -11 -9 -49t-25 -101t-26 -114q10 -1 29 0t28 1q22 0 22 -16 q0 -11 -9.5 -21.5t-25.5 -14.5z" />
<glyph unicode="&#x2021;" horiz-adv-x="255" d="M227 349q-49 -6 -84 -7q-40 -198 -76 -393q-3 -13 -14 -13q-10 0 -18.5 9.5t-8.5 23.5q0 33 69 371q-110 0 -110 21q0 20 31 25.5t90 5.5q4 15 10 45h-16q-90 -1 -90 17q0 5 2 8.5t6.5 6.5t9 5t12.5 3.5t14.5 2.5t17.5 2t17.5 1.5t19 1.5t19.5 1q2 8 8 35.5t10 47t11 49 t12.5 49.5t11.5 40t11.5 30.5t9.5 10.5q9 0 17.5 -8t8.5 -17q0 -6 -7 -34t-21 -85.5t-26 -116.5q115 0 115 -19q0 -31 -126 -31l-10 -45l87 -3q23 -1 23 -15q0 -9 -10 -16.5t-26 -8.5z" />
<glyph unicode="&#x2022;" horiz-adv-x="309" d="M134 261q-34 0 -56 18.5t-22 53.5q0 44 33 81t83 37q37 0 55.5 -20.5t18.5 -52.5q0 -43 -32 -80t-80 -37z" />
<glyph unicode="&#x2026;" horiz-adv-x="483" d="M59 -9q-40 6 -40 49q0 30 22.5 55.5t57.5 25.5q26 0 38.5 -14t12.5 -36q0 -30 -22 -55.5t-55 -25.5q-10 0 -14 1zM220 -9q-45 6 -45 52q0 31 22 56.5t57 25.5q26 0 39.5 -15t13.5 -38q0 -31 -21 -56.5t-52 -25.5q-10 0 -14 1zM395 -10q-23 0 -41 15.5t-18 39.5 q0 33 26.5 55t58.5 22q22 0 36.5 -13t14.5 -38q0 -30 -22 -55.5t-55 -25.5z" />
<glyph unicode="&#x2030;" horiz-adv-x="849" d="M705 308q4 1 15 1q51 9 82.5 -28t31.5 -94q0 -74 -45.5 -136t-117.5 -62q-51 0 -78 35.5t-27 88.5q0 59 30 110q-16 -6 -35 -9q1 -52 -16 -102t-56 -87t-93 -37q-50 0 -78.5 37.5t-28.5 94.5t31.5 114.5t77.5 57.5q14 0 23 -5.5t9 -13.5q0 -7 -7 -13q-32 -29 -49 -71.5 t-17 -83.5q0 -38 14.5 -63t39.5 -25q40 0 60.5 69.5t19.5 134.5q-48 17 -48 49q0 14 10.5 23.5t29.5 9.5q57 0 74 -61q32 0 77.5 30t70.5 36zM85 -2q-17 -17 -29 -17q-6 0 -6 5q0 8 14 25q56 65 81.5 95.5t80 101t99 142t84.5 150.5q-37 -21 -88 -23q-2 -51 -22.5 -101.5 t-59 -86t-85.5 -35.5q-50 0 -78.5 37.5t-28.5 94.5t31.5 114.5t77.5 57.5q14 0 23 -5.5t9 -13.5q0 -4 -2.5 -7.5t-9.5 -10t-11 -11.5q-49 -56 -49 -135q0 -38 14.5 -63t40.5 -25q34 0 56.5 59t22.5 129v12q-56 19 -56 62q0 20 15 33.5t34 13.5q66 0 77 -86q6 -1 19 -1 q63 0 96 45q3 6 9.5 20.5t10 21.5t11 13.5t16.5 6.5q11 0 19.5 -7.5t8.5 -18.5q0 -7 -3 -13q-47 -109 -189.5 -301t-232.5 -278zM685 13q22 0 37.5 17.5t22 45t9.5 51.5t3 46q0 81 -25 114q-6 -13 -20.5 -23t-32.5 -10q-41 -54 -41 -149q0 -40 12 -66t35 -26z" />
<glyph unicode="&#x2039;" horiz-adv-x="330" d="M301 473q5 3 9 3q16 0 16 -25q0 -9 -8 -20t-26.5 -23.5t-33.5 -22.5t-44 -24t-42 -20.5t-44.5 -20.5t-35.5 -16q99 -49 173 -104q10 -7 10 -34q0 -19 -6 -34.5t-16 -15.5q-5 0 -24 13t-77.5 44t-143.5 65q-16 6 -16 27q1 19 12.5 38t27.5 27q13 7 58 29t75 37t70 37.5 t66 39.5z" />
<glyph unicode="&#x203a;" horiz-adv-x="379" d="M347 260q-78 -38 -146.5 -75.5t-97.5 -54t-34 -16.5q-8 0 -13.5 8t-5.5 19q0 44 219 138q12 5 17 7q-81 42 -172 104q-11 7 -11 34q0 19 6 34t16 15q6 0 44 -23.5t96.5 -54t105.5 -43.5q17 -4 17 -26q0 -18 -13 -38.5t-28 -27.5z" />
<glyph unicode="&#x2044;" horiz-adv-x="218" d="M-42 -30q-15 -22 -27 -22q-6 0 -6 6q0 9 10 25q116 193 168 306q77 166 119 335q7 27 29 27q11 0 19 -7.5t8 -19.5q0 -5 -1 -8q-27 -113 -135.5 -324.5t-183.5 -317.5z" />
<glyph unicode="&#x20ac;" horiz-adv-x="520" d="M68 329l46 3q31 116 98.5 199t149.5 83q29 0 44 -15q36 -17 55 -57t19 -87q0 -72 -35 -72q-21 0 -40.5 14.5t-19.5 32.5q0 23 13 59.5t13 51.5q0 20 -13 37q-54 0 -106.5 -71.5t-82.5 -169.5h35h12q26 0 40.5 -0.5t35 -2t30 -5.5t9.5 -11q0 -21 -39.5 -26t-135.5 -5 q-6 -30 -8 -45l134 -3q23 0 23 -15q0 -18 -30.5 -23.5t-99.5 -8.5q-19 -1 -29 -1q2 -134 102 -134q80 0 141 92q8 11 17 11q10 0 10 -11q0 -4 -5 -14q-79 -145 -195 -145q-80 0 -119.5 55.5t-41.5 145.5q-88 0 -88 20q0 30 90 30q5 43 6 46l-48 2q-23 1 -23 15q0 8 10 16 t26 9z" />
<glyph unicode="&#x2122;" horiz-adv-x="374" d="M208 673q0 -14 -6 -21.5t-13 -9t-20 -1.5q-20 0 -40 2q1 -5 0 -12q-5 -22 -20.5 -82t-24.5 -103q-3 -16 -21 -16q-10 0 -17 7t-7 18q0 49 32 168q5 14 21 22q-9 1 -20 1t-25 -0.5t-23 -0.5q-10 0 -10 10q0 45 96 45q15 0 42.5 -1t38.5 -1q17 0 17 -25zM227 674 q1 11 9 17.5t19 6.5q23 0 23 -20q0 -19 -3.5 -74t-1.5 -85q17 41 67 147l2 10q1 11 9.5 17t18.5 6q22 0 22 -20q0 -17 -2 -53t-2 -54q0 -40 3 -66.5t5.5 -37t2.5 -11.5q0 -12 -12.5 -18.5t-27.5 -6.5q-14 0 -15 8q-11 52 -11 120q0 31 1 46q-26 -71 -56 -145q0 -13 -8 -20.5 t-18 -7.5q-12 0 -19.5 17.5t-9 43t-2 53t0.5 46.5q-44 -161 -61 -161q-8 0 -15 7t-7 16q0 5 3 11q36 62 52.5 102.5t32.5 105.5z" />
<glyph unicode="&#x2212;" horiz-adv-x="325" d="M259 299q-86 -9 -139 -9q-105 0 -105 20q0 31 152 31h4.5h4h4.5h22h23.5h21t19.5 -1.5t14.5 -3t11 -5t3.5 -7.5q0 -9 -10 -16.5t-26 -8.5z" />
<glyph unicode="&#x25fc;" horiz-adv-x="510" d="M0 510h510v-510h-510v510z" />
<glyph unicode="&#xfb01;" horiz-adv-x="503" d="M338 634q0 -85 -26 -170t-64.5 -145t-82.5 -97.5t-80 -39.5q-2 -8 -11.5 -55.5t-14.5 -76.5q93 12 153.5 45t96.5 108q7 15 16 15q7 0 7 -11q0 -7 -3 -14q-35 -85 -101 -129t-165 -63q27 -13 46 -62t19 -104q0 -56 -24 -92.5t-74 -36.5q-82 0 -82 145q0 111 55 371 q14 66 22.5 104t22 95.5t24.5 91t26.5 77t31 67.5t34.5 48t41.5 34t47.5 10q18 0 30.5 -8.5t15.5 -20.5q39 -21 39 -86zM293 673q0 14 -1 20.5t-5.5 12t-13.5 5.5q-63 0 -182 -496q65 58 133.5 220t68.5 238zM24 -263q19 0 33.5 33t14.5 81q0 62 -27 123q-38 -178 -38 -203 q0 -34 17 -34zM429 561q-22 0 -33.5 13.5t-11.5 34.5q0 35 25.5 67t64.5 32q29 0 44 -14.5t15 -37.5q0 -34 -29.5 -64.5t-74.5 -30.5zM465 464q0 -24 -41.5 -177t-41.5 -194q0 -33 18 -33q7 0 15 5.5t15 13.5t16 20.5t15.5 23.5t14 25.5t12 23t9.5 19.5t6 12q9 17 17 17 q7 0 7 -10q0 -8 -4 -17q-43 -108 -78 -151q-38 -48 -78 -48q-32 0 -52 25t-20 78q0 44 23.5 161.5t54.5 230.5q8 26 40 26q21 0 36.5 -13.5t15.5 -37.5z" />
<glyph unicode="&#xfb02;" horiz-adv-x="582" d="M338 634q0 -85 -26 -170t-64.5 -145t-82.5 -97.5t-80 -39.5q-2 -8 -11.5 -55.5t-14.5 -76.5q93 12 153.5 45t96.5 108q7 15 16 15q7 0 7 -11q0 -7 -3 -14q-35 -85 -101 -129t-165 -63q27 -13 46 -62t19 -104q0 -56 -24 -92.5t-74 -36.5q-82 0 -82 145q0 111 55 371 q14 66 22.5 104t22 95.5t24.5 91t26.5 77t31 67.5t34.5 48t41.5 34t47.5 10q18 0 30.5 -8.5t15.5 -20.5q39 -21 39 -86zM293 673q0 14 -1 20.5t-5.5 12t-13.5 5.5q-63 0 -182 -496q65 58 133.5 220t68.5 238zM24 -263q19 0 33.5 33t14.5 81q0 62 -27 123q-38 -178 -38 -203 q0 -34 17 -34zM518 751q26 0 40 -20q22 -13 33 -34t11 -67q0 -74 -23 -163.5t-70.5 -158.5t-103.5 -63q-13 -83 -13 -127q0 -63 40 -63q37 0 79 44.5t71 103.5q7 15 16 15q7 0 7 -11q0 -5 -3 -14q-28 -70 -86.5 -136t-116.5 -66q-91 0 -91 151q0 80 23 198q76 411 187 411z M543 711q-26 -8 -67.5 -151t-66.5 -291q57 46 97 174t40 225q0 25 -3 43z" />
<glyph />
<glyph />
<glyph />
<glyph horiz-adv-x="447" />
<glyph />
<glyph />
<glyph />
<glyph />
<glyph />
<glyph />
<glyph />
<glyph />
<glyph />
<glyph />
<glyph horiz-adv-x="382" />
<glyph />
<glyph />
<glyph />
<glyph horiz-adv-x="518" d="M-4 90q0 19 18.5 32t49.5 13q21 0 45.5 -18.5t44 -39.5t47.5 -36t57 -10q6 5 17.5 25t31 75t36.5 129q-77 -5 -151 -5q-21 0 -21 25q0 28 22 28q13 0 68 -2.5t92 -2.5q41 176 41 277q0 82 -40 89q-4 -5 -19 -17.5t-23 -20.5q-58 -55 -88 -72q-42 -24 -88 -24 q-31 0 -49.5 11t-18.5 26q0 9 1 14t6 9.5t10 6.5t17 5.5t24 5.5t33.5 7t42.5 11q36 9 67 22t51.5 23.5t27.5 12.5q31 15 54 15q82 0 82 -159q0 -131 -32 -244q10 -1 25 -1.5t24.5 -0.5t21 -1t18.5 -2t13.5 -2.5t9.5 -3.5t3 -5q0 -10 -26 -12l-97 -6q-61 -220 -183 -258 q-22 -13 -57 -13q-56 0 -104 30q-21 13 -49.5 23t-41.5 18t-13 23z" />
<glyph horiz-adv-x="730" d="M337 647q1 31 15 46t36 15q16 0 27 -9.5t10 -27.5q-22 -259 -22 -512q97 237 167 484q3 38 14.5 56t38.5 18q16 0 27 -10t10 -27q-3 -31 -11 -120.5t-13 -148.5t-9.5 -134.5t-4.5 -122.5q0 -94 18 -94q4 0 8.5 2t9 7t8.5 10t9.5 14.5t9.5 17t10.5 20.5t10.5 21.5t11.5 25 t12.5 25.5q9 18 18 18q6 0 6 -10q0 -9 -4 -18q-3 -8 -13 -33.5t-16 -39.5t-16.5 -37t-20.5 -36.5t-23 -28t-28 -21t-32 -6.5q-67 0 -67 222q0 120 17 275q-75 -264 -144 -436q0 -21 -13.5 -34t-31.5 -13q-16 0 -28 10.5t-13 29.5q-6 65 -6 198q0 126 7 244 q-68 -260 -103 -345q-58 -139 -134 -152q-9 -1 -18 -1q-48 0 -72 29t-24 74q0 50 26 104t67 84q11 8 19 8q7 0 7 -7q0 -8 -10 -21q-20 -25 -36 -66t-16 -75q0 -26 13 -44.5t38 -18.5t50 28.5t46.5 72.5t46.5 115t45 138t47 158q15 53 23 79z" />
<glyph horiz-adv-x="271" d="M68 130l-16 -106q-6 -33 -37 -33q-16 0 -27 11.5t-11 32.5q0 47 24 180.5t55 240.5q7 25 38 25q19 0 34 -12t15 -32q0 -8 -3 -18.5t-7.5 -23t-6.5 -18.5q62 133 129 133q51 0 51 -65q0 -30 -20 -90.5t-23 -86.5q-3 -32 -35 -32q-19 0 -34 14t-15 37q0 34 20.5 82.5 t20.5 60.5t-10 12q-28 0 -76 -97t-66 -215z" />
<glyph horiz-adv-x="327" d="M-4 -248q-1 -17 -12 -26.5t-25 -9.5q-17 0 -30 13t-13 36q0 27 56 303t84 376q10 36 46 36q17 0 30 -10.5t13 -27.5q0 -7 -8 -40q49 107 108 107q43 0 64.5 -36t21.5 -95q0 -77 -31 -166t-84 -153.5t-109 -64.5q-36 0 -59 27q-48 -217 -52 -269zM92 211q-17 -68 -35 -153 q17 -15 34 -15q33 0 67.5 61.5t55 140.5t20.5 135q0 57 -26 57q-28 0 -59 -62.5t-57 -163.5z" />
<glyph horiz-adv-x="221" d="M-26 162q54 82 133 251q-15 40 -15 80q0 50 20 85.5t49 35.5q37 0 37 -45q0 -61 -63 -162q7 -23 28.5 -75t35 -96t13.5 -80q0 -68 -36 -115.5t-107 -47.5q-77 0 -114 31.5t-37 73.5q0 28 15.5 48t40.5 16zM110 339q-33 -77 -111 -191q10 -11 10 -69v-12q0 -51 35 -51 q30 0 51.5 37t21.5 123q0 21 -7 163z" />
<glyph horiz-adv-x="311" d="M98 680q10 39 52 39q17 0 29.5 -10t12.5 -27q0 -4 -48 -190q28 18 58 18q56 0 83.5 -45.5t27.5 -118.5q0 -77 -27 -158t-79 -138t-112 -57q-98 0 -98 158q0 73 22 176q63 294 79 353zM182 468q-45 0 -62 -73q-42 -181 -42 -263q0 -90 46 -90q38 0 67 104t29 207 q0 115 -38 115z" />
<glyph horiz-adv-x="328" d="M43 361q16 37 42 38q16 48 51.5 79.5t79.5 31.5q57 0 85 -42.5t28 -112.5q0 -77 -29 -160.5t-81 -142.5t-108 -59q-57 0 -85 46.5t-28 120.5q0 106 45 201zM210 472q-16 0 -37.5 -29.5t-32.5 -67.5q8 -8 3 -13q-25 -39 -42.5 -104.5t-17.5 -122.5q0 -94 47 -94 q38 0 75.5 117t37.5 224q0 90 -33 90z" />
<glyph horiz-adv-x="310" d="M147 464q0 -21 -40 -170.5t-40 -205.5q0 -49 26 -49q38 0 103 190q-10 30 -10 75q0 79 27.5 149.5t66.5 70.5t39 -65q0 -70 -40.5 -180.5t-101 -197.5t-108.5 -87q-74 0 -74 142q0 136 60 353q8 26 40 26q21 0 36.5 -13.5t15.5 -37.5z" />
<glyph horiz-adv-x="501" d="M337 464q0 -20 -40 -175.5t-40 -200.5q0 -49 26 -49q22 0 54 56t58 134q-20 34 -20 91q0 73 29 138.5t66 65.5q38 0 38 -70q0 -73 -37 -181t-97 -193.5t-115 -85.5q-68 0 -73 119q-50 -119 -117 -119q-74 0 -74 142q0 136 60 353q8 26 40 26q21 0 36.5 -13.5t15.5 -37.5 q0 -18 -40 -174t-40 -202q0 -50 26 -50q19 0 37 30.5t33.5 84.5t28 108t28 122.5t25.5 105.5q8 26 40 26q21 0 36.5 -13.5t15.5 -37.5z" />
<glyph horiz-adv-x="545" d="M52 24q-2 -16 -12.5 -24.5t-24.5 -8.5q-16 0 -27 11.5t-11 32.5q0 40 24 178t55 243q7 25 38 25q19 0 34 -12t15 -32q0 -8 -3 -18.5t-7.5 -23t-6.5 -18.5q62 133 129 133q51 0 51 -65q0 -31 -21.5 -100t-21.5 -84q0 -22 23 -22q29 0 62.5 40t52 75.5t33.5 70.5 q-12 35 -12 76q0 48 17.5 80.5t44.5 32.5q37 0 37 -43q0 -56 -64 -160q1 -4 39.5 -105.5t38.5 -149.5q0 -68 -36 -115.5t-107 -47.5q-77 0 -114 31.5t-37 73.5q0 27 13.5 46t34.5 19q28 0 35.5 -21t7.5 -76q0 -50 35 -50q45 0 59 57.5t14 227.5v72q-19 -41 -41.5 -76.5 t-61 -66t-78.5 -30.5q-78 0 -78 77q0 31 19.5 86t19.5 67t-10 12q-19 0 -49 -47t-62.5 -148t-46.5 -223z" />
<glyph horiz-adv-x="552" d="M147 464q0 -21 -40 -173.5t-40 -202.5q0 -49 26 -49q38 0 103 190q-19 32 -19 84q0 73 32.5 142t70.5 69q40 0 40 -57q0 -75 -61 -234q89 -39 183 180q-17 43 -17 87q0 48 18 81t45 33q37 0 37 -43q0 -56 -64 -160q1 -4 39.5 -105.5t38.5 -149.5q0 -68 -36 -115.5 t-107 -47.5q-77 0 -114 31.5t-37 73.5q0 27 13.5 46t34.5 19q43 0 43 -62q0 -2 -0.5 -12t0 -15.5t1 -15.5t3 -16.5t6 -13t10 -9.5t15.5 -3q30 0 51.5 37t21.5 123v179q-14 -31 -32 -60t-43.5 -58.5t-59 -42t-67.5 -2.5q-38 -88 -82.5 -143t-90.5 -55q-74 0 -74 142 q0 136 60 353q8 26 40 26q21 0 36.5 -13.5t15.5 -37.5z" />
<glyph horiz-adv-x="770" d="M337 464q0 -20 -40 -175.5t-40 -200.5q0 -49 26 -49q38 0 103 190q-19 32 -19 84q0 73 32.5 142t70.5 69q40 0 40 -57q0 -75 -61 -234q33 -13 67.5 2t62.5 50t47 66.5t34 65.5q-15 38 -15 84q0 48 17.5 80.5t44.5 32.5q37 0 37 -43q0 -56 -64 -160q1 -4 39.5 -105.5 t38.5 -149.5q0 -68 -36 -115.5t-107 -47.5q-77 0 -114 31.5t-37 73.5q0 27 13.5 46t34.5 19q43 0 43 -62q0 -2 -0.5 -12t0 -15.5t1 -15.5t3 -16.5t6 -13t10 -9.5t15.5 -3q30 0 51.5 37t21.5 123v187q-16 -33 -37.5 -65t-51.5 -62t-67.5 -42.5t-74.5 -1.5q-38 -88 -82.5 -143 t-90.5 -55q-68 0 -73 119q-50 -119 -117 -119q-74 0 -74 142q0 136 60 353q8 26 40 26q21 0 36.5 -13.5t15.5 -37.5t-40 -168.5t-40 -207.5q0 -50 26 -50q19 0 37 30.5t33.5 84.5t28 108t28 122.5t25.5 105.5q8 26 40 26q21 0 36.5 -13.5t15.5 -37.5z" />
<glyph horiz-adv-x="527" d="M-34 163l8 -1q60 89 128 238q-14 39 -14 75q0 51 20.5 87t49.5 36q37 0 37 -42q0 -56 -60 -153q7 -23 28.5 -73.5t35 -94t13.5 -79.5q0 -60 -26 -102q34 20 52 46q2 18 12 32t24 18q62 93 142 283q-15 37 -15 80q0 51 20 87t49 36q35 0 35 -42q0 -58 -62 -161 q2 -10 38.5 -121.5t36.5 -160.5q0 -68 -36 -115.5t-107 -47.5q-108 0 -133 71q-58 -66 -166 -66q-82 0 -120 31.5t-38 73.5q0 27 13.5 46t34.5 19zM418 366q-34 -86 -115 -220q24 -13 24 -49q0 -1 -0.5 -9t-0.5 -14.5t0.5 -16t2.5 -17t4.5 -14.5t7.5 -11t12 -4q28 0 49 38.5 t21 121.5q0 17 -5 195zM107 330q-31 -72 -107 -182q9 -12 9 -81q0 -51 35 -51q30 0 51.5 37t21.5 123q0 11 -10 154z" />
<glyph horiz-adv-x="701" d="M416 361q16 37 42 38q16 48 51.5 79.5t79.5 31.5q57 0 85 -42.5t28 -112.5q0 -77 -29 -160.5t-81 -142.5t-108 -59q-35 0 -58.5 17.5t-35 43.5t-15.5 61.5t-2.5 65t5.5 60.5q-36 -44 -82 -55q-31 -83 -81 -138t-104 -55q-57 0 -85 46.5t-28 120.5q0 51 11.5 106.5t34 95 t49.5 37.5q11 48 43.5 79.5t79.5 31.5q57 0 85 -42.5t28 -112.5q0 -64 -22 -136q25 11 47.5 37t34 48t27.5 57zM583 472q-16 0 -37.5 -29.5t-32.5 -67.5q4 -2 5 -6.5t-2 -6.5q-25 -39 -42.5 -104.5t-17.5 -122.5q0 -94 47 -94q38 0 75.5 117t37.5 224q0 90 -33 90zM210 472 q-27 0 -49.5 -42.5t-22.5 -93.5q0 -98 84 -120q21 92 21 166q0 90 -33 90zM215 187q-76 17 -110 86q-22 -78 -22 -140q0 -95 47 -95q45 0 85 149z" />
<glyph horiz-adv-x="602" d="M399 130l-16 -106q-2 -16 -13 -24.5t-24 -8.5q-16 0 -27 11.5t-11 32.5q0 57 29 208q-41 -43 -83 -43q-78 0 -78 77q0 31 22 86t22 67t-10 12q-18 0 -46 -41.5t-56 -116.5t-40 -154l-16 -106q-2 -16 -12.5 -24.5t-24.5 -8.5q-16 0 -27 11.5t-11 32.5q0 55 23.5 182.5 t55.5 238.5q7 25 38 25q19 0 34 -12t15 -32q0 -8 -3 -18.5t-7.5 -23t-6.5 -18.5q62 133 129 133q51 0 51 -65q0 -31 -24 -100t-24 -84q0 -22 23 -22q30 0 69 69q21 95 37 148q7 25 38 25q19 0 34 -12t15 -32q0 -8 -3 -18.5t-7.5 -23t-6.5 -18.5q62 133 129 133q51 0 51 -65 q0 -30 -20 -90.5t-23 -86.5q-3 -32 -35 -32q-19 0 -34 14t-15 37q0 34 20.5 82.5t20.5 60.5t-10 12q-18 0 -46 -41.5t-56 -116.5t-40 -154z" />
<glyph horiz-adv-x="704" d="M134 -15q-59 0 -88 25q-46 -207 -50 -258q-1 -17 -12 -26.5t-25 -9.5q-17 0 -30 13t-13 36q0 27 56 303t84 376q10 36 46 36q17 0 30 -10.5t13 -27.5q0 -7 -8 -40q49 107 108 107q43 0 64.5 -36.5t21.5 -94.5q0 -91 -42.5 -195.5t-103.5 -155.5q66 15 111 57t82 119 q0 1 1 2q38 187 60 261q8 31 39 31q18 0 33.5 -12t15.5 -27q0 -7 -9 -45q51 107 107 107q43 0 63.5 -36.5t20.5 -95.5q0 -81 -32 -175.5t-87 -163.5t-111 -69q-30 0 -54 22q-55 -252 -59 -297q-3 -25 -34 -25q-18 0 -31.5 10.5t-13.5 30.5q0 45 73 393q-38 -64 -91.5 -96.5 t-134.5 -32.5zM485 266q-5 -24 -15.5 -69t-19 -83.5t-16.5 -73.5q13 -11 28 -11q34 0 70.5 67.5t58.5 152.5t22 143q0 56 -24 56q-48 0 -104 -182zM92 211q-6 -23 -15.5 -67.5t-13.5 -59.5q14 7 29 -5t22 -29q44 28 82 139t38 190q0 58 -26 58q-28 0 -59 -62.5t-57 -163.5z " />
</font>
</defs>
</svg>
