<?xml version="1.0" standalone="no"?>
<!DOCTYPE svg PUBLIC "-//W3C//DTD SVG 1.1//EN" "http://www.w3.org/Graphics/SVG/1.1/DTD/svg11.dtd" >
<svg xmlns="http://www.w3.org/2000/svg">
<metadata></metadata>
<defs>
<font id="nilland-extraboldregular" horiz-adv-x="552" >
<font-face units-per-em="1000" ascent="800" descent="-200" />
<missing-glyph horiz-adv-x="250" />
<glyph horiz-adv-x="333" d="M333 685h-74q-11 -23 -21 -36t-21 -20q-23 -15 -50 -15q-28 0 -50 15q-11 8 -21.5 20.5t-21.5 35.5h-75q16 -45 32.5 -71t38.5 -43q43 -36 97 -36q52 0 96 36q22 17 38.5 43t31.5 71z" />
<glyph horiz-adv-x="333" d="M215 564v96h-96v-96h96z" />
<glyph horiz-adv-x="333" d="M274 612q0 44 -32 76t-76 32t-76 -32q-31 -31 -31 -76t31 -76q32 -32 76 -32t76 32t32 76zM212 612q0 -20 -13 -33t-33 -13q-19 0 -32 13t-13 33t13 33t32 13q20 0 33 -13t13 -33z" />
<glyph unicode="&#xa;" horiz-adv-x="333" d="M428 707h-98l-120 -187h75zM313 707h-97l-120 -187h75z" />
<glyph horiz-adv-x="333" d="M269 -165v74q-26 -10 -37 -13t-17 -5q-5 -1 -11.5 -1.5t-14.5 -0.5q-17 0 -33 11q-12 9 -12 29q0 16 9 31q3 4 6 8.5t9 10.5t15.5 15t24.5 22h-90q-12 -10 -20.5 -19.5t-16.5 -21.5q-17 -25 -17 -55q0 -51 39 -81q37 -29 87 -29q23 0 39.5 5.5t39.5 19.5z" />
<glyph horiz-adv-x="333" d="M348 702h-75l-107 -98l-106 98h-75l144 -177h74z" />
<glyph unicode="&#xd;" horiz-adv-x="250" d="M257 -16v77h-81v428h-167v-77h83v-351h-83v-77h248z" />
<glyph horiz-adv-x="344" d="M461 695h-74l-502 -711h74z" />
<glyph horiz-adv-x="542" d="M491 650q0 24 -17 39q-15 17 -39 17t-39 -17q-17 -17 -17 -40q0 -24 17 -39q15 -17 39 -17t39 17q17 17 17 40zM545 -16v77h-71v428h-239h-14h-54v79q0 26 9.5 43.5t38.5 17.5q19 0 31 -10q5 -5 10.5 -15.5t11.5 -33.5l76 12q-5 33 -15 53.5t-26 36.5q-34 34 -87 34 q-58 0 -96 -41q-37 -41 -37 -107v-69h-73v-77h73v-351h-76v-77h229v77h-69v351h54h14h155v-351h-74v-77h229z" />
<glyph horiz-adv-x="542" d="M545 -16v77h-72v634h-202q-21 11 -54 11q-59 0 -97 -41q-37 -41 -37 -107v-69h-76v-77h76v-351h-76v-77h229v77h-69v351h77v77h-77v79q0 26 9.5 43.5t38.5 17.5q23 0 34 -15t19 -44l77 12q-2 12 -4.5 20.5t-4.5 15.5h53v-557h-73v-77h229z" />
<glyph horiz-adv-x="510" d="M514 -16v302h-86v-225h-248v288l137 112v86l-137 -112v183h91v77h-270v-77h91v-255l-108 -88v-86l108 88v-216h-92v-77h514z" />
<glyph horiz-adv-x="240" d="M272 426v81l-110 -90v278h-170v-77h86v-269l-109 -89v-81l109 89v-207h-85v-77h254v77h-85v275z" />
<glyph d="M458 905h-75l-107 -98l-106 98h-75l144 -177h74zM537 -16v207h-78v-130h-334l402 569v65h-494v-77h61h318l-401 -568v-66h526z" />
<glyph horiz-adv-x="479" d="M421 702h-75l-107 -98l-106 98h-75l144 -177h74zM452 423v66h-399v-77h57h233l-314 -361v-67h422v205h-74v-128h-240z" />
<glyph unicode=" "  horiz-adv-x="250" />
<glyph unicode="&#x09;" horiz-adv-x="250" />
<glyph unicode="&#xa0;" horiz-adv-x="250" />
<glyph unicode="!" horiz-adv-x="250" d="M167 695h-84v-229l13 -302h58l13 299v232zM169 -16v86h-88v-86h88z" />
<glyph unicode="&#x22;" horiz-adv-x="281" d="M263 584v122h-88v-121l16 -141h56zM107 584v122h-88v-121l16 -141h56z" />
<glyph unicode="#" horiz-adv-x="668" d="M603 194v77h-128l33 162h95v77h-78l42 204h-80l-42 -204h-155l42 204h-80l-42 -204h-144v-77h127l-33 -162h-94v-77h78l-42 -203h80l42 203h155l-42 -203h80l42 203h144zM428 433l-33 -162h-155l33 162h155z" />
<glyph unicode="$" horiz-adv-x="510" d="M498 169q0 83 -49 140q-41 45 -147 71v217q29 -9 49 -30q17 -18 27 -45.5t11 -73.5h81q-3 69 -20 112.5t-49 69.5q-47 36 -99 46v30h-78v-30q-66 -9 -115 -46q-65 -51 -65 -125q0 -79 48 -130q41 -42 132 -64v-257q-25 5 -45 14t-40 29l-58 -58q32 -29 66.5 -43.5 t76.5 -19.5v-77h78v78q75 9 127 52q69 55 69 140zM224 397q-41 13 -64 31q-31 26 -31 77q0 43 35 69q24 19 60 27v-204zM418 175q0 -54 -42 -90q-15 -13 -33 -21.5t-41 -11.5v243q60 -16 82 -38q34 -31 34 -82z" />
<glyph unicode="%" horiz-adv-x="844" d="M826 177q0 92 -36 144q-39 54 -115 54q-75 0 -114 -54q-37 -53 -37 -144q0 -45 8.5 -81.5t27.5 -62.5q20 -28 49 -41t66 -13q45 0 74 16.5t46 44.5t24 63.5t7 73.5zM708 695h-57h-8h-414q-28 11 -61 11q-76 0 -114 -54q-37 -52 -37 -143q0 -45 8.5 -81.5t27.5 -62.5 q20 -28 49 -41t67 -13q37 0 66 13t48 41q19 26 27.5 62.5t8.5 81.5q0 34 -7 72.5t-29 69.5h321l-470 -667h73zM754 177q0 -35 -5.5 -61.5t-15.5 -44.5q-18 -32 -57 -32q-38 0 -57 32q-10 17 -15.5 43.5t-5.5 61.5t5.5 61t15.5 45q19 33 56 33q38 0 58 -33q10 -17 15.5 -43.5 t5.5 -61.5zM247 509q0 -35 -5.5 -61.5t-15.5 -44.5q-18 -32 -57 -32q-38 0 -57 33q-10 17 -15.5 43t-5.5 61t5.5 61t15.5 44q19 33 57 33t57 -33q10 -17 15.5 -43t5.5 -61z" />
<glyph unicode="&#x26;" horiz-adv-x="698" d="M674 280v77h-144q-8 -38 -16 -67t-19 -55q-12 -31 -25 -52l-144 198q57 23 99 55q62 48 62 118q0 66 -51 110q-51 42 -119 42q-70 0 -123 -44q-53 -45 -53 -113q0 -44 33 -92q8 -12 15.5 -22.5t14.5 -20.5q-71 -29 -114 -73q-28 -28 -41 -63.5t-13 -77.5q0 -86 63 -155 q62 -71 175 -71q56 0 116 26q40 19 75 54l51 -70l91 3l-88 129q23 30 39 64q21 43 36 100h80zM409 555q0 -38 -38 -66q-34 -25 -90 -44q-7 9 -14.5 20t-16.5 24q-14 22 -20.5 37.5t-6.5 26.5q0 36 27 56q28 21 65 21q40 0 68 -22q26 -20 26 -53zM418 119q-33 -32 -57 -45 q-37 -19 -80 -19q-67 0 -112 45t-45 110q0 46 36 84q15 16 37.5 30.5t52.5 26.5z" />
<glyph unicode="'" horiz-adv-x="219" d="M154 584v122h-88v-121l16 -141h56z" />
<glyph unicode="(" horiz-adv-x="354" d="M345 -226v77q-55 32 -90 70t-56 85q-42 93 -42 233t42 233q21 47 56 85t90 70v77q-81 -36 -131.5 -82t-81.5 -106q-60 -120 -60 -277t60 -277q31 -60 81.5 -106t131.5 -82z" />
<glyph unicode=")" horiz-adv-x="354" d="M282 239q0 157 -60 277q-31 60 -81.5 106t-131.5 82v-77q55 -32 90 -70t56 -85q42 -93 42 -233t-42 -233q-21 -47 -56 -85t-90 -70v-77q81 36 131.5 82t81.5 106q60 120 60 277z" />
<glyph unicode="*" horiz-adv-x="490" d="M471 497l-28 87q-45 -14 -68.5 -23t-28.5 -14q1 0 -71 -34q5 40 7.5 58t2.5 19q4 8 5 33t1 72h-92q0 -47 1 -72t5 -33q0 -1 2.5 -19t7.5 -58q-72 34 -71 34q-5 5 -28.5 14t-68.5 23l-28 -87q42 -14 65.5 -20.5t33.5 -6.5q5 0 24 -3t54 -11q-26 -29 -38 -42t-13 -14 q-6 -2 -22.5 -21t-45.5 -59l73 -55q28 37 43 59t15 31q0 1 37 66q37 -65 37 -67q0 -8 15 -30t43 -59l73 55q-29 40 -45.5 59t-22.5 21q-1 1 -13 14t-38 42q35 8 55 11t26 3q8 0 31 6.5t65 20.5z" />
<glyph unicode="+" horiz-adv-x="667" d="M611 284v76h-240v239h-76v-239h-240v-76h240v-242h76v242h240z" />
<glyph unicode="," horiz-adv-x="250" d="M169 -18v97h-88v-95h24q-1 -23 -2.5 -36t-3.5 -17q-2 -3 -7 -4t-20 -1v-69q32 2 49 11t28 26t15.5 39t4.5 49z" />
<glyph unicode="-" horiz-adv-x="344" d="M324 235v77h-306v-77h306z" />
<glyph unicode="." horiz-adv-x="250" d="M174 -16v96h-88v-96h88z" />
<glyph unicode="/" horiz-adv-x="281" d="M302 695h-80l-244 -729h80z" />
<glyph unicode="0" horiz-adv-x="531" d="M500 340q0 170 -56 266q-57 100 -178 100t-179 -100q-56 -96 -56 -266q0 -169 56 -265q57 -100 178 -100t179 100q56 96 56 265zM417 340q0 -137 -40 -217q-19 -38 -46.5 -56t-64.5 -18q-75 0 -112 74q-40 80 -40 217q0 71 10 125t30 93q19 38 46.5 56t64.5 18 q75 0 112 -74q20 -39 30 -93t10 -125z" />
<glyph unicode="1" horiz-adv-x="531" d="M408 -16v77h-96v636l-180 -24v-65h96v-547h-96v-77h276z" />
<glyph unicode="2" horiz-adv-x="531" d="M471 177h-76v-116h-270q12 58 51 114q46 63 153 129q73 44 106 93q32 47 32 117q0 85 -55 139q-54 53 -144 53q-49 0 -89 -17t-77 -58l54 -55q25 32 51.5 44t61.5 12q49 0 82 -33t33 -85q0 -54 -27 -87q-28 -34 -86 -69q-131 -80 -182 -177q-25 -47 -39 -89t-12 -79 l2 -29h429z" />
<glyph unicode="3" horiz-adv-x="531" d="M489 188q0 80 -45 128q-15 17 -34 29t-41 20q31 19 51 47q30 43 30 102q0 83 -55 137q-54 55 -138 55q-87 0 -139 -53q-27 -26 -41 -65t-16 -97h81q1 45 9 70t22 40q31 31 81 31q52 0 82 -32q31 -34 31 -84q0 -56 -37 -91q-18 -17 -41.5 -23.5t-55.5 -10.5l-32 -4v-69 l60 1q66 1 107 -35q39 -35 39 -95q0 -61 -41 -100q-40 -40 -106 -40q-33 0 -61 12t-57 41l-60 -51q42 -42 84.5 -59t91.5 -17q50 0 91.5 14.5t73.5 44.5q66 60 66 154z" />
<glyph unicode="4" horiz-adv-x="531" d="M502 183v72h-111v446h-69l-292 -453l-38 -63l77 -2h246v-138v-61h157v77h-81v122h111zM315 255h-196l196 311v-311z" />
<glyph unicode="5" horiz-adv-x="531" d="M496 220q0 99 -61 164q-62 66 -155 66q-36 0 -70 -11.5t-63 -32.5l20 207h227h62v82h-361l-33 -374q14 -5 20 -7.5t11 -5.5q4 -2 9 -6.5t19 -18.5q23 32 40 48.5t34 25.5q34 19 73 19q65 0 106 -43q40 -43 40 -114q0 -75 -43 -123q-42 -47 -110 -47q-31 0 -66 13.5 t-61 38.5l-44 -52q42 -41 82.5 -57.5t87.5 -16.5q103 0 171 68q65 68 65 177z" />
<glyph unicode="6" horiz-adv-x="531" d="M493 216q0 101 -56 166q-59 65 -148 65q-45 0 -84.5 -17.5t-72.5 -46.5q6 106 38 173q37 76 123 76q25 0 45.5 -10t43.5 -38l51 59q-35 34 -70 48.5t-75 14.5q-115 0 -179 -103q-31 -51 -45.5 -121t-14.5 -160q0 -89 14 -155t44 -108q61 -84 171 -84q96 0 156 68 q59 66 59 173zM411 212q0 -75 -37 -120q-18 -21 -41.5 -32t-55.5 -11q-62 0 -103 56q-43 57 -43 173v11q30 36 68 58q43 26 83 26q59 0 94 -42q35 -43 35 -119z" />
<glyph unicode="7" horiz-adv-x="531" d="M476 629v66h-428v-183h78v101h251q-80 -110 -123 -253q-12 -40 -21 -94t-15 -103t-9 -83l-3 -34v-62h164v77h-80q3 149 46 291q45 150 140 277z" />
<glyph unicode="8" horiz-adv-x="531" d="M504 187q0 66 -36 116q-27 37 -74 57q46 23 67.5 63t21.5 91q0 84 -63 138t-155 54q-95 0 -155 -53q-62 -56 -62 -140q0 -66 36 -111q20 -26 52 -42q-43 -20 -69 -53q-41 -50 -41 -119q0 -93 69 -154q70 -59 171 -59q103 0 170 58q68 60 68 154zM403 513q0 -57 -36 -87 q-37 -32 -102 -32q-64 0 -101 32q-36 30 -36 85q0 54 38 87q40 34 103 34q58 0 97 -34q37 -33 37 -85zM422 190q0 -65 -43 -102q-42 -39 -114 -39t-114 39q-42 37 -42 103q0 60 41 95q42 36 116 36q70 0 114 -36q42 -36 42 -96z" />
<glyph unicode="9" horiz-adv-x="531" d="M481 359q0 89 -14 155t-44 108q-60 84 -169 84q-95 0 -157 -68q-60 -69 -60 -174q0 -99 56 -164q58 -66 148 -66q59 0 114 32q23 14 43 31q-4 -54 -13 -97.5t-25 -75.5q-37 -75 -117 -75q-27 0 -48 9.5t-44 34.5l-52 -56q35 -34 71 -48t78 -14q114 0 175 106 q58 103 58 278zM399 391q-33 -38 -69 -58q-43 -25 -81 -25q-59 0 -93 42q-36 42 -36 113q0 80 36 125q36 44 98 44q63 0 104 -54q20 -28 30.5 -71t10.5 -104v-12z" />
<glyph unicode=":" horiz-adv-x="250" d="M174 364v96h-88v-96h88zM174 -16v96h-88v-96h88z" />
<glyph unicode=";" horiz-adv-x="250" d="M174 364v96h-88v-96h88zM169 -18v97h-88v-95h24q-1 -23 -2.5 -36t-3.5 -17q-2 -3 -7 -4t-20 -1v-69q32 2 49 11t28 26t15.5 39t4.5 49z" />
<glyph unicode="&#x3c;" horiz-adv-x="667" d="M611 53v85l-437 182l437 182v85l-556 -236v-62z" />
<glyph unicode="=" horiz-adv-x="667" d="M616 397v76h-556v-76h556zM616 257v76h-556v-76h556z" />
<glyph unicode="&#x3e;" horiz-adv-x="667" d="M619 289v62l-556 236v-85l436 -182l-436 -182v-85z" />
<glyph unicode="?" horiz-adv-x="448" d="M422 506q0 75 -54 137q-56 63 -150 63q-98 0 -152 -60q-26 -30 -39 -67t-13 -90h79q0 42 8.5 66t25.5 41q33 33 87 33q56 0 91 -36q35 -37 35 -86q0 -68 -43 -94q-32 -21 -80 -21q-15 0 -40 3l-23 -8l20 -219h54l12 145q84 2 133 58t49 135zM243 -16v96h-88v-96h88z" />
<glyph unicode="@" horiz-adv-x="666" d="M520 138l-26 46q-29 -15 -68.5 -24t-75.5 -9q-86 0 -160 68q-71 69 -71 174q0 102 69 173t163 71q87 0 146 -59t59 -135q0 -72 -41 -125q-21 -29 -39 -40t-32 -11l-1 1v2q0 4 1 7l60 282h-73l-5 -24q-5 6 -11.5 10.5t-13.5 8.5q-33 18 -62 18q-85 0 -135 -71 q-48 -69 -48 -148q0 -70 38 -109q40 -38 89 -38q42 0 76 23q8 5 14 10.5t12 10.5q3 -15 11 -26q5 -8 13 -14t19 -6q35 0 66.5 18.5t60.5 53.5q58 70 58 165q0 102 -75 177q-75 76 -189 76q-120 0 -205 -91q-83 -91 -83 -207q0 -121 81 -211q82 -91 213 -91q89 0 165 44z M403 442q0 -56 -34 -117q-17 -30 -35 -43t-38 -13q-24 0 -46 19q-10 9 -15.5 23.5t-5.5 37.5q0 64 31 114q31 48 78 48q29 0 46 -20q19 -20 19 -49z" />
<glyph unicode="A" horiz-adv-x="668" d="M706 -16v77h-89l-195 557h78v77h-220l-18 -56l-200 -578h-91v-77h174v61l67 197h252l63 -181h-78v-77h257zM438 319h-199l100 290z" />
<glyph unicode="B" horiz-adv-x="563" d="M540 194q0 69 -40 116q-26 33 -70 52q27 17 45 41q31 40 31 102q0 92 -59 141t-161 49h-285v-77h87v-573v-1v-61l198 1q117 0 185 53q69 55 69 157zM418 507q0 -52 -38 -82q-40 -32 -106 -32h-98v225h107q62 0 100 -30q35 -30 35 -81zM452 190q0 -61 -43 -95 q-45 -34 -128 -34h-105v255h107q44 0 75 -8.5t52 -23.5q42 -30 42 -94z" />
<glyph unicode="C" horiz-adv-x="750" d="M739 228l-74 44q-26 -69 -52.5 -109t-57.5 -62q-64 -46 -153 -46q-117 0 -192 80q-76 79 -76 205t74 206q74 79 190 79q82 0 151 -45q34 -22 54.5 -53.5t30.5 -80.5h76v189h-78v-24q-43 43 -94 65q-69 30 -138 30q-156 0 -256 -102q-98 -104 -98 -264q0 -164 98 -265 q99 -101 257 -101q111 0 198 57q44 29 78 76.5t62 120.5z" />
<glyph unicode="D" horiz-adv-x="708" d="M677 339q0 158 -93 257q-95 99 -285 99h-307v-77h94v-573v-61h212q103 0 177 26.5t118 81.5q84 106 84 247zM589 339q0 -71 -18 -122t-53 -86q-72 -70 -212 -70h-132v557h130q137 0 211 -72t74 -207z" />
<glyph unicode="E" horiz-adv-x="604" d="M575 -16v77h-62h-339v248h282v77h-282v232h323v-120h77v197h-575v-77h87v-573v-61h489z" />
<glyph unicode="F" horiz-adv-x="531" d="M548 497v198h-549v-77h88v-557h-88v-77h176v61v266l250 -1v78h-250v230h296v-121h77z" />
<glyph unicode="G" horiz-adv-x="792" d="M754 322h-370v-77h277q-17 -86 -83 -135q-75 -55 -174 -55q-125 0 -203 80q-79 81 -79 205q0 127 76 206t193 79q81 0 152 -45q35 -23 59 -55.5t39 -83.5h73v204h-77v-39q-38 38 -90 64q-75 36 -157 36q-153 0 -254 -104q-102 -105 -102 -262q0 -80 25.5 -146t78.5 -117 q103 -103 265 -103q153 0 251 90q50 46 74.5 108t25.5 150z" />
<glyph unicode="H" horiz-adv-x="688" d="M683 618v77h-258v-77h88v-225h-339v241v61h-171v-77h83v-557h-82v-77h170v61v272h339v-256h-87v-77h175v61v573h82z" />
<glyph unicode="I" horiz-adv-x="281" d="M190 714v96h-88v-96h88zM277 -16v77h-86v573v61h-88v-61v-573h-85v-77h259z" />
<glyph unicode="J" horiz-adv-x="271" d="M279 618v77h-287v-77h102v-672q0 -29 -5.5 -46.5t-14.5 -26.5t-28 -14.5t-59 -5.5l-4 -80q57 0 93.5 10.5t59.5 33.5q24 23 35 57t11 78v666h97z" />
<glyph unicode="K" horiz-adv-x="583" d="M616 -16v77h-82l-274 300l260 257h82v77h-116l-49 -50l-262 -257v230h93v77h-271v-77h90v-573v-61h182v77h-94v262l261 -289l44 -50h136z" />
<glyph unicode="L" horiz-adv-x="510" d="M514 -16v252h-86v-175h-248v557h1v77h-181v-77h92v-557h-92v-77h514z" />
<glyph unicode="M" horiz-adv-x="854" d="M852 -16v77h-85v557h85v77h-202l-222 -543l-224 543h-201v-77h88v-573v-61h160v77h-81v509l237 -586h33l239 585v-524v-61h173z" />
<glyph unicode="N" horiz-adv-x="708" d="M714 618v77h-167v-61v-505q-42 66 -83.5 129.5t-83.5 126.5q-50 74 -99 150t-102 160h-185v-77h91v-573v-61h175v77h-96v503l384 -589h78v643h88z" />
<glyph unicode="O" horiz-adv-x="781" d="M750 340q0 157 -102 262q-101 104 -256 104t-256 -104q-102 -105 -102 -262t102 -262q101 -104 256 -104t256 104q102 105 102 262zM662 340q0 -123 -76 -205q-77 -80 -194 -80q-118 0 -193 81q-77 80 -77 204t77 204q75 81 193 81q117 0 194 -80q76 -82 76 -205z" />
<glyph unicode="P" d="M549 479q0 103 -65 159q-32 29 -76.5 43t-100.5 14h-307v-77h90v-557h-90v-77h178v61v219h139q104 0 168 58q64 60 64 157zM461 473q0 -67 -40 -98q-21 -17 -51.5 -25.5t-72.5 -8.5h-119v277h119q89 0 126 -34q18 -16 28 -43t10 -68z" />
<glyph unicode="Q" horiz-adv-x="781" d="M750 340q0 157 -102 262q-101 104 -256 104t-256 -104q-102 -105 -102 -262t102 -262q49 -52 120 -79q-13 -5 -25.5 -12.5t-28.5 -20.5l39 -55q19 13 30 19t22 9q20 7 39 7q12 0 43.5 -11.5t69 -28.5t73.5 -35.5t56 -31.5l46 68q-10 6 -27.5 15t-38 19.5t-42.5 20.5 t-41 19q104 21 177 97q102 105 102 262zM662 340q0 -123 -76 -205q-77 -80 -194 -80q-118 0 -193 81q-77 80 -77 204t77 204q75 81 193 81q117 0 194 -80q76 -82 76 -205z" />
<glyph unicode="R" horiz-adv-x="573" d="M604 -16v77h-93l-123 272q71 19 108 61q41 48 41 122q0 78 -57 129q-56 50 -143 50h-350v-77h100v-635h88v340h124l153 -339h152zM449 511q0 -55 -35 -82q-37 -29 -107 -29h-132v218h150q59 0 91 -30q33 -27 33 -77z" />
<glyph unicode="S" horiz-adv-x="542" d="M514 178q0 88 -55 140q-27 25 -76 46t-118 38q-37 8 -65.5 19.5t-49.5 25.5q-37 26 -37 75q0 44 35 73q36 30 92 30q37 0 65.5 -5t51.5 -22q11 -9 18.5 -21t12 -25t6.5 -24.5t2 -18.5v-29h85l-0.5 12t-2.5 28.5t-5 34.5t-9 30q-7 16 -14.5 26t-18.5 23q-20 21 -39 32 t-43 22q-26 11 -53 14.5t-53 3.5q-89 0 -151 -52q-63 -54 -63 -130q0 -85 54 -133q26 -24 67 -42t95 -32q54 -13 89 -27t55 -29q37 -27 37 -77q0 -57 -41 -92q-42 -37 -104 -37q-72 0 -125 47q-51 47 -51 107v40h-78v-265h78v60q27 -27 60 -43q55 -27 115 -27q98 0 165 58 q69 58 69 146z" />
<glyph unicode="T" horiz-adv-x="573" d="M580 529v166h-572v-246h78v169h164v-557h-93v-77h181v634h164v-89h78z" />
<glyph unicode="U" horiz-adv-x="646" d="M665 618v77h-175v-61v-439q0 -71 -39 -105q-20 -17 -50 -26t-72 -9q-79 0 -119 37q-41 35 -41 105v421h86v77h-261v-77h87v-415q0 -111 66 -170q65 -59 183 -59t183 59q65 61 65 170v415h87z" />
<glyph unicode="V" horiz-adv-x="656" d="M695 618v77h-251v-77h76l-183 -498l-199 520l-18 55h-158v-77h93l243 -641h69l235 641h93z" />
<glyph unicode="W" horiz-adv-x="948" d="M982 618v77h-251v-77h82l-136 -489l-139 509l-16 57h-96l-13 -58l-130 -507l-146 508l-15 57h-158v-77h89l192 -641h70l157 610l168 -610h68l185 641h89z" />
<glyph unicode="X" horiz-adv-x="656" d="M665 -16v77h-102l-185 290l168 267h97v77h-260v-77h71l-124 -194l-138 219l-34 52h-153v-77h101l177 -276l-177 -281h-101v-77h271v77h-76l130 208l151 -240l28 -45h156z" />
<glyph unicode="Y" horiz-adv-x="604" d="M638 618v77h-255v-77h75l-148 -233l-167 265h-1l-28 45h-149v-77h95l201 -317v-240h-94v-77h182v61v256l201 317h88z" />
<glyph unicode="Z" d="M537 -16v207h-78v-130h-334l402 569v65h-494v-77h61h318l-401 -568v-66h526z" />
<glyph unicode="[" horiz-adv-x="344" d="M345 -217v77h-160v758h160v77h-244v-912h244z" />
<glyph unicode="\" horiz-adv-x="281" d="M303 -30l-245 725h-80l245 -725h80z" />
<glyph unicode="]" horiz-adv-x="344" d="M244 695h-245v-77h160l1 -758h-161v-77h244z" />
<glyph unicode="^" horiz-adv-x="656" d="M568 426l-240 289l-240 -289l54 -48l186 223l186 -223z" />
<glyph unicode="_" horiz-adv-x="500" d="M516 -236v82h-532v-82h532z" />
<glyph unicode="`" horiz-adv-x="333" d="M269 520l-120 187h-98l143 -187h75z" />
<glyph unicode="a" horiz-adv-x="510" d="M516 -16v77h-79v291q0 75 -52 114q-25 19 -60 27.5t-80 8.5q-20 0 -44.5 -6t-46 -12.5t-36 -12.5l-14.5 -6l24 -60l19.5 6.5t30 9.5t34 8.5t31.5 3.5q52 0 83 -20q27 -17 27 -61v-86q-14 7 -27.5 11.5t-27.5 8.5q-39 9 -70 9q-85 0 -139 -45q-54 -47 -54 -117 q0 -62 46 -110q46 -46 117 -46q45 0 93 21q17 8 32 16.5t30 19.5v-50h163zM353 117q-26 -27 -65 -47q-42 -21 -78 -21q-42 0 -66 24q-24 25 -24 56q0 40 30 67q30 28 87 28q32 0 65 -11q27 -11 51 -24v-72z" />
<glyph unicode="b" horiz-adv-x="615" d="M589 245q0 113 -71 184q-72 73 -182 73q-54 0 -106 -27q-35 -17 -62 -50v270h-170v-77h86v-573v-61h84v65q15 -16 30.5 -28t32.5 -20q48 -24 100 -24q115 0 187 75q71 74 71 193zM504 243q0 -85 -47 -138q-48 -53 -122 -53q-71 0 -119 51q-24 25 -36.5 59t-12.5 79 q0 81 50 134q49 52 120 52q73 0 120 -51q47 -53 47 -133z" />
<glyph unicode="c" horiz-adv-x="510" d="M501 137l-72 30q-14 -35 -29 -55.5t-33 -34.5q-37 -28 -91 -28q-75 0 -120 51q-46 51 -46 136t45 136q43 51 114 51q50 0 93 -32q19 -15 30 -41t13 -73h74v182h-75v-6q-18 16 -39 27q-41 22 -96 22q-104 0 -175 -77q-69 -78 -69 -189q0 -116 69 -191q70 -75 181 -75 q75 0 133 40q29 20 51.5 49.5t41.5 77.5z" />
<glyph unicode="d" horiz-adv-x="594" d="M607 -16v77h-86v634h-84v-61v-209q-29 33 -63 51q-54 26 -107 26q-107 0 -177 -76t-70 -190q0 -109 71 -185q72 -74 179 -74q57 0 106 25q33 16 61 46v-64h170zM438 239q0 -82 -47 -135q-48 -52 -121 -52q-71 0 -120 53q-49 54 -49 131q0 81 48 137q49 54 119 54t120 -54 q50 -55 50 -134z" />
<glyph unicode="e" d="M535 209q-4 76 -22 128.5t-53 90.5q-69 74 -179 74q-112 0 -185 -75q-72 -77 -72 -191q0 -116 74 -190q73 -76 186 -76q20 0 47 6.5t52 14t42 14l17 6.5l-21 69q-7 -3 -23 -9t-35 -12t-38.5 -10.5t-32.5 -4.5q-80 0 -132 54q-43 43 -52 111h427zM444 286h-332 q12 52 43 86q48 54 122 54q70 0 115 -43q38 -39 52 -97z" />
<glyph unicode="f" horiz-adv-x="250" d="M341 582q-5 33 -15 53.5t-26 36.5q-34 34 -87 34q-58 0 -96 -41q-37 -41 -37 -107v-69h-73v-77h73v-383h1v-45h176v77h-93v351h93v77h-93v79q0 26 9.5 43.5t38.5 17.5q19 0 31 -10q5 -5 10.5 -15.5t11.5 -33.5z" />
<glyph unicode="g" horiz-adv-x="594" d="M617 412v77h-171v-70q-34 40 -68 58q-49 25 -104 25q-105 0 -178 -79t-73 -191q0 -109 72 -182q70 -73 178 -73q58 0 112 27q34 18 61 48v-68q0 -70 -45 -107q-47 -38 -122 -38q-11 0 -27.5 2.5t-33 5.5t-30 6t-19.5 5l-19 -75l13.5 -3.5t33 -8t41 -8t36.5 -3.5 q112 0 183 62q73 63 73 167v423h87zM446 236q0 -77 -49 -131q-49 -52 -121 -52q-75 0 -121 51q-47 52 -47 132t49 135q48 54 119 54q69 0 120 -55q50 -56 50 -134z" />
<glyph unicode="h" horiz-adv-x="542" d="M552 -16v77h-76v301q0 63 -39 102q-39 38 -104 38q-50 0 -103 -22q-17 -8 -32.5 -17t-30.5 -20v252h-170v-77h86v-589h2v-45h160v77h-78v289q17 15 35.5 27.5t40.5 23.5q44 22 83 22q66 0 66 -67v-311v-61h160z" />
<glyph unicode="i" horiz-adv-x="250" d="M175 650q0 24 -17 39q-15 17 -39 17t-39 -17q-17 -17 -17 -40q0 -24 17 -39q15 -17 39 -17t39 17q17 17 17 40zM256 -16v77h-81v428h-167v-77h83v-383h1v-45h164z" />
<glyph unicode="j" horiz-adv-x="240" d="M177 650q0 24 -17 39q-15 17 -39 17t-39 -17q-17 -17 -17 -40q0 -24 17 -39q15 -17 39 -17t39 17q17 17 17 40zM177 -59v548h-171v-77h87v-458q0 -52 -22.5 -76.5t-82.5 -20.5v-77q52 -4 86 8t57 33q24 22 35 52t11 68z" />
<glyph unicode="k" horiz-adv-x="521" d="M550 -16v77h-82l-226 189l238 162h62v77h-85l-29.5 -20.5t-73.5 -50.5t-94 -64.5t-92 -62.5v404h-171v-77h87v-589h1v-45h170v77h-87v148l258 -225h124z" />
<glyph unicode="l" horiz-adv-x="240" d="M247 -16v77h-85v634h-170v-77h86v-573v-61h169z" />
<glyph unicode="m" horiz-adv-x="844" d="M846 -16v77h-74v301q0 63 -40 102q-39 38 -105 38q-49 0 -105 -29q-20 -11 -37.5 -21.5t-31.5 -22.5q-19 38 -52.5 55.5t-75.5 17.5q-49 0 -99 -22q-32 -15 -60 -36v45h-170v-77h86v-367v-61h162v77h-78v289q17 15 35.5 27.5t39.5 23.5q44 22 80 22q34 0 48 -16 q8 -8 12 -20.5t4 -30.5v-372h84v362q35 33 75 55q43 22 81 22q63 0 63 -67v-311v-61h158z" />
<glyph unicode="n" horiz-adv-x="531" d="M544 -16v77h-75v301q0 63 -39 102q-39 38 -103 38q-49 0 -102 -22q-17 -8 -32.5 -17t-30.5 -20v46h-170v-77h86v-367v-61h161v77h-77v289q17 15 35.5 27.5t39.5 23.5q45 22 83 22q65 0 65 -67v-311v-61h159z" />
<glyph unicode="o" d="M529 236q0 112 -72 189t-180 77t-180 -77t-72 -189q0 -113 72 -189q72 -77 180 -77t180 77q72 76 72 189zM444 236q0 -82 -47 -135q-48 -52 -120 -52t-120 52q-47 53 -47 135t47 135q48 52 120 52t120 -52q47 -53 47 -135z" />
<glyph unicode="p" horiz-adv-x="594" d="M567 239q0 113 -70 187q-70 76 -176 76q-55 0 -105 -25q-34 -16 -64 -51v63h-164v-77h80v-579v-61h170v77h-86v194q14 -16 28.5 -28t31.5 -20q49 -25 106 -25q110 0 180 76q69 76 69 193zM487 236q0 -83 -47 -135q-46 -52 -121 -52q-72 0 -120 52q-49 52 -49 137t48 136 q46 51 118 51q76 0 123 -52q48 -53 48 -137z" />
<glyph unicode="q" horiz-adv-x="594" d="M612 418v77h-172v-67q-27 31 -62 48q-54 26 -105 26q-106 0 -177 -77q-70 -76 -70 -187q0 -118 69 -193q70 -75 183 -75q54 0 106 26q31 15 56 46v-193h-84v-77h168v61v585h88zM443 238q0 -44 -12.5 -78t-36.5 -60q-48 -51 -121 -51q-74 0 -120 52t-46 136q0 83 48 136 q48 52 123 52q71 0 118 -51q23 -26 35 -59t12 -77z" />
<glyph unicode="r" horiz-adv-x="396" d="M404 414v73l-34 1q-17 0 -36.5 -1t-39 -4t-37.5 -8t-33 -12q-11 -6 -21 -10t-18 -14v50h-174v-77h90v-367v-61h181v77h-97v196q0 45 11.5 70t32.5 44t55.5 31t84.5 12h35z" />
<glyph unicode="s" horiz-adv-x="448" d="M425 127q0 63 -37 100q-20 20 -57 33t-90 23q-73 13 -95 28q-9 7 -14 17t-5 27q0 29 22 50q24 22 65 22q49 0 81 -29q16 -14 24 -34.5t10 -55.5h75v167h-76v-13q-24 21 -53 30.5t-62 9.5q-69 0 -116 -40q-49 -40 -49 -109q0 -70 45 -103q42 -31 130 -46q77 -13 102 -32 q11 -8 16.5 -19.5t5.5 -30.5q0 -33 -31 -57q-35 -24 -81 -24q-62 0 -98 33q-17 16 -26.5 40t-10.5 66h-78v-196h78v31q18 -17 42 -28q40 -18 88 -18q88 0 140 42q55 43 55 116z" />
<glyph unicode="t" horiz-adv-x="260" d="M254 -14v78l-73 -12q-9 0 -13.5 2t-6.5 4q-2 3 -4 9.5t-2 20.5v324h99v77h-99v107l-84 -1v-106h-84v-77h84v-334q0 -49 25 -77q14 -15 33.5 -21.5t43.5 -6.5z" />
<glyph unicode="u" horiz-adv-x="542" d="M550 -16v77h-82v428h-84v-61v-296q-30 -30 -73 -53q-45 -23 -85 -23q-62 0 -62 64v369h-167v-77h83v-301q0 -61 37 -98q20 -19 45 -27.5t55 -8.5q55 0 107 23q35 16 60 34v-50h166z" />
<glyph unicode="v" horiz-adv-x="521" d="M540 412v77h-132l-21 -55l-121 -329l-114 307h58v77h-228v-77h83l167 -435h70l160 435h78z" />
<glyph unicode="w" horiz-adv-x="750" d="M765 412v77h-132l-16 -57l-101 -298l-87 278h47v77h-211v-77h49l-91 -286l-94 307l-16 56h-126v-77h66l135 -435h75l107 374l111 -374h72l141 435h71z" />
<glyph unicode="x" horiz-adv-x="531" d="M529 -16v77h-67l-149 183l132 168h72v77h-206v-77h34l-82 -105l-84 105h39v77h-208v-77h69l135 -168l-145 -189l-55 -71h234v77h-76l91 121l125 -153h2l34 -45h105z" />
<glyph unicode="y" horiz-adv-x="531" d="M546 412v77h-229v-77h68l-111 -292l-128 314l-21 55h-139v-77h83l164 -399l-86 -241h80l242 640h77z" />
<glyph unicode="z" horiz-adv-x="479" d="M452 423v66h-399v-77h57h233l-314 -361v-67h422v205h-74v-128h-240z" />
<glyph unicode="{" horiz-adv-x="333" d="M301 -217v79q-35 0 -50 4.5t-23 12.5q-6 7 -11 26.5t-5 56.5v117q0 76 -29 118q-17 27 -42 42q25 15 42 42q29 42 29 118v117q0 37 5 56.5t11 26.5q8 8 23 12.5t50 4.5v79h-32q-38 0 -67 -11t-46 -35q-30 -44 -30 -104v-137q0 -61 -20 -95q-9 -15 -25 -23t-49 -8v-86 q33 0 49 -8t25 -23q20 -34 20 -95v-137q0 -61 30 -104q17 -24 46 -35t67 -11h32z" />
<glyph unicode="|" horiz-adv-x="496" d="M290 -240v935h-84v-935h84z" />
<glyph unicode="}" horiz-adv-x="333" d="M301 196v86q-33 0 -49 8t-25 23q-20 34 -20 95v137q0 60 -30 104q-17 24 -46 35t-67 11h-32v-79q35 0 50 -4.5t23 -12.5q6 -7 11 -26.5t5 -56.5v-117q0 -76 29 -118q16 -27 42 -42q-26 -15 -42 -42q-29 -42 -29 -118v-117q0 -37 -5 -56.5t-11 -26.5q-8 -8 -23 -12.5 t-50 -4.5v-79h32q38 0 67 11t46 35q30 43 30 104v137q0 61 20 95q9 15 25 23t49 8z" />
<glyph unicode="~" horiz-adv-x="656" d="M606 332l-2 91q-38 -26 -59 -39.5t-36 -22.5q-26 -16 -61 -16q-17 0 -44 8.5t-65 27.5q-39 19 -72.5 29t-60.5 10q-55 0 -95 -25q-19 -11 -33.5 -21.5t-27.5 -21.5v-94q37 29 57 42.5t36 22.5q29 16 64 16q17 0 44.5 -8.5t65.5 -27.5t71.5 -29t61.5 -10q54 0 94 25 q37 22 62 43z" />
<glyph unicode="&#xa1;" horiz-adv-x="250" d="M169 363v126h-88v-126h88zM167 -222v229l-13 302h-58l-13 -299v-232h84z" />
<glyph unicode="&#xa2;" horiz-adv-x="510" d="M501 137l-72 30q-14 -35 -29 -55.5t-33 -34.5q-37 -28 -91 -28h-13t-11 1l89 347q10 -6 20 -14q20 -14 31 -40t13 -73h74v212h-75v-36q-19 17 -42 29l54 210h-67l-50 -192q-7 1 -14.5 1.5t-15.5 0.5q-105 0 -175 -76q-69 -77 -69 -187q0 -115 69 -188q30 -32 76 -53 l-57 -219h67l52 201q18 -3 43 -3q75 0 133 40q29 20 51.5 49.5t41.5 77.5zM279 416l-88 -345q-11 6 -19.5 13t-15.5 15q-46 51 -46 133q0 83 45 134q44 50 114 50h10z" />
<glyph unicode="&#xa3;" horiz-adv-x="521" d="M519 141v25h-72q-1 -41 -5 -62.5t-12 -33.5q-13 -21 -43 -21q-26 0 -54 19q-30 21 -62 51q2 9 3 17l2 16q3 19 3 45q0 25 -4 50.5t-12 49.5h109v77h-136q-9 21 -16.5 42.5t-15.5 43.5q-15 46 -15 79q0 46 29 69q28 24 73 24q27 0 46 -7.5t31 -21.5q13 -15 19.5 -36.5 t7.5 -56.5h81q-1 53 -13 87.5t-37 59.5q-50 49 -136 49q-85 0 -135 -49q-49 -49 -49 -121q0 -41 14 -88q10 -31 29 -74h-111v-77h140q5 -12 9 -25.5t9 -27.5q10 -33 10 -66l-1 -11q-16 8 -31 12.5t-34 4.5q-50 0 -82 -31q-31 -31 -31 -73q0 -45 30 -75t76 -30q34 0 66 21 q25 18 45 51q35 -32 65 -49q40 -23 78 -23q60 0 96 48t36 118zM190 96q-11 -24 -24 -37q-16 -16 -34 -16q-16 0 -26 10q-10 9 -10 24q0 11 3.5 17t9.5 11q14 11 32 11q12 0 26 -6q11 -5 23 -14z" />
<glyph unicode="&#xa4;" horiz-adv-x="750" d="M759 228l-74 44q-20 -54 -44.5 -94.5t-56 -67.5t-71.5 -41t-91 -14q-48 0 -88 13.5t-72.5 37.5t-55.5 57.5t-36 73.5h386v76h-401q-1 7 -1 13v14q0 10 0.5 19t1.5 18h400v76h-383q27 77 89.5 124.5t155.5 47.5q40 0 78.5 -11t71 -33.5t55 -56t31.5 -78.5h76v189h-78v-24 q-46 46 -106 70.5t-126 24.5q-65 0 -120.5 -18.5t-99 -51.5t-74.5 -79.5t-46 -103.5h-80v-76h67q-1 -9 -1 -18v-19v-14q0 -6 1 -13h-67v-76h78q14 -59 44 -107.5t74 -83t100.5 -53.5t124.5 -19q127 0 208.5 65t129.5 189z" />
<glyph unicode="&#xa5;" d="M569 618v77h-257v-77h79l-42 -86h-75h-57l-39 86h80v77h-274v-77h94l40 -86h-134v-77h170l41 -88h-211v-77h247l1 -3v-226h-94v-77h279v77h-97v229h246v77h-209l43 88h166v77h-128l42 86h89zM312 455l-31 -62l-28 62h21h38z" />
<glyph unicode="&#xa6;" horiz-adv-x="496" d="M290 299v396h-84v-396h84zM290 -240v395h-84v-395h84z" />
<glyph unicode="&#xa7;" horiz-adv-x="438" d="M437 212q0 62 -37 105q-38 41 -113 74l-81 35q-57 25 -83 54q-23 26 -23 61q0 44 33 67q36 24 73 24q49 0 82 -27q16 -12 25.5 -34t12.5 -64h79q-4 59 -19.5 96t-46.5 60q-60 43 -128 43q-39 0 -73 -10.5t-62 -33.5q-56 -45 -56 -125q0 -38 17 -74q14 -30 40 -53 q-33 -26 -52 -59q-25 -44 -25 -85q0 -62 37 -105q38 -41 113 -74l81 -35q57 -25 83 -54q23 -26 23 -61q0 -45 -33 -67q-36 -24 -73 -24q-49 0 -82 27q-16 12 -25.5 34t-12.5 64h-78q3 -59 18.5 -96t46.5 -60q60 -43 128 -43q39 0 73 10.5t62 33.5q56 45 56 125q0 38 -17 74 q-14 30 -40 53q33 26 52 59q25 41 25 85zM357 206q0 -32 -18 -59q-17 -25 -40 -39l-135 61q-27 12 -43.5 24t-24.5 23q-16 22 -16 58q0 32 18 58q16 24 40 40l135 -62q27 -12 43.5 -23.5t24.5 -22.5q16 -22 16 -58z" />
<glyph unicode="&#xa8;" horiz-adv-x="333" d="M301 564v96h-96v-96h96zM128 564v96h-96v-96h96z" />
<glyph unicode="&#xa9;" horiz-adv-x="802" d="M789 356q0 161 -114 274q-113 114 -275 114t-274 -114q-114 -113 -114 -275t114 -274q112 -114 275 -114q161 0 274 114q114 112 114 275zM710 355q0 -127 -91 -218q-90 -91 -219 -91q-127 0 -218 91q-91 90 -91 219q0 127 91 218q90 91 219 91q127 0 218 -91 q91 -90 91 -219zM587 280l-74 27q-11 -34 -21.5 -52t-24.5 -30q-28 -23 -64 -23q-56 0 -86 44q-32 46 -32 115q0 60 33 102q31 39 90 39q35 0 58 -20q12 -11 21.5 -25.5t18.5 -39.5l80 24q-15 30 -31 54t-37 41.5t-47.5 27t-61.5 9.5q-97 0 -153 -62q-55 -61 -55 -156 q0 -101 58 -165t146 -64q62 0 110 36q24 19 41.5 46.5t30.5 71.5z" />
<glyph unicode="&#xaa;" horiz-adv-x="333" d="M346 382v59h-51v168q0 30 -12 49t-31 29.5t-42.5 14.5t-45.5 4q-26 0 -47.5 -4.5t-38.5 -15.5t-30.5 -26.5t-27.5 -45.5l58 -14q8 17 14.5 25.5t16.5 13.5q16 12 54 12q34 0 51 -11q15 -9 15 -31v-42q-15 6 -30 9q-13 2 -24 3.5t-22 1.5q-58 0 -93 -28q-38 -29 -38 -75 q0 -41 32 -71q32 -29 80 -29q24 0 49 8.5t46 20.5v-25h117zM229 472q-16 -16 -39 -26q-26 -12 -48 -12q-25 0 -40 13q-13 13 -13 28q0 22 17 36q18 15 53 15q20 0 41 -6q8 -3 15 -6l14 -6v-36z" />
<glyph unicode="&#xab;" horiz-adv-x="469" d="M480 -16l-162 255l162 255h-93l-163 -255l163 -255h93zM267 -16l-162 255l162 255h-93l-163 -255l163 -255h93z" />
<glyph unicode="&#xac;" horiz-adv-x="1011" d="M1016 -16v77h-82l-274 300l260 257h82v77h-116l-49 -50l-199 -195l-63 -53v76v145h93v77h-271v-77h90v-85l-63 63q-31 31 -70 30q-38 0 -71 -33q-23 -23 -37 -64q-4 -13 -6.5 -25t-4.5 -23q-26 8 -49.5 -0.5t-43.5 -28.5q-12 -12 -21 -26.5t-16 -31.5q-6 -18 -9 -36 l-18 18l-87 -87l44 -44l40 40l167 -167l32 -32l84 83l-44 44l-36 -37l-130 129q2 14 4 27.5t7 27.5q10 30 26 46q8 8 14.5 10.5t11.5 2.5q13 0 27 -14l178 -178l47 47l-171 171q0 31 9 57q9 29 26 46q14 14 26.5 13t26.5 -15l107 -107v-394v-61h182v77h-94v262l261 -289 l44 -50h136zM636 -148q0 40 -28 68t-69 28q-40 0 -68 -28t-28 -68q0 -39 28 -69q30 -28 69 -28q38 0 68 28q28 30 28 69z" />
<glyph unicode="&#xae;" horiz-adv-x="802" d="M789 356q0 161 -114 274q-113 114 -275 114t-274 -114q-114 -113 -114 -275t114 -274q112 -114 275 -114q161 0 274 114q114 112 114 275zM710 355q0 -127 -91 -218q-90 -91 -219 -91q-127 0 -218 91q-91 90 -91 219q0 127 91 218q90 91 219 91q127 0 218 -91 q91 -90 91 -219zM589 139q-26 60 -43 93.5t-29 53.5q-15 23 -38 39q30 10 52 32q34 35 34 86q0 48 -36 84q-19 19 -47.5 27.5t-64.5 8.5h-183v-424h84v170h16q53 0 80 -24q14 -11 33 -45.5t46 -100.5h96zM477 441q0 -28 -17 -43q-8 -7 -27 -11.5t-51 -4.5h-64v109h69 q25 0 42.5 -3.5t28.5 -8.5q9 -5 14 -13.5t5 -24.5z" />
<glyph unicode="&#xaf;" horiz-adv-x="333" d="M343 584v61h-353v-61h353z" />
<glyph unicode="&#xb0;" horiz-adv-x="396" d="M355 549q0 63 -46 111q-48 46 -111 46t-111 -46q-46 -48 -46 -111t46 -111q48 -46 111 -46t111 46q46 48 46 111zM283 549q0 -36 -25 -60q-24 -25 -60 -25t-60 25q-25 24 -25 60t25 60q24 25 60 25t60 -25q25 -24 25 -60z" />
<glyph unicode="&#xb1;" horiz-adv-x="667" d="M611 361v76h-240v241h-76v-241h-240v-76h240v-241h76v241h240zM611 -16v76h-556v-76h556z" />
<glyph unicode="&#xb2;" horiz-adv-x="323" d="M293 458h-59l-3 -87h-154q7 22 27 47q25 30 93 65q46 22 68 49q22 28 22 67q0 49 -37 79q-35 29 -93 29q-62 0 -100 -35q-38 -34 -38 -92v-24h61v22q0 34 19 55q9 9 23 14.5t36 5.5q29 0 48 -16q17 -15 17 -38t-14 -39q-15 -15 -52 -35q-41 -21 -70 -44.5t-46 -49.5 q-16 -26 -24.5 -48.5t-8.5 -44.5l3 -22h276z" />
<glyph unicode="&#xb3;" horiz-adv-x="323" d="M311 430q0 45 -30 72q-15 13 -33 21q39 28 39 76t-37 78q-36 30 -89 30q-26 0 -49 -7t-40 -22q-18 -15 -27.5 -37.5t-11.5 -60.5h63q1 28 5 40t12 18q16 15 46 15q29 0 47 -15q17 -14 17 -38q0 -26 -20 -40q-22 -17 -54 -17l-28 3v-59l44 3q20 2 35 -3.5t27 -13.5 q21 -17 21 -43q0 -27 -23 -46q-24 -19 -62 -19q-39 0 -63 21q-12 11 -19.5 26.5t-11.5 44.5h-60q2 -42 14 -68t34 -43q22 -18 48.5 -26.5t56.5 -8.5q64 0 105 32q44 35 44 87z" />
<glyph unicode="&#xb4;" horiz-adv-x="333" d="M282 707h-98l-120 -187h75z" />
<glyph unicode="&#xb5;" d="M553 -16v77h-82v428h-166v-77h82v-280q-30 -30 -73 -53t-82 -23q-31 0 -45 16q-7 8 -11 19.5t-4 28.5v369h-167v-77h83v-640h81v222q28 -17 63 -17q52 0 101 23q28 13 54 32v-48h166z" />
<glyph unicode="&#xb6;" horiz-adv-x="646" d="M634 596v99h-355q-111 0 -179 -61q-69 -62 -69 -163q0 -93 64 -157q59 -59 155 -64v-478h96v824h98v-824h96v824h94z" />
<glyph unicode="&#xb7;" horiz-adv-x="292" d="M174 271v96h-88v-96h88z" />
<glyph unicode="&#xb8;" horiz-adv-x="333" d="M255 -118q0 40 -25 65q-20 19 -45 24l7 38h-64l-20 -105q27 0 38 -2.5t17 -6.5q10 -7 10 -20q0 -18 -17 -28q-11 -6 -21.5 -8.5t-21.5 -3.5q-12 -1 -25 0t-32 2v-65h30q77 0 121 25q48 27 48 85z" />
<glyph unicode="&#xb9;" horiz-adv-x="323" d="M254 316v55h-59v330h-124v-55h59v-275h-60v-55h184z" />
<glyph unicode="&#xba;" horiz-adv-x="354" d="M347 540q0 70 -48 118t-121 48t-121 -48t-48 -118q0 -72 48 -118q48 -48 121 -48t121 48q48 46 48 118zM281 540q0 -47 -29 -76q-29 -30 -74 -30q-46 0 -74 30q-29 29 -29 76q0 46 29 75q28 30 74 30q45 0 74 -30q29 -29 29 -75z" />
<glyph unicode="&#xbb;" horiz-adv-x="469" d="M459 239l-163 255h-93l162 -255l-162 -255h93zM246 239l-163 255h-93l162 -255l-162 -255h93z" />
<glyph unicode="&#xbc;" horiz-adv-x="844" d="M726 87v53h-68v232h-52l-193 -252q14 -9 16.5 -11t3.5 -3t2 -4.5t6 -14.5h157v-48h-47v-55h144v55h-37v48h68zM670 695h-74l-502 -711h74zM255 316v55h-59v330h-124v-55h59v-275h-60v-55h184zM598 140h-101l101 135v-135z" />
<glyph unicode="&#xbd;" horiz-adv-x="844" d="M767 126h-59l-3 -87h-154q7 22 27 47q25 30 93 65q46 22 68 49q22 28 22 67q0 49 -37 79q-35 29 -93 29q-62 0 -100 -35q-38 -34 -38 -92v-24h61v22q0 34 19 55q9 9 23 14.5t36 5.5q29 0 48 -16q17 -15 17 -38t-14 -39q-15 -15 -52 -35q-41 -21 -70 -44.5t-46 -49.5 q-16 -26 -24.5 -48.5t-8.5 -44.5l3 -22h276zM669 695h-74l-502 -711h74zM254 316v55h-59v330h-124v-55h59v-275h-60v-55h184z" />
<glyph unicode="&#xbe;" horiz-adv-x="844" d="M799 87v53h-68v232h-52l-193 -252q14 -9 16.5 -11t3.5 -3t2 -4.5t6 -14.5h157v-48h-47v-55h144v55h-37v48h68zM744 695h-74l-502 -711h74zM348 430q0 45 -30 72q-15 13 -33 21q39 28 39 76t-37 78q-36 30 -89 30q-26 0 -49 -7t-40 -22q-18 -15 -27.5 -37.5t-11.5 -60.5 h63q1 28 5 40t12 18q16 15 46 15q29 0 47 -15q17 -14 17 -38q0 -26 -20 -40q-22 -17 -54 -17l-28 3v-59l44 3q20 2 35 -3.5t27 -13.5q21 -17 21 -43q0 -27 -23 -46q-24 -19 -62 -19q-39 0 -63 21q-12 11 -19.5 26.5t-11.5 44.5h-60q2 -42 14 -68t34 -43q22 -18 48.5 -26.5 t56.5 -8.5q64 0 105 32q44 35 44 87zM671 140h-101l101 135v-135z" />
<glyph unicode="&#xbf;" horiz-adv-x="448" d="M293 364v126h-88v-126h88zM434 -15h-79q0 -42 -8.5 -66t-25.5 -41q-33 -33 -87 -33q-57 0 -91 36q-35 37 -35 86q0 35 11 57.5t31 36.5q16 10 36 15.5t45 5.5q14 0 40 -3l23 8l-20 219h-54l-12 -145q-84 -2 -133 -58t-49 -135q0 -75 53 -137q55 -63 150 -63 q48 0 86.5 14.5t65.5 45.5q26 30 39.5 67t13.5 90z" />
<glyph unicode="&#xc0;" horiz-adv-x="656" d="M431 723l-120 187h-98l143 -187h75zM696 -16v77h-89l-195 557h78v77h-220l-18 -56l-200 -578h-91v-77h174v61l67 197h252l63 -181h-78v-77h257zM428 319h-199l100 290z" />
<glyph unicode="&#xc1;" horiz-adv-x="656" d="M444 910h-98l-120 -187h75zM696 -16v77h-89l-195 557h78v77h-220l-18 -56l-200 -578h-91v-77h174v61l67 197h252l63 -181h-78v-77h257zM428 319h-199l100 290z" />
<glyph unicode="&#xc2;" horiz-adv-x="656" d="M510 727l-145 177h-74l-144 -177h75l106 98l107 -98h75zM696 -16v77h-89l-195 557h78v77h-220l-18 -56l-200 -578h-91v-77h174v61l67 197h252l63 -181h-78v-77h257zM428 319h-199l100 290z" />
<glyph unicode="&#xc3;" horiz-adv-x="656" d="M513 875h-61q-8 -21 -13.5 -29.5t-10.5 -11.5q-10 -7 -23 -7q-10 0 -25.5 5t-37.5 18q-49 26 -87 26q-33 0 -61 -25q-14 -12 -25 -33.5t-24 -61.5h60q8 21 14 29.5t11 11.5q10 7 23 7q9 0 24.5 -5t38.5 -18q47 -26 87 -26q33 0 61 25q14 12 25 33.5t24 61.5zM696 -16v77 h-89l-195 557h78v77h-220l-18 -56l-200 -578h-91v-77h174v61l67 197h252l63 -181h-78v-77h257zM428 319h-199l100 290z" />
<glyph unicode="&#xc4;" horiz-adv-x="656" d="M463 767v96h-96v-96h96zM290 767v96h-96v-96h96zM696 -16v77h-89l-195 557h78v77h-220l-18 -56l-200 -578h-91v-77h174v61l67 197h252l63 -181h-78v-77h257zM428 319h-199l100 290z" />
<glyph unicode="&#xc5;" horiz-adv-x="656" d="M436 815q0 44 -32 76t-76 32t-76 -32q-31 -31 -31 -76t31 -76q32 -32 76 -32t76 32t32 76zM696 -16v77h-89l-195 557h78v77h-220l-18 -56l-200 -578h-91v-77h174v61l67 197h252l63 -181h-78v-77h257zM374 815q0 -20 -13 -33t-33 -13q-19 0 -32 13t-13 33t13 33t32 13 q20 0 33 -13t13 -33zM428 319h-199l100 290z" />
<glyph unicode="&#xc6;" horiz-adv-x="938" d="M909 -16v199h-78v-122h-325v248h284v77h-284v232h341h61v77h-701v-77h101q-30 -55 -67.5 -123t-75.5 -138.5t-75 -137.5t-65 -119t-45.5 -84l-17.5 -32h200v77h-68l138 249h186v-249h-113v-77h604zM418 387h-145l127 231h18v-231z" />
<glyph unicode="&#xc7;" horiz-adv-x="750" d="M739 228l-74 44q-26 -69 -52.5 -109t-57.5 -62q-64 -46 -153 -46q-117 0 -192 80q-76 79 -76 205t74 206q74 79 190 79q82 0 151 -45q34 -22 54.5 -53.5t30.5 -80.5h76v189h-78v-24q-43 43 -94 65q-69 30 -138 30q-156 0 -256 -102q-98 -104 -98 -264q0 -164 98 -265 q78 -79 193 -97l-14 -74q27 0 38 -2.5t17 -6.5q10 -7 10 -20q0 -18 -17 -28q-11 -6 -21.5 -8.5t-21.5 -3.5q-12 -1 -25 0t-32 2v-65h30q77 0 121 25q48 27 48 85q0 40 -25 65q-20 19 -45 24l1 3q109 -1 198 57q44 29 78 76.5t62 120.5z" />
<glyph unicode="&#xc8;" horiz-adv-x="604" d="M405 723l-120 187h-98l143 -187h75zM575 -16v77h-62h-339v248h282v77h-282v232h323v-120h77v197h-575v-77h87v-573v-61h489z" />
<glyph unicode="&#xc9;" horiz-adv-x="604" d="M418 910h-98l-120 -187h75zM575 -16v77h-62h-339v248h282v77h-282v232h323v-120h77v197h-575v-77h87v-573v-61h489z" />
<glyph unicode="&#xca;" horiz-adv-x="604" d="M484 727l-145 177h-74l-144 -177h75l106 98l107 -98h75zM575 -16v77h-62h-339v248h282v77h-282v232h323v-120h77v197h-575v-77h87v-573v-61h489z" />
<glyph unicode="&#xcb;" horiz-adv-x="604" d="M437 767v96h-96v-96h96zM264 767v96h-96v-96h96zM575 -16v77h-62h-339v248h282v77h-282v232h323v-120h77v197h-575v-77h87v-573v-61h489z" />
<glyph unicode="&#xcc;" horiz-adv-x="281" d="M243 723l-120 187h-98l76 -100l65 -87h17h60zM270 -16v77h-86v573v61h-88v-61v-573h-85v-77h259z" />
<glyph unicode="&#xcd;" horiz-adv-x="281" d="M256 910h-98l-120 -187h80q19 25 35.5 47.5t32.5 45t33 45.5t37 49zM270 -16v77h-86v573v61h-88v-61v-573h-85v-77h259z" />
<glyph unicode="&#xce;" horiz-adv-x="281" d="M322 727l-145 177h-74l-144 -177h75l61 56l45 42l11 -11l32 -28l64 -59h75zM270 -16v77h-86v573v61h-88v-61v-573h-85v-77h259z" />
<glyph unicode="&#xcf;" horiz-adv-x="281" d="M102 767v96h-96v-96h89h7zM275 767v96h-96v-96h4h92zM270 -16v77h-86v573v61h-88v-61v-573h-85v-77h259z" />
<glyph unicode="&#xd0;" horiz-adv-x="708" d="M677 339q0 158 -93 257q-95 99 -285 99h-307v-75l94 2v-243h-93v-77h93v-257v-61h212q103 0 177 26.5t118 81.5q84 106 84 247zM589 339q0 -71 -18 -122t-53 -86q-72 -70 -212 -70h-132v241h209v77h-209v239h130q137 0 211 -72t74 -207z" />
<glyph unicode="&#xd1;" horiz-adv-x="708" d="M539 875h-61q-8 -21 -13.5 -29.5t-10.5 -11.5q-10 -7 -23 -7q-10 0 -25.5 5t-37.5 18q-49 26 -87 26q-33 0 -61 -25q-14 -12 -25 -33.5t-24 -61.5h60q8 21 14 29.5t11 11.5q10 7 23 7q9 0 24.5 -5t38.5 -18q47 -26 87 -26q33 0 61 25q14 12 25 33.5t24 61.5zM714 618v77 h-167v-61v-505q-42 66 -83.5 129.5t-83.5 126.5q-50 74 -99 150t-102 160h-185v-77h91v-573v-61h175v77h-96v503l384 -589h78v643h88z" />
<glyph unicode="&#xd2;" horiz-adv-x="781" d="M493 723l-120 187h-98l143 -187h75zM750 340q0 157 -102 262q-101 104 -256 104t-256 -104q-102 -105 -102 -262t102 -262q101 -104 256 -104t256 104q102 105 102 262zM662 340q0 -123 -76 -205q-77 -80 -194 -80q-118 0 -193 81q-77 80 -77 204t77 204q75 81 193 81 q117 0 194 -80q76 -82 76 -205z" />
<glyph unicode="&#xd3;" horiz-adv-x="781" d="M506 910h-98l-120 -187h75zM750 340q0 157 -102 262q-101 104 -256 104t-256 -104q-102 -105 -102 -262t102 -262q101 -104 256 -104t256 104q102 105 102 262zM662 340q0 -123 -76 -205q-77 -80 -194 -80q-118 0 -193 81q-77 80 -77 204t77 204q75 81 193 81 q117 0 194 -80q76 -82 76 -205z" />
<glyph unicode="&#xd4;" horiz-adv-x="781" d="M572 727l-145 177h-74l-144 -177h75l106 98l107 -98h75zM750 340q0 157 -102 262q-101 104 -256 104t-256 -104q-102 -105 -102 -262t102 -262q101 -104 256 -104t256 104q102 105 102 262zM662 340q0 -123 -76 -205q-77 -80 -194 -80q-118 0 -193 81q-77 80 -77 204 t77 204q75 81 193 81q117 0 194 -80q76 -82 76 -205z" />
<glyph unicode="&#xd5;" horiz-adv-x="781" d="M575 875h-61q-8 -21 -13.5 -29.5t-10.5 -11.5q-10 -7 -23 -7q-10 0 -25.5 5t-37.5 18q-49 26 -87 26q-33 0 -61 -25q-14 -12 -25 -33.5t-24 -61.5h60q8 21 14 29.5t11 11.5q10 7 23 7q9 0 24.5 -5t38.5 -18q47 -26 87 -26q33 0 61 25q14 12 25 33.5t24 61.5zM750 340 q0 157 -102 262q-101 104 -256 104t-256 -104q-102 -105 -102 -262t102 -262q101 -104 256 -104t256 104q102 105 102 262zM662 340q0 -123 -76 -205q-77 -80 -194 -80q-118 0 -193 81q-77 80 -77 204t77 204q75 81 193 81q117 0 194 -80q76 -82 76 -205z" />
<glyph unicode="&#xd6;" horiz-adv-x="781" d="M525 767v96h-96v-96h96zM352 767v96h-96v-96h96zM750 340q0 157 -102 262q-101 104 -256 104t-256 -104q-102 -105 -102 -262t102 -262q101 -104 256 -104t256 104q102 105 102 262zM662 340q0 -123 -76 -205q-77 -80 -194 -80q-118 0 -193 81q-77 80 -77 204t77 204 q75 81 193 81q117 0 194 -80q76 -82 76 -205z" />
<glyph unicode="&#xd7;" horiz-adv-x="668" d="M596 114l-206 206l206 206l-56 56l-206 -206l-206 206l-56 -56l206 -206l-206 -206l56 -56l206 206l206 -206z" />
<glyph unicode="&#xd8;" horiz-adv-x="781" d="M750 340q0 69 -21 130t-72 121l65 72l-50 45l-63 -72q-88 70 -217 70q-155 0 -256 -104q-102 -105 -102 -262q0 -75 22.5 -138.5t69.5 -114.5l-63 -71l50 -45l63 71q86 -68 216 -68q155 0 256 104q102 105 102 262zM662 340q0 -123 -76 -205q-77 -80 -194 -80 q-97 0 -161 51l370 421q61 -78 61 -187zM553 573l-370 -421q-61 78 -61 188q0 124 77 204q75 81 193 81q99 0 161 -52z" />
<glyph unicode="&#xd9;" horiz-adv-x="646" d="M426 723l-120 187h-98l143 -187h75zM658 618v77h-175v-61v-439q0 -71 -39 -105q-20 -17 -50 -26t-72 -9q-79 0 -119 37q-41 35 -41 105v421h86v77h-261v-77h87v-415q0 -111 66 -170q65 -59 183 -59t183 59q65 61 65 170v415h87z" />
<glyph unicode="&#xda;" horiz-adv-x="646" d="M439 910h-98l-120 -187h75zM658 618v77h-175v-61v-439q0 -71 -39 -105q-20 -17 -50 -26t-72 -9q-79 0 -119 37q-41 35 -41 105v421h86v77h-261v-77h87v-415q0 -111 66 -170q65 -59 183 -59t183 59q65 61 65 170v415h87z" />
<glyph unicode="&#xdb;" horiz-adv-x="646" d="M505 727l-145 177h-74l-144 -177h75l106 98l107 -98h75zM658 618v77h-175v-61v-439q0 -71 -39 -105q-20 -17 -50 -26t-72 -9q-79 0 -119 37q-41 35 -41 105v421h86v77h-261v-77h87v-415q0 -111 66 -170q65 -59 183 -59t183 59q65 61 65 170v415h87z" />
<glyph unicode="&#xdc;" horiz-adv-x="646" d="M458 717v96h-96v-96h96zM285 717v96h-96v-96h96zM658 618v77h-175v-61v-439q0 -71 -39 -105q-20 -17 -50 -26t-72 -9q-79 0 -119 37q-41 35 -41 105v421h86v77h-261v-77h87v-415q0 -111 66 -170q65 -59 183 -59t183 59q65 61 65 170v415h87z" />
<glyph unicode="&#xdd;" horiz-adv-x="604" d="M418 910h-98l-120 -187h75zM638 618v77h-255v-77h75l-148 -233l-167 265h-1l-28 45h-149v-77h95l201 -317v-240h-94v-77h182v61v256l201 317h88z" />
<glyph unicode="&#xde;" d="M549 339q0 102 -68 160q-66 56 -181 56h-122v63h91v77h-269v-77h90v-557h-90v-77h178v61v79h139q104 0 168 58q64 60 64 157zM461 333q0 -67 -40 -98q-21 -17 -51.5 -25.5t-72.5 -8.5h-119v277h119q89 0 126 -34q18 -16 28 -43t10 -68z" />
<glyph unicode="&#xdf;" horiz-adv-x="615" d="M589 200q0 44 -11.5 80t-35.5 64q-32 36 -79 55q28 17 41 42q23 40 23 82q0 83 -61 134q-59 49 -158 49q-100 0 -160 -51q-32 -26 -47.5 -66.5t-15.5 -94.5v-433h-85v-77h169v61v461q0 35 9.5 58t26.5 37q19 15 44 23t58 8q56 0 98 -27q39 -26 39 -78q0 -49 -29 -73 q-29 -26 -79 -26h-26v-72q58 0 93 -10.5t58 -30.5q46 -38 46 -116q0 -62 -34 -105q-33 -43 -89 -43q-9 0 -17 0.5t-14 1.5q-6 2 -14 4.5t-29 10.5v-82l70 -9q99 0 155 66q54 66 54 157z" />
<glyph unicode="&#xe0;" horiz-adv-x="510" d="M358 520l-120 187h-98l143 -187h75zM516 -16v77h-79v291q0 75 -52 114q-25 19 -60 27.5t-80 8.5q-20 0 -44.5 -6t-46 -12.5t-36 -12.5l-14.5 -6l24 -60l19.5 6.5t30 9.5t34 8.5t31.5 3.5q52 0 83 -20q27 -17 27 -61v-86q-14 7 -27.5 11.5t-27.5 8.5q-39 9 -70 9 q-85 0 -139 -45q-54 -47 -54 -117q0 -62 46 -110q46 -46 117 -46q45 0 93 21q17 8 32 16.5t30 19.5v-50h163zM353 117q-26 -27 -65 -47q-42 -21 -78 -21q-42 0 -66 24q-24 25 -24 56q0 40 30 67q30 28 87 28q32 0 65 -11q27 -11 51 -24v-72z" />
<glyph unicode="&#xe1;" horiz-adv-x="510" d="M371 707h-98l-120 -187h75zM516 -16v77h-79v291q0 75 -52 114q-25 19 -60 27.5t-80 8.5q-20 0 -44.5 -6t-46 -12.5t-36 -12.5l-14.5 -6l24 -60l19.5 6.5t30 9.5t34 8.5t31.5 3.5q52 0 83 -20q27 -17 27 -61v-86q-14 7 -27.5 11.5t-27.5 8.5q-39 9 -70 9q-85 0 -139 -45 q-54 -47 -54 -117q0 -62 46 -110q46 -46 117 -46q45 0 93 21q17 8 32 16.5t30 19.5v-50h163zM353 117q-26 -27 -65 -47q-42 -21 -78 -21q-42 0 -66 24q-24 25 -24 56q0 40 30 67q30 28 87 28q32 0 65 -11q27 -11 51 -24v-72z" />
<glyph unicode="&#xe2;" horiz-adv-x="510" d="M437 524l-145 177h-74l-144 -177h75l106 98l107 -98h75zM516 -16v77h-79v291q0 75 -52 114q-25 19 -60 27.5t-80 8.5q-20 0 -44.5 -6t-46 -12.5t-36 -12.5l-14.5 -6l24 -60l19.5 6.5t30 9.5t34 8.5t31.5 3.5q52 0 83 -20q27 -17 27 -61v-86q-14 7 -27.5 11.5t-27.5 8.5 q-39 9 -70 9q-85 0 -139 -45q-54 -47 -54 -117q0 -62 46 -110q46 -46 117 -46q45 0 93 21q17 8 32 16.5t30 19.5v-50h163zM353 117q-26 -27 -65 -47q-42 -21 -78 -21q-42 0 -66 24q-24 25 -24 56q0 40 30 67q30 28 87 28q32 0 65 -11q27 -11 51 -24v-72z" />
<glyph unicode="&#xe3;" horiz-adv-x="510" d="M440 672h-61q-8 -21 -13.5 -29.5t-10.5 -11.5q-10 -7 -23 -7q-10 0 -25.5 5t-37.5 18q-49 26 -87 26q-33 0 -61 -25q-14 -12 -25 -33.5t-24 -61.5h60q8 21 14 29.5t11 11.5q10 7 23 7q9 0 24.5 -5t38.5 -18q47 -26 87 -26q33 0 61 25q14 12 25 33.5t24 61.5zM516 -16v77 h-79v291q0 75 -52 114q-25 19 -60 27.5t-80 8.5q-20 0 -44.5 -6t-46 -12.5t-36 -12.5l-14.5 -6l24 -60l19.5 6.5t30 9.5t34 8.5t31.5 3.5q52 0 83 -20q27 -17 27 -61v-86q-14 7 -27.5 11.5t-27.5 8.5q-39 9 -70 9q-85 0 -139 -45q-54 -47 -54 -117q0 -62 46 -110 q46 -46 117 -46q45 0 93 21q17 8 32 16.5t30 19.5v-50h163zM353 117q-26 -27 -65 -47q-42 -21 -78 -21q-42 0 -66 24q-24 25 -24 56q0 40 30 67q30 28 87 28q32 0 65 -11q27 -11 51 -24v-72z" />
<glyph unicode="&#xe4;" horiz-adv-x="510" d="M390 564v96h-96v-96h96zM217 564v96h-96v-96h96zM516 -16v77h-79v291q0 75 -52 114q-25 19 -60 27.5t-80 8.5q-20 0 -44.5 -6t-46 -12.5t-36 -12.5l-14.5 -6l24 -60l19.5 6.5t30 9.5t34 8.5t31.5 3.5q52 0 83 -20q27 -17 27 -61v-86q-14 7 -27.5 11.5t-27.5 8.5 q-39 9 -70 9q-85 0 -139 -45q-54 -47 -54 -117q0 -62 46 -110q46 -46 117 -46q45 0 93 21q17 8 32 16.5t30 19.5v-50h163zM353 117q-26 -27 -65 -47q-42 -21 -78 -21q-42 0 -66 24q-24 25 -24 56q0 40 30 67q30 28 87 28q32 0 65 -11q27 -11 51 -24v-72z" />
<glyph unicode="&#xe5;" horiz-adv-x="510" d="M363 612q0 44 -32 76t-76 32t-76 -32q-31 -31 -31 -76t31 -76q32 -32 76 -32t76 32t32 76zM516 -16v77h-79v291q0 75 -52 114q-25 19 -60 27.5t-80 8.5q-20 0 -44.5 -6t-46 -12.5t-36 -12.5l-14.5 -6l24 -60l19.5 6.5t30 9.5t34 8.5t31.5 3.5q52 0 83 -20q27 -17 27 -61 v-86q-14 7 -27.5 11.5t-27.5 8.5q-39 9 -70 9q-85 0 -139 -45q-54 -47 -54 -117q0 -62 46 -110q46 -46 117 -46q45 0 93 21q17 8 32 16.5t30 19.5v-50h163zM301 612q0 -20 -13 -33t-33 -13q-19 0 -32 13t-13 33t13 33t32 13q20 0 33 -13t13 -33zM353 117q-26 -27 -65 -47 q-42 -21 -78 -21q-42 0 -66 24q-24 25 -24 56q0 40 30 67q30 28 87 28q32 0 65 -11q27 -11 51 -24v-72z" />
<glyph unicode="&#xe6;" horiz-adv-x="865" d="M847 209q-4 71 -21.5 122t-49.5 91q-66 80 -171 80q-64 0 -116 -28q-41 -23 -71 -61q-11 26 -29.5 43.5t-42 27.5t-49.5 14t-52 4q-39 0 -72.5 -9t-68.5 -33l42 -57q24 17 46.5 23.5t50.5 6.5q53 0 82 -20q12 -8 19 -23t7 -38v-86q-14 7 -27 11.5t-27 8.5q-38 9 -69 9 q-84 0 -136 -45q-54 -47 -54 -117q0 -65 48 -110q49 -46 123 -46t126 34q20 13 38.5 27t33.5 31q38 -50 85 -72q54 -27 116 -27q19 0 45.5 6.5t50.5 15t41 15l17 6.5l-43 66q-5 -2 -18 -8t-29 -12t-33 -10.5t-30 -4.5q-79 0 -128 54q-43 46 -50 111h416zM754 286h-319 q12 54 41 87q47 53 118 53q69 0 112 -43q38 -41 48 -97zM351 117q-27 -28 -64 -47q-41 -21 -77 -21q-42 0 -64 24q-23 24 -23 56q0 40 29 67q15 14 36 21t50 7q30 0 63 -11q14 -5 26 -11t24 -13v-72z" />
<glyph unicode="&#xe7;" horiz-adv-x="510" d="M501 137l-72 30q-14 -35 -29 -55.5t-33 -34.5q-37 -28 -91 -28q-75 0 -120 51q-46 51 -46 136t45 136q43 51 114 51q50 0 93 -32q19 -15 30 -41t13 -73h74v192h-75v-16q-18 16 -39 27q-41 22 -96 22q-104 0 -175 -77q-69 -78 -69 -189q0 -116 69 -191q50 -53 119 -68 l-14 -73q27 0 38 -2.5t17 -6.5q10 -7 10 -20q0 -18 -17 -28q-11 -6 -21.5 -8.5t-21.5 -3.5q-12 -1 -25 0t-32 2v-65h30q77 0 121 25q48 27 48 85q0 40 -25 65q-15 17 -39 23q71 2 126 40q29 20 51.5 49.5t41.5 77.5z" />
<glyph unicode="&#xe8;" d="M379 520l-120 187h-98l143 -187h75zM535 209q-4 76 -22 128.5t-53 90.5q-69 74 -179 74q-112 0 -185 -75q-72 -77 -72 -191q0 -116 74 -190q73 -76 186 -76q20 0 47 6.5t52 14t42 14l17 6.5l-21 69q-7 -3 -23 -9t-35 -12t-38.5 -10.5t-32.5 -4.5q-80 0 -132 54 q-43 43 -52 111h427zM444 286h-332q12 52 43 86q48 54 122 54q70 0 115 -43q38 -39 52 -97z" />
<glyph unicode="&#xe9;" d="M392 707h-98l-120 -187h75zM535 209q-4 76 -22 128.5t-53 90.5q-69 74 -179 74q-112 0 -185 -75q-72 -77 -72 -191q0 -116 74 -190q73 -76 186 -76q20 0 47 6.5t52 14t42 14l17 6.5l-21 69q-7 -3 -23 -9t-35 -12t-38.5 -10.5t-32.5 -4.5q-80 0 -132 54q-43 43 -52 111 h427zM444 286h-332q12 52 43 86q48 54 122 54q70 0 115 -43q38 -39 52 -97z" />
<glyph unicode="&#xea;" d="M458 524l-145 177h-74l-144 -177h75l106 98l107 -98h75zM535 209q-4 76 -22 128.5t-53 90.5q-69 74 -179 74q-112 0 -185 -75q-72 -77 -72 -191q0 -116 74 -190q73 -76 186 -76q20 0 47 6.5t52 14t42 14l17 6.5l-21 69q-7 -3 -23 -9t-35 -12t-38.5 -10.5t-32.5 -4.5 q-80 0 -132 54q-43 43 -52 111h427zM444 286h-332q12 52 43 86q48 54 122 54q70 0 115 -43q38 -39 52 -97z" />
<glyph unicode="&#xeb;" d="M411 564v96h-96v-96h96zM238 564v96h-96v-96h96zM535 209q-4 76 -22 128.5t-53 90.5q-69 74 -179 74q-112 0 -185 -75q-72 -77 -72 -191q0 -116 74 -190q73 -76 186 -76q20 0 47 6.5t52 14t42 14l17 6.5l-21 69q-7 -3 -23 -9t-35 -12t-38.5 -10.5t-32.5 -4.5 q-80 0 -132 54q-43 43 -52 111h427zM444 286h-332q12 52 43 86q48 54 122 54q70 0 115 -43q38 -39 52 -97z" />
<glyph unicode="&#xec;" horiz-adv-x="250" d="M228 520l-120 187h-98l143 -187h75zM257 -16v77h-81v428h-167v-77h83v-351h-83v-77h248z" />
<glyph unicode="&#xed;" horiz-adv-x="250" d="M241 707h-98l-120 -187h75zM257 -16v77h-81v428h-167v-77h83v-351h-83v-77h248z" />
<glyph unicode="&#xee;" horiz-adv-x="250" d="M307 524l-145 177h-74l-144 -177h75l106 98l107 -98h75zM257 -16v77h-81v428h-167v-77h83v-351h-83v-77h248z" />
<glyph unicode="&#xef;" horiz-adv-x="250" d="M260 564v96h-96v-96h96zM87 564v96h-96v-96h96zM257 -16v77h-81v428h-167v-77h83v-351h-83v-77h248z" />
<glyph unicode="&#xf0;" horiz-adv-x="563" d="M534 285q0 138 -80 251q-11 16 -25.5 32.5t-33.5 34.5l130 61l-67 47l-124 -58q-39 27 -112 58l-91 -46q44 -19 70.5 -31.5t43.5 -22.5l-129 -61l67 -47l131 61q27 -23 40 -37q14 -15 25.5 -30t20.5 -29q-54 34 -118 34q-109 0 -181 -78q-71 -79 -71 -191q0 -113 72 -188 q73 -76 183 -76q115 0 183 89q66 88 66 227zM448 246q0 -86 -48 -143q-48 -55 -119 -55t-118 53q-48 52 -48 132q0 82 47 137q45 53 120 53q72 0 119 -50q47 -52 47 -127z" />
<glyph unicode="&#xf1;" horiz-adv-x="531" d="M450 672h-61q-8 -21 -13.5 -29.5t-10.5 -11.5q-10 -7 -23 -7q-10 0 -25.5 5t-37.5 18q-49 26 -87 26q-33 0 -61 -25q-14 -12 -25 -33.5t-24 -61.5h60q8 21 14 29.5t11 11.5q10 7 23 7q9 0 24.5 -5t38.5 -18q47 -26 87 -26q33 0 61 25q14 12 25 33.5t24 61.5zM544 -16v77 h-75v301q0 63 -39 102q-39 38 -103 38q-49 0 -102 -22q-17 -8 -32.5 -17t-30.5 -20v46h-170v-77h86v-367v-61h161v77h-77v289q17 15 35.5 27.5t39.5 23.5q45 22 83 22q65 0 65 -67v-311v-61h159z" />
<glyph unicode="&#xf2;" d="M379 520l-120 187h-98l143 -187h75zM529 236q0 112 -72 189t-180 77t-180 -77t-72 -189q0 -113 72 -189q72 -77 180 -77t180 77q72 76 72 189zM444 236q0 -82 -47 -135q-48 -52 -120 -52t-120 52q-47 53 -47 135t47 135q48 52 120 52t120 -52q47 -53 47 -135z" />
<glyph unicode="&#xf3;" d="M392 707h-98l-120 -187h75zM529 236q0 112 -72 189t-180 77t-180 -77t-72 -189q0 -113 72 -189q72 -77 180 -77t180 77q72 76 72 189zM444 236q0 -82 -47 -135q-48 -52 -120 -52t-120 52q-47 53 -47 135t47 135q48 52 120 52t120 -52q47 -53 47 -135z" />
<glyph unicode="&#xf4;" d="M458 524l-145 177h-74l-144 -177h75l106 98l107 -98h75zM529 236q0 112 -72 189t-180 77t-180 -77t-72 -189q0 -113 72 -189q72 -77 180 -77t180 77q72 76 72 189zM444 236q0 -82 -47 -135q-48 -52 -120 -52t-120 52q-47 53 -47 135t47 135q48 52 120 52t120 -52 q47 -53 47 -135z" />
<glyph unicode="&#xf5;" d="M461 672h-61q-8 -21 -13.5 -29.5t-10.5 -11.5q-10 -7 -23 -7q-10 0 -25.5 5t-37.5 18q-49 26 -87 26q-33 0 -61 -25q-14 -12 -25 -33.5t-24 -61.5h60q8 21 14 29.5t11 11.5q10 7 23 7q9 0 24.5 -5t38.5 -18q47 -26 87 -26q33 0 61 25q14 12 25 33.5t24 61.5zM529 236 q0 112 -72 189t-180 77t-180 -77t-72 -189q0 -113 72 -189q72 -77 180 -77t180 77q72 76 72 189zM444 236q0 -82 -47 -135q-48 -52 -120 -52t-120 52q-47 53 -47 135t47 135q48 52 120 52t120 -52q47 -53 47 -135z" />
<glyph unicode="&#xf6;" d="M411 564v96h-96v-96h96zM238 564v96h-96v-96h96zM529 236q0 112 -72 189t-180 77t-180 -77t-72 -189q0 -113 72 -189q72 -77 180 -77t180 77q72 76 72 189zM444 236q0 -82 -47 -135q-48 -52 -120 -52t-120 52q-47 53 -47 135t47 135q48 52 120 52t120 -52q47 -53 47 -135 z" />
<glyph unicode="&#xf7;" horiz-adv-x="668" d="M383 476v96h-88v-96h88zM611 282v76h-556v-76h556zM383 41v96h-88v-96h88z" />
<glyph unicode="&#xf8;" d="M541 491l-50 44l-68 -80q-59 47 -146 47q-108 0 -180 -77t-72 -189q0 -102 58 -173l-70 -81l51 -42l66 77q60 -47 147 -47q108 0 180 77q72 76 72 189q0 102 -58 173zM370 394l-232 -268q-14 23 -21 50t-7 60q0 82 47 135q48 52 120 52q56 0 93 -29zM444 236 q0 -82 -47 -135q-48 -52 -120 -52q-55 0 -94 28l233 268q28 -45 28 -109z" />
<glyph unicode="&#xf9;" horiz-adv-x="542" d="M374 520l-120 187h-98l143 -187h75zM550 -16v77h-82v428h-84v-61v-296q-30 -30 -73 -53q-45 -23 -85 -23q-62 0 -62 64v369h-167v-77h83v-301q0 -61 37 -98q20 -19 45 -27.5t55 -8.5q55 0 107 23q35 16 60 34v-50h166z" />
<glyph unicode="&#xfa;" horiz-adv-x="542" d="M387 707h-98l-120 -187h75zM550 -16v77h-82v428h-84v-61v-296q-30 -30 -73 -53q-45 -23 -85 -23q-62 0 -62 64v369h-167v-77h83v-301q0 -61 37 -98q20 -19 45 -27.5t55 -8.5q55 0 107 23q35 16 60 34v-50h166z" />
<glyph unicode="&#xfb;" horiz-adv-x="542" d="M453 524l-145 177h-74l-144 -177h75l106 98l107 -98h75zM550 -16v77h-82v428h-84v-61v-296q-30 -30 -73 -53q-45 -23 -85 -23q-62 0 -62 64v369h-167v-77h83v-301q0 -61 37 -98q20 -19 45 -27.5t55 -8.5q55 0 107 23q35 16 60 34v-50h166z" />
<glyph unicode="&#xfc;" horiz-adv-x="542" d="M406 564v96h-96v-96h96zM233 564v96h-96v-96h96zM550 -16v77h-82v428h-84v-61v-296q-30 -30 -73 -53q-45 -23 -85 -23q-62 0 -62 64v369h-167v-77h83v-301q0 -61 37 -98q20 -19 45 -27.5t55 -8.5q55 0 107 23q35 16 60 34v-50h166z" />
<glyph unicode="&#xfd;" horiz-adv-x="531" d="M381 707h-98l-120 -187h75zM546 412v77h-229v-77h68l-111 -292l-128 314l-21 55h-139v-77h83l164 -399l-86 -241h80l242 640h77z" />
<glyph unicode="&#xfe;" horiz-adv-x="594" d="M567 239q0 113 -70 187q-70 76 -176 76q-55 0 -105 -25q-34 -16 -64 -51v269h-170v-77h86v-769h-86v-77h169v45h1v226q14 -16 28.5 -28t31.5 -20q49 -25 106 -25q110 0 180 76q69 76 69 193zM487 236q0 -83 -47 -135q-46 -52 -121 -52q-72 0 -120 52q-49 52 -49 137 t48 136q46 51 118 51q76 0 123 -52q48 -53 48 -137z" />
<glyph unicode="&#xff;" horiz-adv-x="531" d="M400 564v96h-96v-96h96zM227 564v96h-96v-96h96zM546 412v77h-229v-77h68l-111 -292l-128 314l-21 55h-139v-77h83l164 -399l-86 -241h80l242 640h77z" />
<glyph unicode="&#x152;" horiz-adv-x="1052" d="M1009 -16v77h-62h-339v248h282v77h-282v232h323v-120h77v197h-601q-169 0 -270 -95q-103 -96 -103 -255q0 -169 103 -266q51 -48 121.5 -71.5t159.5 -23.5h591zM520 61h-100q-72 0 -126 18.5t-93 53.5q-79 71 -79 201q0 140 77 211q78 73 224 73h97v-557z" />
<glyph unicode="&#x153;" horiz-adv-x="927" d="M910 209q-4 71 -21.5 122t-49.5 91q-65 80 -169 80q-72 0 -131 -37q-44 -28 -75 -76q-26 46 -70 74q-59 39 -133 39q-102 0 -170 -77t-68 -189t68 -189t170 -77q74 0 131 35q44 26 72 73q35 -50 78 -75q57 -33 131 -33q38 0 73 10t77 35l-39 67q-32 -22 -57 -30t-51 -8 q-75 0 -123 54q-41 44 -49 111h406zM819 286h-311q12 53 40 87q45 53 114 53q66 0 107 -43q36 -36 50 -97zM421 236q0 -83 -45 -135q-43 -52 -111 -52q-69 0 -112 52q-45 52 -45 135q0 82 45 135q43 52 112 52q68 0 111 -52q45 -53 45 -135z" />
<glyph unicode="&#x160;" horiz-adv-x="542" d="M453 905h-75l-107 -98l-106 98h-75l144 -177h74zM514 178q0 88 -55 140q-27 25 -76 46t-118 38q-37 8 -65.5 19.5t-49.5 25.5q-37 26 -37 75q0 44 35 73q36 30 92 30q37 0 65.5 -5t51.5 -22q11 -9 18.5 -21t12 -25t6.5 -24.5t2 -18.5v-29h85l-0.5 12t-2.5 28.5t-5 34.5 t-9 30q-7 16 -14.5 26t-18.5 23q-20 21 -39 32t-43 22q-26 11 -53 14.5t-53 3.5q-89 0 -151 -52q-63 -54 -63 -130q0 -85 54 -133q26 -24 67 -42t95 -32q54 -13 89 -27t55 -29q37 -27 37 -77q0 -57 -41 -92q-42 -37 -104 -37q-72 0 -125 47q-51 47 -51 107v40h-78v-265h78 v60q27 -27 60 -43q55 -27 115 -27q98 0 165 58q69 58 69 146z" />
<glyph unicode="&#x161;" horiz-adv-x="448" d="M406 702h-75l-107 -98l-106 98h-75l144 -177h74zM425 127q0 63 -37 100q-20 20 -57 33t-90 23q-73 13 -95 28q-9 7 -14 17t-5 27q0 29 22 50q24 22 65 22q49 0 81 -29q16 -14 24 -34.5t10 -55.5h75v167h-76v-13q-24 21 -53 30.5t-62 9.5q-69 0 -116 -40q-49 -40 -49 -109 q0 -70 45 -103q42 -31 130 -46q77 -13 102 -32q11 -8 16.5 -19.5t5.5 -30.5q0 -33 -31 -57q-35 -24 -81 -24q-62 0 -98 33q-17 16 -26.5 40t-10.5 66h-78v-196h78v31q18 -17 42 -28q40 -18 88 -18q88 0 140 42q55 43 55 116z" />
<glyph unicode="&#x178;" horiz-adv-x="604" d="M437 767v96h-96v-96h96zM264 767v96h-96v-96h96zM638 618v77h-255v-77h75l-148 -233l-167 265h-1l-28 45h-149v-77h95l201 -317v-240h-94v-77h182v61v256l201 317h88z" />
<glyph unicode="&#x192;" d="M557 723q-22 7 -35 10.5t-24 5.5t-23 3.5t-26 1.5q-62 0 -97 -32.5t-49 -89.5l-21 -87h-82l-16 -77h82l-120 -554q-2 -13 -7.5 -21.5t-11.5 -14.5q-6 -5 -16 -8t-25 -3q-19 0 -36 4q-10 2 -19.5 4t-26.5 7l-18 -80q24 -8 49 -14t51 -6q35 0 62 8t45 27q18 17 30 44.5 t20 63.5l118 543h108l17 77h-109l16 66q4 19 10 30t12 16q14 11 38 11q23 0 43 -3l18 -4t26 -7z" />
<glyph unicode="&#x2c6;" horiz-adv-x="333" d="M348 524l-145 177h-74l-144 -177h75l106 98l107 -98h75z" />
<glyph unicode="&#x2dc;" horiz-adv-x="333" d="M351 672h-61q-8 -21 -13.5 -29.5t-10.5 -11.5q-10 -7 -23 -7q-10 0 -25.5 5t-37.5 18q-49 26 -87 26q-33 0 -61 -25q-14 -12 -25 -33.5t-24 -61.5h60q8 21 14 29.5t11 11.5q10 7 23 7q9 0 24.5 -5t38.5 -18q47 -26 87 -26q33 0 61 25q14 12 25 33.5t24 61.5z" />
<glyph unicode="&#x2013;" horiz-adv-x="500" d="M516 208v85h-532v-85h532z" />
<glyph unicode="&#x2014;" horiz-adv-x="1000" d="M1016 208v85h-1032v-85h1032z" />
<glyph unicode="&#x2018;" horiz-adv-x="250" d="M178 627v69q-32 -2 -49.5 -11.5t-28.5 -26.5q-19 -32 -19 -91v-123h88v125h-25q1 37 6 49q1 4 5 6.5t23 2.5z" />
<glyph unicode="&#x2019;" horiz-adv-x="250" d="M169 572v123h-88v-125h25q-1 -37 -6 -49q-1 -4 -5 -6.5t-23 -2.5v-69q32 2 49.5 11.5t28.5 26.5q19 32 19 91z" />
<glyph unicode="&#x201a;" horiz-adv-x="250" d="M169 -14v123h-88v-125h25q-1 -37 -6 -49q-1 -4 -5 -6.5t-23 -2.5v-69q32 2 49.5 11.5t28.5 26.5q19 32 19 91z" />
<glyph unicode="&#x201c;" horiz-adv-x="479" d="M405 627v69q-32 -2 -49.5 -11.5t-28.5 -26.5q-19 -32 -19 -91v-123h88v125h-25q1 37 6 49q1 4 5 6.5t23 2.5zM171 627v69q-32 -2 -49.5 -11.5t-28.5 -26.5q-19 -32 -19 -91v-123h88v125h-25q1 37 6 49q1 4 5 6.5t23 2.5z" />
<glyph unicode="&#x201d;" horiz-adv-x="479" d="M405 572v123h-88v-125h25q-1 -37 -6 -49q-1 -4 -5 -6.5t-23 -2.5v-69q32 2 49.5 11.5t28.5 26.5q19 32 19 91zM171 572v123h-88v-125h25q-1 -37 -6 -49q-1 -4 -5 -6.5t-23 -2.5v-69q32 2 49.5 11.5t28.5 26.5q19 32 19 91z" />
<glyph unicode="&#x201e;" horiz-adv-x="479" d="M407 -14v123h-88v-125h25q-1 -37 -6 -49q-1 -4 -5 -6.5t-23 -2.5v-69q32 2 49.5 11.5t28.5 26.5q19 32 19 91zM169 -14v123h-88v-125h25q-1 -37 -6 -49q-1 -4 -5 -6.5t-23 -2.5v-69q32 2 49.5 11.5t28.5 26.5q19 32 19 91z" />
<glyph unicode="&#x2020;" horiz-adv-x="469" d="M474 382v94q-57 -1 -87.5 -2.5t-41.5 -6.5q-6 -2 -25.5 -4t-54.5 -4q2 47 3.5 71t3.5 29q5 11 6.5 43.5t2.5 92.5h-90q0 -117 8 -136q2 -5 4 -29t4 -71q-68 3 -80 8q-11 5 -42 6.5t-88 2.5v-94q110 0 130 8q5 2 25 4.5t56 4.5q0 -16 -0.5 -28t-1.5 -22q-3 -22 -16 -56 q0 -89 6 -231q3 -71 6 -138.5t7 -139.5h54l19 509q-14 35 -16 56q-1 10 -1.5 22t-0.5 28q35 -2 55 -4.5t26 -4.5q20 -8 129 -8z" />
<glyph unicode="&#x2021;" horiz-adv-x="490" d="M484 -12v94q-57 -1 -87.5 -2.5t-41.5 -6.5q-6 -2 -25.5 -4t-55.5 -4q1 20 1.5 39.5t2.5 37.5q2 20 8.5 43.5t20.5 54.5q-26 55 -29 96q-2 18 -2.5 37t-1.5 38q35 -2 55 -4.5t26 -4.5q20 -8 129 -8v94q-57 -1 -87.5 -2.5t-41.5 -6.5q-6 -2 -25.5 -4t-54.5 -4q4 72 9 81 q3 11 4.5 45t1.5 98h-88q0 -64 1.5 -98t4.5 -45q5 -9 9 -81q-36 2 -55.5 4t-24.5 4q-11 5 -42 6.5t-88 2.5v-94q110 0 130 8q5 2 25 4.5t56 4.5l-2 -38t-3 -37q-2 -21 -8.5 -44t-18.5 -52q13 -31 19 -54.5t8 -43.5q2 -18 2.5 -37.5t1.5 -39.5q-68 3 -80 8q-11 5 -42 6.5 t-88 2.5v-94q110 0 130 8q11 5 80 9q-4 -74 -8 -83q-4 -10 -5.5 -44t-1.5 -97h88q0 63 -1.5 97t-5.5 44q-4 9 -8 83q35 -2 54.5 -4.5t25.5 -4.5q20 -8 129 -8z" />
<glyph unicode="&#x2022;" horiz-adv-x="331" d="M257 304q0 41 -28 68q-27 28 -68 28q-40 0 -68 -28q-28 -27 -28 -68t28 -69q30 -28 69 -28t67 28t28 69z" />
<glyph unicode="&#x2026;" horiz-adv-x="1000" d="M882 -16v96h-88v-96h88zM549 -16v96h-88v-96h88zM216 -16v96h-88v-96h88z" />
<glyph unicode="&#x2030;" horiz-adv-x="1000" d="M992 168q0 92 -36 144q-39 54 -115 54q-75 0 -114 -54q-37 -53 -37 -144q0 -45 8.5 -81.5t27.5 -62.5q20 -28 49 -41t66 -13t66 13t49 41q19 26 27.5 62.5t8.5 81.5zM653 168q0 92 -36 144q-39 54 -115 54q-75 0 -114 -54q-37 -53 -37 -144q0 -45 8.5 -81.5t27.5 -62.5 q20 -28 49 -41t66 -13t66 13t49 41q19 26 27.5 62.5t8.5 81.5zM619 695h-51h-14h-334q-28 11 -60 11q-76 0 -114 -54q-37 -52 -37 -143q0 -38 7 -73.5t24 -63.5t46 -44.5t74 -16.5q37 0 66 13t49 41q19 26 27.5 62.5t8.5 81.5q0 34 -7 71t-27 68h236l-468 -664h73zM920 168 q0 -35 -5.5 -61.5t-15.5 -44.5q-18 -32 -57 -32q-38 0 -57 32q-10 17 -15.5 43.5t-5.5 61.5t5.5 61t15.5 45q19 33 56 33q38 0 58 -33q10 -17 15.5 -43.5t5.5 -61.5zM581 168q0 -35 -5.5 -61.5t-15.5 -44.5q-18 -32 -57 -32q-38 0 -57 32q-10 17 -15.5 43.5t-5.5 61.5 t5.5 61t15.5 45q19 33 56 33q38 0 58 -33q10 -17 15.5 -43.5t5.5 -61.5zM239 509q0 -35 -5.5 -61.5t-15.5 -43.5q-19 -33 -57 -33q-39 0 -57 32q-21 36 -21 105q0 35 5.5 61t15.5 44q19 33 56 33q38 0 58 -33q10 -17 15.5 -43t5.5 -61z" />
<glyph unicode="&#x2039;" horiz-adv-x="229" d="M253 -16l-162 255l162 255h-93l-163 -255l163 -255h93z" />
<glyph unicode="&#x203a;" horiz-adv-x="229" d="M232 239l-163 255h-93l162 -255l-162 -255h93z" />
<glyph unicode="&#x2122;" horiz-adv-x="938" d="M839 264v431h-103l-91 -286l-88 286h-104v-431h78v271l84 -271h58l90 277v-277h76zM440 620v75h-343v-75h134v-356h76v356h133z" />
<glyph unicode="&#xe000;" horiz-adv-x="490" d="M0 490h490v-490h-490v490z" />
<glyph unicode="&#xe001;" horiz-adv-x="667" d="M611 167v76h-269l61 154h208v76h-179l47 122h-78l-47 -122h-299v-76h270l-61 -154h-209v-76h180l-47 -122h78l47 122h298z" />
<glyph unicode="&#xe002;" horiz-adv-x="713" d="M705 264q0 68 -50 112q-49 44 -108 44q-46 0 -88 -21q-37 -18 -102 -78q-65 60 -102 78q-42 21 -88 21q-59 0 -108 -44q-50 -44 -50 -112t50 -112q49 -44 108 -44q35 0 81 19q41 19 109 80q68 -61 109 -80q46 -19 81 -19q59 0 108 44q50 44 50 112zM622 264 q0 -34 -20 -54q-19 -19 -55 -19q-39 0 -72 24q-15 11 -29.5 23t-28.5 26q14 14 28.5 26t29.5 23q33 24 72 24q34 0 54 -23q21 -24 21 -50zM297 264q-14 -14 -28.5 -26t-29.5 -23q-33 -24 -72 -24q-36 0 -55 19q-20 20 -20 54q0 26 21 50q20 23 54 23q39 0 72 -24 q15 -11 29.5 -23t28.5 -26z" />
<glyph unicode="&#xe003;" horiz-adv-x="667" d="M611 93v85l-437 182l437 182v85l-556 -236v-62zM611 -16v67h-556v-67h556z" />
<glyph unicode="&#xe004;" horiz-adv-x="667" d="M612 329v62l-556 236v-85l436 -182l-436 -182v-85zM612 -16v67h-556v-67h556z" />
<glyph unicode="&#xe005;" horiz-adv-x="494" d="M478 393q0 162 -81 267q-84 105 -201 105q-43 0 -79 -11q-17 -5 -34 -12t-43 -19l59 -76q22 11 36 17t27 11q24 9 56 9q71 0 110 -63q41 -67 41 -176q0 -12 -0.5 -24.5t-1.5 -26.5q-1 -8 -2 -15t-2 -15q-16 12 -30 21.5t-28 15.5q-37 17 -81 17q-88 0 -152 -72 q-62 -71 -62 -170q0 -102 67 -159q66 -54 138 -54q68 0 117.5 36.5t81.5 105.5q64 134 64 288zM349 295q-18 -144 -55 -207q-19 -33 -41.5 -48t-50.5 -15q-38 0 -55 32q-9 19 -14 41.5t-5 49.5q0 92 43 147q21 27 43 39.5t44 12.5q34 0 56 -16q22 -17 35 -36z" />
<glyph unicode="&#xe006;" horiz-adv-x="713" d="M715 132h-54q-17 -44 -29.5 -66t-23.5 -30q-9 -8 -26.5 -12.5t-44.5 -4.5h-336l280 322l-262 343h231q45 0 69 -6.5t32 -17.5q11 -13 20.5 -34t19.5 -56h49l-8 191h-511l-139 9l360 -471l-365 -417l96 5h502q19 0 35 -4q11 -2 22.5 -4t33.5 -6q5 42 9.5 70.5t9.5 53.5 q5 26 12 56.5t18 78.5z" />
<glyph unicode="&#xe007;" horiz-adv-x="823" d="M819 -205v55q-42 0 -59.5 4.5t-23.5 10.5t-10 18t-4 32v626q0 25 5.5 40.5t13.5 23.5q9 9 25.5 14t49.5 5v55h-805v-55q33 0 49.5 -5t25.5 -14q9 -8 14.5 -23.5t5.5 -40.5v-626q0 -20 -4 -32t-10 -18q-5 -6 -23 -10.5t-60 -4.5v-55h339v54q-42 2 -59.5 6.5t-23.5 10.5 t-10 17.5t-4 31.5v677h326v-677q0 -20 -4 -32t-10 -18t-23 -10.5t-59 -4.5v-55h338z" />
<glyph unicode="&#xe008;" horiz-adv-x="549" d="M546 167h-54q0 -28 -3.5 -40.5t-10.5 -19.5q-12 -15 -29 -15q-6 0 -14 3.5t-18 13.5q-8 7 -12.5 20.5t-4.5 36.5q0 37 3 111q2 32 3.5 58.5t3.5 49.5h128v118h-389q-64 0 -101 -51q-17 -23 -31 -52.5t-29 -77.5h48q14 23 23.5 35t17.5 17q17 11 37 11h29l-27 -211 q-3 -23 -16 -41.5t-29 -35.5q-7 -6 -11.5 -12.5t-8.5 -13.5q-10 -16 -10 -36q0 -28 21 -49q19 -21 49 -21q38 0 57 28q16 24 24 54l44 338h81q-5 -39 -8 -71t-5 -57q-2 -29 -3.5 -55t-1.5 -50q0 -42 7.5 -75.5t23.5 -57.5q15 -24 35 -37.5t46 -13.5q55 0 95 51 q20 26 29.5 60.5t10.5 87.5z" />
<glyph unicode="&#xe009;" horiz-adv-x="274" d="M307 725q0 36 -29 55q-25 17 -53 17q-45 0 -69.5 -33.5t-33.5 -90.5q-18 -111 -18 -325q0 -254 3 -315q3 -62 3 -94q0 -30 -2 -50t-5 -31q-1 -3 -1.5 -6.5t-2.5 -6.5h1q-3 0 -10 10q-9 11 -19.5 17t-24.5 6q-21 0 -41 -18q-19 -17 -19 -42q0 -35 26 -56q25 -20 50 -20 q49 0 78 35.5t42 97.5q14 63 20 159t6 230q0 70 -3 135.5t-8 127.5q-5 61 -7.5 99.5t-2.5 56.5q0 2 2 6q5 0 11 -7q16 -17 40 -17q31 0 49 19q8 9 13 19t5 22z" />
<glyph unicode="&#xe00a;" horiz-adv-x="768" d="M752 -16v194h-43q-8 -27 -12.5 -38.5t-7.5 -15.5q-2 -2 -9.5 -4.5t-24.5 -2.5h-138q99 27 155 104q60 81 60 178q0 145 -105 226q-101 79 -242 79q-139 0 -243 -80q-104 -83 -104 -225q0 -110 63 -186q58 -70 152 -96h-138q-17 0 -24.5 2.5t-9.5 4.5q-3 4 -7.5 15 t-11.5 39h-44v-194h329l-19 180q-35 11 -59 28.5t-44 46.5q-38 56 -38 163q0 63 14 107t40 73q55 58 144 58q91 0 144 -60q54 -60 54 -178q0 -107 -40 -162q-20 -29 -44.5 -47t-56.5 -29l-19 -180h329z" />
<glyph unicode="&#xe00b;" horiz-adv-x="549" d="M533 770l-66 9l-122 -763l-182 372l-174 -86l30 -62l96 47l258 -534z" />
<glyph unicode="&#xe00c;" horiz-adv-x="667" d="M576 479l-69 23q-14 -19 -24.5 -29t-21.5 -16q-23 -12 -48 -12q-15 0 -99 25q-83 27 -121 27q-44 0 -82 -20q-20 -10 -39.5 -28.5t-45.5 -53.5l70 -28q19 23 30.5 35t20.5 17q17 11 43 11q10 0 35.5 -6.5t69.5 -20.5q43 -14 73.5 -21t47.5 -7q42 0 84 22q22 12 40 30 t36 52zM576 249l-69 23q-14 -19 -24.5 -29t-21.5 -16q-23 -12 -48 -12q-15 0 -99 25q-83 27 -121 27q-44 0 -82 -20q-20 -10 -39.5 -28.5t-45.5 -53.5l70 -28q19 23 30.5 35t20.5 17q17 11 43 11q10 0 35.5 -6.5t69.5 -20.5q43 -14 73.5 -21t47.5 -7q42 0 84 22q22 12 40 30 t36 52z" />
<glyph unicode="&#xe00d;" horiz-adv-x="612" d="M632 -16l-305 744l-346 -744h651zM460 65h-363l192 412z" />
<glyph unicode="&#xe00e;" horiz-adv-x="494" d="M484 377l-202 384h-80l-202 -384l202 -393h80zM388 377l-146 -288l-146 288l146 279z" />
<glyph unicode="&#xe00f;" horiz-adv-x="531" d="M548 497v198h-461v-61v-427h-62v-77h62v-69h-88v-77h176v61v85h62v77h-62v104l250 1v76h-250v230h296v-121h77z" />
<glyph unicode="&#xe010;" horiz-adv-x="792" d="M558 888h-74q-11 -23 -21 -36t-21 -20q-23 -15 -50 -15q-28 0 -50 15q-11 8 -21.5 20.5t-21.5 35.5h-75q16 -45 32.5 -71t38.5 -43q43 -36 97 -36q52 0 96 36q22 17 38.5 43t31.5 71zM754 322h-370v-77h277q-17 -86 -83 -135q-75 -55 -174 -55q-125 0 -203 80 q-79 81 -79 205q0 127 76 206t193 79q81 0 152 -45q35 -23 59 -55.5t39 -83.5h73v204h-77v-39q-38 38 -90 64q-75 36 -157 36q-153 0 -254 -104q-102 -105 -102 -262q0 -80 25.5 -146t78.5 -117q103 -103 265 -103q153 0 251 90q50 46 74.5 108t25.5 150z" />
<glyph unicode="&#xe011;" horiz-adv-x="594" d="M443 685h-74q-11 -23 -21 -36t-21 -20q-23 -15 -50 -15q-28 0 -50 15q-11 8 -21.5 20.5t-21.5 35.5h-75q16 -45 32.5 -71t38.5 -43q43 -36 97 -36q52 0 96 36q22 17 38.5 43t31.5 71zM617 412v77h-171v-70q-34 40 -68 58q-49 25 -104 25q-105 0 -178 -79t-73 -191 q0 -109 72 -182q70 -73 178 -73q58 0 112 27q34 18 61 48v-68q0 -70 -45 -107q-47 -38 -122 -38q-11 0 -27.5 2.5t-33 5.5t-30 6t-19.5 5l-19 -75l13.5 -3.5t33 -8t41 -8t36.5 -3.5q112 0 183 62q73 63 73 167v423h87zM446 236q0 -77 -49 -131q-49 -52 -121 -52 q-75 0 -121 51q-47 52 -47 132t49 135q48 54 119 54q69 0 120 -55q50 -56 50 -134z" />
<glyph unicode="&#xe012;" horiz-adv-x="281" d="M183 714v96h-88v-96h88zM270 -16v77h-86v573v61h-88v-61v-573h-85v-77h259z" />
<glyph unicode="&#xe013;" horiz-adv-x="542" d="M514 178q0 88 -55 140q-27 25 -76 46t-118 38q-37 8 -65.5 19.5t-49.5 25.5q-37 26 -37 75q0 44 35 73q36 30 92 30q37 0 65.5 -5t51.5 -22q11 -9 18.5 -21t12 -25t6.5 -24.5t2 -18.5v-29h85l-0.5 12t-2.5 28.5t-5 34.5t-9 30q-7 16 -14.5 26t-18.5 23q-20 21 -39 32 t-43 22q-26 11 -53 14.5t-53 3.5q-89 0 -151 -52q-63 -54 -63 -130q0 -85 54 -133q26 -24 67 -42t95 -32q54 -13 89 -27t55 -29q37 -27 37 -77q0 -57 -41 -92q-42 -37 -104 -37q-72 0 -125 47q-51 47 -51 107v40h-78v-265h78v60q27 -27 60 -43q38 -18 77 -24l-14 -73 q27 0 38 -2.5t17 -6.5q10 -7 10 -20q0 -18 -17 -28q-11 -6 -21.5 -8.5t-21.5 -3.5q-12 -1 -25 0t-32 2v-65h30q77 0 121 25q48 27 48 85q0 40 -25 65q-20 19 -45 24l1 4q82 8 139 57q69 58 69 146z" />
<glyph unicode="&#xe014;" horiz-adv-x="448" d="M425 127q0 63 -37 100q-20 20 -57 33t-90 23q-73 13 -95 28q-9 7 -14 17t-5 27q0 29 22 50q24 22 65 22q49 0 81 -29q16 -14 24 -34.5t10 -55.5h75v167h-76v-13q-24 21 -53 30.5t-62 9.5q-69 0 -116 -40q-49 -40 -49 -109q0 -70 45 -103q42 -31 130 -46q77 -13 102 -32 q11 -8 16.5 -19.5t5.5 -30.5q0 -33 -31 -57q-35 -24 -81 -24q-62 0 -98 33q-17 16 -26.5 40t-10.5 66h-78v-196h78v31q18 -17 42 -28t54 -16l-13 -67q27 0 38 -2.5t17 -6.5q10 -7 10 -20q0 -18 -17 -28q-11 -6 -21.5 -8.5t-21.5 -3.5q-12 -1 -25 0t-32 2v-65h30q77 0 121 25 q48 27 48 85q0 40 -25 65q-18 18 -42 24q66 6 107 40q55 43 55 116z" />
<glyph unicode="&#xe015;" horiz-adv-x="750" d="M517 910h-98l-120 -187h75zM739 228l-74 44q-26 -69 -52.5 -109t-57.5 -62q-64 -46 -153 -46q-117 0 -192 80q-76 79 -76 205t74 206q74 79 190 79q82 0 151 -45q34 -22 54.5 -53.5t30.5 -80.5h76v189h-78v-24q-43 43 -94 65q-69 30 -138 30q-156 0 -256 -102 q-98 -104 -98 -264q0 -164 98 -265q99 -101 257 -101q111 0 198 57q44 29 78 76.5t62 120.5z" />
<glyph unicode="&#xe016;" horiz-adv-x="510" d="M382 707h-98l-120 -187h75zM501 137l-72 30q-14 -35 -29 -55.5t-33 -34.5q-37 -28 -91 -28q-75 0 -120 51q-46 51 -46 136t45 136q43 51 114 51q50 0 93 -32q19 -15 30 -41t13 -73h74v182h-75v-6q-18 16 -39 27q-41 22 -96 22q-104 0 -175 -77q-69 -78 -69 -189 q0 -116 69 -191q70 -75 181 -75q75 0 133 40q29 20 51.5 49.5t41.5 77.5z" />
<glyph unicode="&#xe017;" horiz-adv-x="750" d="M583 905h-75l-107 -98l-106 98h-75l144 -177h74zM739 228l-74 44q-26 -69 -52.5 -109t-57.5 -62q-64 -46 -153 -46q-117 0 -192 80q-76 79 -76 205t74 206q74 79 190 79q82 0 151 -45q34 -22 54.5 -53.5t30.5 -80.5h76v189h-78v-24q-43 43 -94 65q-69 30 -138 30 q-156 0 -256 -102q-98 -104 -98 -264q0 -164 98 -265q99 -101 257 -101q111 0 198 57q44 29 78 76.5t62 120.5z" />
<glyph unicode="&#xe018;" horiz-adv-x="510" d="M448 702h-75l-107 -98l-106 98h-75l144 -177h74zM501 137l-72 30q-14 -35 -29 -55.5t-33 -34.5q-37 -28 -91 -28q-75 0 -120 51q-46 51 -46 136t45 136q43 51 114 51q50 0 93 -32q19 -15 30 -41t13 -73h74v182h-75v-6q-18 16 -39 27q-41 22 -96 22q-104 0 -175 -77 q-69 -78 -69 -189q0 -116 69 -191q70 -75 181 -75q75 0 133 40q29 20 51.5 49.5t41.5 77.5z" />
<glyph unicode="&#xe019;" horiz-adv-x="594" d="M607 -16v77h-86v454h58v74h-58v106h-83v-45h-1v-61h-143v-74h143v-90q-29 33 -63 51q-54 26 -107 26q-107 0 -177 -76t-70 -190q0 -109 71 -185q72 -74 179 -74q57 0 106 25q33 16 61 46v-64h170zM438 239q0 -82 -47 -135q-48 -52 -121 -52q-71 0 -120 53q-49 54 -49 131 q0 81 48 137q49 54 119 54t120 -54q50 -55 50 -134z" />
<glyph unicode="&#xe01a;" horiz-adv-x="667" d="M588 142l-66 65q19 26 30 56q14 34 14 78q0 41 -14 78q-13 30 -30 56l66 65l-55 55l-65 -66q-26 19 -56 30q-34 14 -78 14q-41 0 -78 -14q-30 -13 -56 -30l-64 66l-55 -55l66 -64q-23 -31 -34 -64t-11 -71q0 -41 14 -78q13 -30 30 -56l-64 -65l53 -55l65 66 q26 -19 56 -30q34 -14 78 -14q41 0 78 14q30 13 56 30l65 -66zM487 341q0 -63 -45 -108t-108 -45t-108 45t-45 108t45 108t108 45t108 -45t45 -108z" />
<glyph unicode="&#xe01b;" horiz-adv-x="656" d="M505 787v61h-353v-61h353zM696 -16v77h-89l-195 557h78v77h-220l-18 -56l-200 -578h-91v-77h174v61l67 197h252l63 -181h-78v-77h257zM428 319h-199l100 290z" />
<glyph unicode="&#xe01c;" horiz-adv-x="510" d="M432 584v61h-353v-61h353zM516 -16v77h-79v291q0 75 -52 114q-25 19 -60 27.5t-80 8.5q-20 0 -44.5 -6t-46 -12.5t-36 -12.5l-14.5 -6l24 -60l19.5 6.5t30 9.5t34 8.5t31.5 3.5q52 0 83 -20q27 -17 27 -61v-86q-14 7 -27.5 11.5t-27.5 8.5q-39 9 -70 9q-85 0 -139 -45 q-54 -47 -54 -117q0 -62 46 -110q46 -46 117 -46q45 0 93 21q17 8 32 16.5t30 19.5v-50h163zM353 117q-26 -27 -65 -47q-42 -21 -78 -21q-42 0 -66 24q-24 25 -24 56q0 40 30 67q30 28 87 28q32 0 65 -11q27 -11 51 -24v-72z" />
<glyph unicode="&#xe01d;" horiz-adv-x="656" d="M495 888h-74q-11 -23 -21 -36t-21 -20q-23 -15 -50 -15q-28 0 -50 15q-11 8 -21.5 20.5t-21.5 35.5h-75q16 -45 32.5 -71t38.5 -43q43 -36 97 -36q52 0 96 36q22 17 38.5 43t31.5 71zM696 -16v77h-89l-195 557h78v77h-220l-18 -56l-200 -578h-91v-77h174v61l67 197h252 l63 -181h-78v-77h257zM428 319h-199l100 290z" />
<glyph unicode="&#xe01e;" horiz-adv-x="510" d="M422 685h-74q-11 -23 -21 -36t-21 -20q-23 -15 -50 -15q-28 0 -50 15q-11 8 -21.5 20.5t-21.5 35.5h-75q16 -45 32.5 -71t38.5 -43q43 -36 97 -36q52 0 96 36q22 17 38.5 43t31.5 71zM516 -16v77h-79v291q0 75 -52 114q-25 19 -60 27.5t-80 8.5q-20 0 -44.5 -6t-46 -12.5 t-36 -12.5l-14.5 -6l24 -60l19.5 6.5t30 9.5t34 8.5t31.5 3.5q52 0 83 -20q27 -17 27 -61v-86q-14 7 -27.5 11.5t-27.5 8.5q-39 9 -70 9q-85 0 -139 -45q-54 -47 -54 -117q0 -62 46 -110q46 -46 117 -46q45 0 93 21q17 8 32 16.5t30 19.5v-50h163zM353 117q-26 -27 -65 -47 q-42 -21 -78 -21q-42 0 -66 24q-24 25 -24 56q0 40 30 67q30 28 87 28q32 0 65 -11q27 -11 51 -24v-72z" />
<glyph unicode="&#xe01f;" horiz-adv-x="656" d="M709 -165v74q-26 -10 -37 -13t-17 -5q-5 -1 -11.5 -1.5t-14.5 -0.5q-17 0 -33 11q-12 9 -12 29q0 16 9 31t18 24h85v77h-89l-195 557h78v77h-220l-18 -56l-200 -578h-91v-77h174v61l67 197h252l63 -181h-78v-77h88l-6 -9q-17 -25 -17 -55q0 -51 39 -81q35 -29 87 -29 q23 0 39.5 5.5t39.5 19.5zM428 319h-199l100 290z" />
<glyph unicode="&#xe020;" horiz-adv-x="510" d="M559 -165v74q-26 -10 -37 -13t-17 -5q-5 -1 -11.5 -1.5t-14.5 -0.5q-17 0 -33 11q-12 9 -12 29q0 16 9 31t18 24h55v77h-79v291q0 75 -52 114q-25 19 -60 27.5t-80 8.5q-20 0 -44.5 -6t-46 -12.5t-36 -12.5l-14.5 -6l24 -60l19.5 6.5t30 9.5t34 8.5t31.5 3.5q52 0 83 -20 q27 -17 27 -61v-86q-14 7 -27.5 11.5t-27.5 8.5q-39 9 -70 9q-85 0 -139 -45q-54 -47 -54 -117q0 -62 46 -110q46 -46 117 -46q45 0 93 21q17 8 32 16.5t30 19.5v-50h24l-6 -9q-17 -25 -17 -55q0 -51 39 -81q35 -29 87 -29q23 0 39.5 5.5t39.5 19.5zM353 117 q-26 -27 -65 -47q-42 -21 -78 -21q-42 0 -66 24q-24 25 -24 56q0 40 30 67q30 28 87 28q32 0 65 -11q27 -11 51 -24v-72z" />
<glyph unicode="&#xe021;" horiz-adv-x="708" d="M503 905h-75l-107 -98l-106 98h-75l144 -177h74zM677 339q0 158 -93 257q-95 99 -285 99h-307v-77h94v-573v-61h212q103 0 177 26.5t118 81.5q84 106 84 247zM589 339q0 -71 -18 -122t-53 -86q-72 -70 -212 -70h-132v557h130q137 0 211 -72t74 -207z" />
<glyph unicode="&#xe022;" horiz-adv-x="674" d="M649 572v123h-88v-125h25q-1 -37 -6 -49q-1 -4 -5 -6.5t-23 -2.5v-69q32 2 49.5 11.5t28.5 26.5q19 32 19 91zM607 -16v77h-86v634h-84v-61v-209q-29 33 -63 51q-54 26 -107 26q-107 0 -177 -76t-70 -190q0 -109 71 -185q72 -74 179 -74q57 0 106 25q33 16 61 46v-64h170 zM438 239q0 -82 -47 -135q-48 -52 -121 -52q-71 0 -120 53q-49 54 -49 131q0 81 48 137q49 54 119 54t120 -54q50 -55 50 -134z" />
<glyph unicode="&#xe023;" horiz-adv-x="708" d="M677 339q0 158 -93 257q-95 99 -285 99h-307v-75l94 2v-243h-93v-77h93v-257v-61h212q103 0 177 26.5t118 81.5q84 106 84 247zM589 339q0 -71 -18 -122t-53 -86q-72 -70 -212 -70h-132v241h209v77h-209v239h130q137 0 211 -72t74 -207z" />
<glyph unicode="&#xe024;" horiz-adv-x="604" d="M479 787v61h-353v-61h353zM575 -16v77h-62h-339v248h282v77h-282v232h323v-120h77v197h-575v-77h87v-573v-61h489z" />
<glyph unicode="&#xe025;" d="M453 584v61h-353v-61h353zM535 209q-4 76 -22 128.5t-53 90.5q-69 74 -179 74q-112 0 -185 -75q-72 -77 -72 -191q0 -116 74 -190q73 -76 186 -76q20 0 47 6.5t52 14t42 14l17 6.5l-21 69q-7 -3 -23 -9t-35 -12t-38.5 -10.5t-32.5 -4.5q-80 0 -132 54q-43 43 -52 111h427 zM444 286h-332q12 52 43 86q48 54 122 54q70 0 115 -43q38 -39 52 -97z" />
<glyph unicode="&#xe026;" horiz-adv-x="604" d="M351 767v96h-96v-96h96zM575 -16v77h-62h-339v248h282v77h-282v232h323v-120h77v197h-575v-77h87v-573v-61h489z" />
<glyph unicode="&#xe027;" d="M325 564v96h-96v-96h96zM535 209q-4 76 -22 128.5t-53 90.5q-69 74 -179 74q-112 0 -185 -75q-72 -77 -72 -191q0 -116 74 -190q73 -76 186 -76q20 0 47 6.5t52 14t42 14l17 6.5l-21 69q-7 -3 -23 -9t-35 -12t-38.5 -10.5t-32.5 -4.5q-80 0 -132 54q-43 43 -52 111h427z M444 286h-332q12 52 43 86q48 54 122 54q70 0 115 -43q38 -39 52 -97z" />
<glyph unicode="&#xe028;" horiz-adv-x="604" d="M575 -16v77h-62h-339v248h282v77h-282v232h323v-120h77v197h-575v-77h87v-573v-61h281l-6 -9q-17 -25 -17 -55q0 -51 39 -81q35 -29 87 -29q23 0 39.5 5.5t39.5 19.5v74q-26 -10 -37 -13t-17 -5q-5 -1 -11.5 -1.5t-14.5 -0.5q-17 0 -33 11q-12 9 -12 29q0 16 9 31t18 24 h124z" />
<glyph unicode="&#xe029;" d="M535 209q-4 76 -22 128.5t-53 90.5q-69 74 -179 74q-112 0 -185 -75q-72 -77 -72 -191q0 -116 74 -190q50 -53 124 -70q-18 -26 -18 -56q0 -51 39 -81q35 -29 87 -29q23 0 39.5 5.5t39.5 19.5v74q-26 -10 -37 -13t-17 -5q-5 -1 -11.5 -1.5t-14.5 -0.5q-17 0 -33 11 q-12 9 -12 29q0 12 4.5 22t11.5 20q20 2 44.5 8.5t46.5 13.5t36.5 12.5l14.5 5.5l-21 69q-7 -3 -23 -9t-35 -12t-38.5 -10.5t-32.5 -4.5q-80 0 -132 54q-43 43 -52 111h427zM444 286h-332q12 52 43 86q48 54 122 54q70 0 115 -43q38 -39 52 -97z" />
<glyph unicode="&#xe02a;" horiz-adv-x="604" d="M484 905h-75l-107 -98l-106 98h-75l144 -177h74zM575 -16v77h-62h-339v248h282v77h-282v232h323v-120h77v197h-575v-77h87v-573v-61h489z" />
<glyph unicode="&#xe02b;" d="M458 702h-75l-107 -98l-106 98h-75l144 -177h74zM535 209q-4 76 -22 128.5t-53 90.5q-69 74 -179 74q-112 0 -185 -75q-72 -77 -72 -191q0 -116 74 -190q73 -76 186 -76q20 0 47 6.5t52 14t42 14l17 6.5l-21 69q-7 -3 -23 -9t-35 -12t-38.5 -10.5t-32.5 -4.5 q-80 0 -132 54q-43 43 -52 111h427zM444 286h-332q12 52 43 86q48 54 122 54q70 0 115 -43q38 -39 52 -97z" />
<glyph unicode="&#xe02c;" horiz-adv-x="792" d="M754 322h-370v-77h277q-17 -86 -83 -135q-75 -55 -174 -55q-125 0 -203 80q-79 81 -79 205q0 127 76 206t193 79q81 0 152 -45q35 -23 59 -55.5t39 -83.5h73v204h-77v-39q-38 38 -90 64q-75 36 -157 36q-153 0 -254 -104q-102 -105 -102 -262q0 -80 25.5 -146t78.5 -117 q91 -92 228 -102l-13 -71q27 0 38 -2.5t17 -6.5q10 -7 10 -20q0 -18 -17 -28q-11 -6 -21.5 -8.5t-21.5 -3.5q-12 -1 -25 0t-32 2v-65h30q77 0 121 25q48 27 48 85q0 40 -25 65q-20 19 -45 24l1 4q136 8 223 89q50 46 74.5 108t25.5 150z" />
<glyph unicode="&#xe02d;" horiz-adv-x="594" d="M392 707h-98l-120 -187h75zM617 412v77h-171v-70q-34 40 -68 58q-49 25 -104 25q-105 0 -178 -79t-73 -191q0 -109 72 -182q70 -73 178 -73q58 0 112 27q34 18 61 48v-68q0 -70 -45 -107q-47 -38 -122 -38q-11 0 -27.5 2.5t-33 5.5t-30 6t-19.5 5l-19 -75l13.5 -3.5 t33 -8t41 -8t36.5 -3.5q112 0 183 62q73 63 73 167v423h87zM446 236q0 -77 -49 -131q-49 -52 -121 -52q-75 0 -121 51q-47 52 -47 132t49 135q48 54 119 54q69 0 120 -55q50 -56 50 -134z" />
<glyph unicode="&#xe02e;" horiz-adv-x="281" d="M317 787v61h-353v-61h353zM270 -16v77h-86v573v61h-88v-61v-573h-85v-77h259z" />
<glyph unicode="&#xe02f;" horiz-adv-x="250" d="M302 584v61h-353v-61h353zM257 -16v77h-81v428h-167v-77h83v-351h-83v-77h248z" />
<glyph unicode="&#xe030;" horiz-adv-x="281" d="M183 714v96h-88v-96h88zM270 -16v77h-86v573v61h-88v-61v-573h-85v-77h76l-6 -9q-17 -25 -17 -55q0 -51 39 -81q35 -29 87 -29q23 0 39.5 5.5t39.5 19.5v74q-26 -10 -37 -13t-17 -5q-5 -1 -11.5 -1.5t-14.5 -0.5q-17 0 -33 11q-12 9 -12 29q0 16 9 31t18 24h99z" />
<glyph unicode="&#xe031;" horiz-adv-x="250" d="M175 650q0 24 -17 39q-15 17 -39 17t-39 -17q-17 -17 -17 -40q0 -24 17 -39q15 -17 39 -17t39 17q17 17 17 40zM259 -165v74q-26 -10 -37 -13t-17 -5q-5 -1 -11.5 -1.5t-14.5 -0.5q-17 0 -33 11q-12 9 -12 29q0 16 9 31t18 24h95v77h-81v428h-167v-77h83v-383h1v-28 q-9 -9 -21 -26q-17 -25 -17 -55q0 -51 39 -81q35 -29 87 -29q23 0 39.5 5.5t39.5 19.5z" />
<glyph unicode="&#xe032;" horiz-adv-x="583" d="M616 -16v77h-82l-274 300l260 257h82v77h-116l-49 -50l-262 -257v230h93v77h-271v-77h90v-573v-61h17l-13 -68q28 0 39 -2t17 -7q10 -7 10 -20q0 -18 -17 -28q-19 -11 -44 -11q-12 -1 -25 -0.5t-31 1.5v-65h30q77 0 121 25q48 28 48 85q0 40 -25 65q-19 19 -45 25h100v77 h-94v262l261 -289l44 -50h136z" />
<glyph unicode="&#xe033;" horiz-adv-x="521" d="M550 -16v77h-82l-226 189l238 162h62v77h-85l-29.5 -20.5t-73.5 -50.5t-94 -64.5t-92 -62.5v404h-171v-77h87v-589h1v-45h21l-14 -71q27 0 38.5 -2.5t16.5 -6.5q10 -7 10 -20q0 -19 -16 -28q-11 -6 -22 -8.5t-22 -3.5q-12 -1 -25 0t-32 2v-65h30q77 0 121 25q48 27 48 85 q0 40 -25 65q-18 19 -45 24l1 4h85v77h-87v148l258 -225h124z" />
<glyph unicode="&#xe034;" horiz-adv-x="510" d="M327 910h-98l-120 -187h75zM514 -16v252h-86v-175h-248v557h1v77h-181v-77h92v-557h-92v-77h514z" />
<glyph unicode="&#xe035;" horiz-adv-x="240" d="M287 898h-98l-120 -187h75zM247 -16v77h-85v634h-170v-77h86v-573v-61h169z" />
<glyph unicode="&#xe036;" horiz-adv-x="510" d="M514 -16v252h-86v-175h-248v557h1v77h-181v-77h92v-557h-92v-77h223l-13 -71q27 0 38 -2.5t17 -6.5q10 -7 10 -20q0 -20 -17 -28q-11 -6 -21.5 -8.5t-21.5 -3.5q-12 -1 -25 0t-32 2v-65h30q77 0 121 25q48 27 48 85q0 40 -25 65q-18 19 -45 24l1 4h226z" />
<glyph unicode="&#xe037;" horiz-adv-x="240" d="M247 -16v77h-85v634h-170v-77h86v-573v-61h17l-13 -71q27 0 38 -2t17 -7q10 -7 10 -20q0 -18 -17 -28q-19 -9 -43 -11q-12 -1 -25 -0.5t-32 1.5v-65h30q77 0 121 25q48 28 48 85q0 40 -25 66q-20 18 -45 24l1 3h87z" />
<glyph unicode="&#xe038;" horiz-adv-x="510" d="M439 572v123h-88v-125h25q-1 -37 -6 -49q-1 -4 -5 -6.5t-23 -2.5v-69q32 2 49.5 11.5t28.5 26.5q19 32 19 91zM514 -16v252h-86v-175h-248v557h1v77h-181v-77h92v-557h-92v-77h514z" />
<glyph unicode="&#xe039;" horiz-adv-x="320" d="M294 572v123h-88v-125h25q-1 -37 -6 -49q-1 -4 -5 -6.5t-23 -2.5v-69q32 2 49.5 11.5t28.5 26.5q19 32 19 91zM247 -16v77h-85v634h-170v-77h86v-573v-61h169z" />
<glyph unicode="&#xe03a;" horiz-adv-x="510" d="M375 314v96h-96v-96h96zM514 -16v252h-86v-175h-248v557h1v77h-181v-77h92v-557h-92v-77h514z" />
<glyph unicode="&#xe03b;" horiz-adv-x="320" d="M300 314v96h-96v-96h96zM247 -16v77h-85v634h-170v-77h86v-573v-61h169z" />
<glyph unicode="&#xe03c;" horiz-adv-x="708" d="M470 910h-98l-120 -187h75zM714 618v77h-167v-61v-505q-42 66 -83.5 129.5t-83.5 126.5q-50 74 -99 150t-102 160h-185v-77h91v-573v-61h175v77h-96v503l384 -589h78v643h88z" />
<glyph unicode="&#xe03d;" horiz-adv-x="531" d="M381 707h-98l-120 -187h75zM544 -16v77h-75v301q0 63 -39 102q-39 38 -103 38q-49 0 -102 -22q-17 -8 -32.5 -17t-30.5 -20v46h-170v-77h86v-367v-61h161v77h-77v289q17 15 35.5 27.5t39.5 23.5q45 22 83 22q65 0 65 -67v-311v-61h159z" />
<glyph unicode="&#xe03e;" horiz-adv-x="708" d="M714 618v77h-167v-61v-505q-42 66 -83.5 129.5t-83.5 126.5q-50 74 -99 150t-102 160h-185v-77h91v-573v-61h22l-13 -69q27 0 38.5 -2.5t16.5 -6.5q10 -7 10 -20q0 -18 -16 -28q-11 -6 -22 -8.5t-22 -3.5q-12 -1 -25 0t-32 2v-65h30q77 0 121 25q48 28 48 85q0 40 -25 65 q-18 19 -44 24v2h88v77h-96v503l384 -589h78v643h88z" />
<glyph unicode="&#xe03f;" horiz-adv-x="531" d="M544 -16v77h-75v301q0 63 -39 102q-39 38 -103 38q-49 0 -102 -22q-17 -8 -32.5 -17t-30.5 -20v46h-170v-77h86v-367v-61h26l-13 -67q27 0 38 -2.5t17 -6.5q10 -7 10 -20q0 -20 -17 -28q-11 -6 -21.5 -8.5t-21.5 -3.5q-12 -1 -25 0t-32 2v-65h30q77 0 121 25q48 27 48 85 q0 40 -25 65q-18 19 -44 24h70v77h-77v289q17 15 35.5 27.5t39.5 23.5q45 22 83 22q65 0 65 -67v-311v-61h159z" />
<glyph unicode="&#xe040;" horiz-adv-x="708" d="M536 905h-75l-107 -98l-106 98h-75l144 -177h74zM714 618v77h-167v-61v-505q-42 66 -83.5 129.5t-83.5 126.5q-50 74 -99 150t-102 160h-185v-77h91v-573v-61h175v77h-96v503l384 -589h78v643h88z" />
<glyph unicode="&#xe041;" horiz-adv-x="531" d="M447 702h-75l-107 -98l-106 98h-75l144 -177h74zM544 -16v77h-75v301q0 63 -39 102q-39 38 -103 38q-49 0 -102 -22q-17 -8 -32.5 -17t-30.5 -20v46h-170v-77h86v-367v-61h161v77h-77v289q17 15 35.5 27.5t39.5 23.5q45 22 83 22q65 0 65 -67v-311v-61h159z" />
<glyph unicode="&#xe042;" horiz-adv-x="781" d="M567 787v61h-353v-61h353zM750 340q0 157 -102 262q-101 104 -256 104t-256 -104q-102 -105 -102 -262t102 -262q101 -104 256 -104t256 104q102 105 102 262zM662 340q0 -123 -76 -205q-77 -80 -194 -80q-118 0 -193 81q-77 80 -77 204t77 204q75 81 193 81 q117 0 194 -80q76 -82 76 -205z" />
<glyph unicode="&#xe043;" d="M453 584v61h-353v-61h353zM529 236q0 112 -72 189t-180 77t-180 -77t-72 -189q0 -113 72 -189q72 -77 180 -77t180 77q72 76 72 189zM444 236q0 -82 -47 -135q-48 -52 -120 -52t-120 52q-47 53 -47 135t47 135q48 52 120 52t120 -52q47 -53 47 -135z" />
<glyph unicode="&#xe044;" horiz-adv-x="781" d="M607 910h-98l-120 -187h75zM492 910h-97l-120 -187h75zM750 340q0 157 -102 262q-101 104 -256 104t-256 -104q-102 -105 -102 -262t102 -262q101 -104 256 -104t256 104q102 105 102 262zM662 340q0 -123 -76 -205q-77 -80 -194 -80q-118 0 -193 81q-77 80 -77 204 t77 204q75 81 193 81q117 0 194 -80q76 -82 76 -205z" />
<glyph unicode="&#xe045;" d="M493 707h-98l-120 -187h75zM378 707h-97l-120 -187h75zM529 236q0 112 -72 189t-180 77t-180 -77t-72 -189q0 -113 72 -189q72 -77 180 -77t180 77q72 76 72 189zM444 236q0 -82 -47 -135q-48 -52 -120 -52t-120 52q-47 53 -47 135t47 135q48 52 120 52t120 -52 q47 -53 47 -135z" />
<glyph unicode="&#xe046;" horiz-adv-x="573" d="M392 910h-98l-120 -187h75zM604 -16v77h-93l-123 272q71 19 108 61q41 48 41 122q0 78 -57 129q-56 50 -143 50h-350v-77h100v-635h88v340h124l153 -339h152zM449 511q0 -55 -35 -82q-37 -29 -107 -29h-132v218h150q59 0 91 -30q33 -27 33 -77z" />
<glyph unicode="&#xe047;" horiz-adv-x="396" d="M342 707h-98l-120 -187h75zM399 420v81l-34 2q-17 1 -36.5 -1t-39 -6t-37.5 -10t-33 -13q-11 -6 -21 -15t-18 -19v50h-174v-77h90v-367v-61h181v77h-97v196q0 45 11.5 75t32.5 49t55.5 29t84.5 10h35z" />
<glyph unicode="&#xe048;" horiz-adv-x="573" d="M604 -16v77h-93l-123 272q71 19 108 61q41 48 41 122q0 78 -57 129q-56 50 -143 50h-350v-77h100v-635h9l-13 -68q27 0 38.5 -2t16.5 -7q10 -7 10 -20q0 -18 -16 -28q-19 -9 -44 -11q-12 -1 -25 -0.5t-32 1.5v-65h30q77 0 121 25q48 28 48 85q0 40 -25 66q-18 18 -45 24 h15v340h124l153 -339h152zM449 511q0 -55 -35 -82q-37 -29 -107 -29h-132v218h150q59 0 91 -30q33 -27 33 -77z" />
<glyph unicode="&#xe049;" horiz-adv-x="396" d="M399 420v81l-34 2q-17 1 -36.5 -1t-39 -6t-37.5 -10t-33 -13q-11 -6 -21 -15t-18 -19v50h-174v-77h90v-367v-61h11l-12 -67q27 0 38 -2.5t17 -6.5q10 -7 10 -20q0 -18 -17 -28q-11 -6 -21.5 -8.5t-21.5 -3.5q-12 -1 -25 0t-32 2v-65h30q77 0 121 25q48 28 48 85 q0 40 -25 65q-18 19 -43 24h103v77h-97v196q0 45 11.5 75t32.5 49t55.5 29t84.5 10h35z" />
<glyph unicode="&#xe04a;" horiz-adv-x="573" d="M458 905h-75l-107 -98l-106 98h-75l144 -177h74zM604 -16v77h-93l-123 272q71 19 108 61q41 48 41 122q0 78 -57 129q-56 50 -143 50h-350v-77h100v-635h88v340h124l153 -339h152zM449 511q0 -55 -35 -82q-37 -29 -107 -29h-132v218h150q59 0 91 -30q33 -27 33 -77z" />
<glyph unicode="&#xe04b;" horiz-adv-x="396" d="M408 702h-75l-107 -98l-106 98h-75l144 -177h74zM399 420v81l-34 2q-17 1 -36.5 -1t-39 -6t-37.5 -10t-33 -13q-11 -6 -21 -15t-18 -19v50h-174v-77h90v-367v-61h181v77h-97v196q0 45 11.5 75t32.5 49t55.5 29t84.5 10h35z" />
<glyph unicode="&#xe04c;" horiz-adv-x="542" d="M387 910h-98l-120 -187h75zM514 178q0 88 -55 140q-27 25 -76 46t-118 38q-37 8 -65.5 19.5t-49.5 25.5q-37 26 -37 75q0 44 35 73q36 30 92 30q37 0 65.5 -5t51.5 -22q11 -9 18.5 -21t12 -25t6.5 -24.5t2 -18.5v-29h85l-0.5 12t-2.5 28.5t-5 34.5t-9 30q-7 16 -14.5 26 t-18.5 23q-20 21 -39 32t-43 22q-26 11 -53 14.5t-53 3.5q-89 0 -151 -52q-63 -54 -63 -130q0 -85 54 -133q26 -24 67 -42t95 -32q54 -13 89 -27t55 -29q37 -27 37 -77q0 -57 -41 -92q-42 -37 -104 -37q-72 0 -125 47q-51 47 -51 107v40h-78v-265h78v60q27 -27 60 -43 q55 -27 115 -27q98 0 165 58q69 58 69 146z" />
<glyph unicode="&#xe04d;" horiz-adv-x="448" d="M340 707h-98l-120 -187h75zM425 127q0 63 -37 100q-20 20 -57 33t-90 23q-73 13 -95 28q-9 7 -14 17t-5 27q0 29 22 50q24 22 65 22q49 0 81 -29q16 -14 24 -34.5t10 -55.5h75v167h-76v-13q-24 21 -53 30.5t-62 9.5q-69 0 -116 -40q-49 -40 -49 -109q0 -70 45 -103 q42 -31 130 -46q77 -13 102 -32q11 -8 16.5 -19.5t5.5 -30.5q0 -33 -31 -57q-35 -24 -81 -24q-62 0 -98 33q-17 16 -26.5 40t-10.5 66h-78v-196h78v31q18 -17 42 -28q40 -18 88 -18q88 0 140 42q55 43 55 116z" />
<glyph unicode="&#xe04e;" horiz-adv-x="573" d="M573 529v166h-572v-246h78v169h164v-557h-93v-77h102l-11 -60q27 0 38 -2.5t17 -6.5q10 -7 10 -20q0 -20 -17 -28q-10 -6 -21 -8.5t-22 -3.5q-12 -1 -25 -0.5t-32 1.5v-64h30q77 0 121 25q48 27 48 85q0 40 -25 65q-13 13 -32 21v630h164v-89h78z" />
<glyph unicode="&#xe04f;" horiz-adv-x="260" d="M265 -118q0 40 -25 65q-20 19 -45 24l1 6l58 9v78l-73 -12q-9 0 -13.5 2t-6.5 4q-2 3 -4 9.5t-2 20.5v324h99v77h-99v107l-84 -1v-106h-84v-77h84v-334q0 -33 13 -60.5t48 -38.5l-14 -75q27 0 38 -2.5t17 -6.5q10 -7 10 -20q0 -18 -17 -28q-11 -6 -21.5 -8.5t-21.5 -3.5 q-12 -1 -25 0t-32 2v-65h30q77 0 121 25q48 27 48 85z" />
<glyph unicode="&#xe050;" horiz-adv-x="573" d="M458 905h-75l-107 -98l-106 98h-75l144 -177h74zM573 529v166h-572v-246h78v169h164v-557h-93v-77h181v634h164v-89h78z" />
<glyph unicode="&#xe051;" horiz-adv-x="360" d="M354 572v123h-88v-125h25q-1 -37 -6 -49q-1 -4 -5 -6.5t-23 -2.5v-69q32 2 49.5 11.5t28.5 26.5q19 32 19 91zM254 -14v78l-73 -12q-9 0 -13.5 2t-6.5 4q-2 3 -4 9.5t-2 20.5v324h99v77h-99v107l-84 -1v-106h-84v-77h84v-334q0 -49 25 -77q14 -15 33.5 -21.5t43.5 -6.5z " />
<glyph unicode="&#xe052;" horiz-adv-x="646" d="M500 787v61h-353v-61h353zM658 618v77h-175v-61v-439q0 -71 -39 -105q-20 -17 -50 -26t-72 -9q-79 0 -119 37q-41 35 -41 105v421h86v77h-261v-77h87v-415q0 -111 66 -170q65 -59 183 -59t183 59q65 61 65 170v415h87z" />
<glyph unicode="&#xe053;" horiz-adv-x="542" d="M448 584v61h-353v-61h353zM550 -16v77h-82v428h-84v-61v-296q-30 -30 -73 -53q-45 -23 -85 -23q-62 0 -62 64v369h-167v-77h83v-301q0 -61 37 -98q20 -19 45 -27.5t55 -8.5q55 0 107 23q35 16 60 34v-50h166z" />
<glyph unicode="&#xe054;" horiz-adv-x="646" d="M431 815q0 44 -32 76t-76 32t-76 -32q-31 -31 -31 -76t31 -76q32 -32 76 -32t76 32t32 76zM658 618v77h-175v-61v-439q0 -71 -39 -105q-20 -17 -50 -26t-72 -9q-79 0 -119 37q-41 35 -41 105v421h86v77h-261v-77h87v-415q0 -111 66 -170q65 -59 183 -59t183 59 q65 61 65 170v415h87zM369 815q0 -20 -13 -33t-33 -13q-19 0 -32 13t-13 33t13 33t32 13q20 0 33 -13t13 -33z" />
<glyph unicode="&#xe055;" horiz-adv-x="542" d="M379 612q0 44 -32 76t-76 32t-76 -32q-31 -31 -31 -76t31 -76q32 -32 76 -32t76 32t32 76zM550 -16v77h-82v428h-84v-61v-296q-30 -30 -73 -53q-45 -23 -85 -23q-62 0 -62 64v369h-167v-77h83v-301q0 -61 37 -98q20 -19 45 -27.5t55 -8.5q55 0 107 23q35 16 60 34v-50 h166zM317 612q0 -20 -13 -33t-33 -13q-19 0 -32 13t-13 33t13 33t32 13q20 0 33 -13t13 -33z" />
<glyph unicode="&#xe056;" horiz-adv-x="646" d="M540 910h-98l-120 -187h75zM425 910h-97l-120 -187h75zM658 618v77h-175v-61v-439q0 -71 -39 -105q-20 -17 -50 -26t-72 -9q-79 0 -119 37q-41 35 -41 105v421h86v77h-261v-77h87v-415q0 -111 66 -170q65 -59 183 -59t183 59q65 61 65 170v415h87z" />
<glyph unicode="&#xe057;" horiz-adv-x="646" d="M658 618v77h-175v-61v-439q0 -71 -39 -105q-20 -17 -50 -26t-72 -9q-79 0 -119 37q-41 35 -41 105v421h86v77h-261v-77h87v-415q0 -111 66 -170q49 -44 128 -55q-9 -13 -14 -27t-5 -31q0 -51 39 -81q35 -29 87 -29q23 0 39.5 5.5t39.5 19.5v74q-26 -10 -37 -13t-17 -5 q-5 -1 -11.5 -1.5t-14.5 -0.5q-17 0 -33 11q-12 9 -12 29q0 16 9 31q2 5 5 8t5 7q100 5 158 58q65 61 65 170v415h87z" />
<glyph unicode="&#xe058;" horiz-adv-x="542" d="M589 -165v74q-26 -10 -37 -13t-17 -5q-5 -1 -11.5 -1.5t-14.5 -0.5q-17 0 -33 11q-12 9 -12 29q0 16 9 31t18 24h59v77h-82v428h-84v-61v-296q-30 -30 -73 -53q-45 -23 -85 -23q-62 0 -62 64v369h-167v-77h83v-301q0 -61 37 -98q20 -19 45 -27.5t55 -8.5q55 0 107 23 q35 16 60 34v-50h23l-6 -9q-17 -25 -17 -55q0 -51 39 -81q35 -29 87 -29q23 0 39.5 5.5t39.5 19.5z" />
<glyph unicode="&#xe059;" d="M392 910h-98l-120 -187h75zM537 -16v207h-78v-130h-334l402 569v65h-494v-77h61h318l-401 -568v-66h526z" />
<glyph unicode="&#xe05a;" horiz-adv-x="479" d="M355 707h-98l-120 -187h75zM452 423v66h-399v-77h57h233l-314 -361v-67h422v205h-74v-128h-240z" />
<glyph unicode="&#xe05b;" d="M325 767v96h-96v-96h96zM537 -16v207h-78v-130h-334l402 569v65h-494v-77h61h318l-401 -568v-66h526z" />
<glyph unicode="&#xe05c;" horiz-adv-x="479" d="M288 564v96h-96v-96h96zM452 423v66h-399v-77h57h233l-314 -361v-67h422v205h-74v-128h-240z" />
</font>
</defs>
</svg>
