<?xml version="1.0" standalone="no"?>
<!DOCTYPE svg PUBLIC "-//W3C//DTD SVG 1.1//EN" "http://www.w3.org/Graphics/SVG/1.1/DTD/svg11.dtd" >
<svg xmlns="http://www.w3.org/2000/svg">
<metadata></metadata>
<defs>
<font id="signpainter_houseslantregular" horiz-adv-x="808" >
<font-face units-per-em="2048" ascent="1638" descent="-410" />
<missing-glyph horiz-adv-x="493" />
<glyph horiz-adv-x="2048" />
<glyph horiz-adv-x="2048" />
<glyph unicode="&#xd;" horiz-adv-x="493" />
<glyph unicode=" "  horiz-adv-x="493" />
<glyph unicode="&#x09;" horiz-adv-x="493" />
<glyph unicode="&#xa0;" horiz-adv-x="493" />
<glyph unicode="!" horiz-adv-x="546" d="M-51 74q0 70 46 125t116 55q25 0 51 -8q88 -31 88 -123q0 -33 -10 -64q-14 -41 -54 -77q-47 -45 -104 -48q-55 -2 -94 38t-39 102zM66 412q0 20 8 49q84 317 278 866q18 53 54 53q33 0 94 -30q55 -27 84 -52q35 -31 34 -63q0 -18 -10 -45q-209 -524 -315 -850 q-14 -45 -45 -45q-59 0 -146 55q-37 25 -36 62z" />
<glyph unicode="&#x22;" horiz-adv-x="765" d="M193 995q0 12 8 31q125 285 180 453q12 39 39 39q16 0 39 -15q61 -39 82 -65q33 -41 12 -109q-45 -156 -145 -301q-35 -51 -80 -59q-53 -8 -95 -4q-41 4 -40 30zM479 967q0 12 13 32q143 240 231 428q16 35 39 35q18 0 41 -18q53 -43 71.5 -72t18.5 -51q0 -20 -16 -61 q-66 -156 -179 -283q-41 -47 -86 -49q-133 -8 -133 39z" />
<glyph unicode="#" horiz-adv-x="978" d="M2 432q0 20 37 31q68 16 156 37q20 61 59 188l-6 -2q-23 -4 -41 -4q-66 0 -109 88q-10 20 -10 31q0 20 41 30q68 16 188 37q55 164 111 291q14 35 37 35q14 0 35 -16q66 -53 65 -121q0 -29 -49 -160q111 12 160 16q59 158 115 285q14 35 36 35q14 0 35 -19 q61 -53 62 -118q0 -41 -58 -172q59 -2 84 -20.5t41 -63.5q6 -18 6 -29q0 -20 -43 -24.5t-145 -12.5q-12 -33 -36.5 -99.5t-37.5 -99.5q82 -2 115 -77q8 -18 8 -29q0 -23 -38 -27t-138 -16q-61 -174 -88 -258q-10 -35 -31 -35q-12 0 -31 12q-66 41 -65 111q0 37 31 139 q-57 -10 -170 -35l-72 -223q-12 -35 -29 -35q-10 0 -30 13q-72 41 -72 114q0 27 16 88q-82 -12 -129 82q-10 20 -10 33zM387 537q102 14 164 22q24 78 65 191q-106 -14 -163 -27q-37 -102 -66 -186z" />
<glyph unicode="$" horiz-adv-x="755" d="M-18 371q0 59 90 59q55 0 90 -29q100 -78 186 -77q53 0 53 26q0 25 -84 86q-109 80 -143 117q-76 80 -76 178q0 51 23 103q80 186 237 280q39 25 84 27q35 86 93 223q16 33 36 33q16 0 37 -17q59 -47 60 -120q0 -51 -50 -183q41 -37 50 -45q25 -27 34 -57q14 -39 9 -92 q-14 -135 -72 -246q-20 -39 -61 -23q-100 41 -101 134q0 29 15.5 87t15.5 85q0 20 -8 24q-29 16 -92 -59q-70 -78 -70 -152q0 -41 27 -71q4 -4 155 -136q90 -78 90 -149q0 -33 -16 -70q-29 -66 -88 -114q-76 -61 -172 -64q-20 0 -35 2q-49 -147 -70 -223q-10 -35 -28 -35 q-12 0 -33 12q-57 37 -57 142q0 39 26 157q-63 39 -123 115q-33 43 -32 72z" />
<glyph unicode="%" horiz-adv-x="1214" d="M131 831q0 111 57.5 234t145.5 186q53 39 110 25q76 -18 111 -57q16 -16 43 -71.5t98 -62.5q61 -6 148 35q94 43 164 119q20 23 36 23q25 0 48 -52q18 -41 18 -71q0 -52 -41 -99q-154 -176 -422 -510q-283 -352 -399 -516q-16 -25 -31 -24q-12 0 -33 24q-39 45 -39 88 q0 45 39 101q209 305 631 813q-68 -39 -139 -39q-41 0 -76 14q-27 -236 -156 -340q-49 -41 -108 -41q-74 0 -135 49q-39 31 -58 84q-12 39 -12 88zM279 786q0 -43 18 -51q59 -25 127 178q39 117 39 191q0 39 -12 45q-18 10 -62.5 -51.5t-69.5 -128.5q-41 -113 -40 -183z M602 199q0 111 60.5 235.5t150.5 192.5q53 39 113 24q70 -18 109.5 -59t43.5 -113q6 -115 -37 -243q-49 -143 -133 -209q-51 -39 -110 -39q-72 0 -133 47q-37 29 -54 84q-10 35 -10 80zM745 156q0 -39 19 -47q23 -10 59.5 39t71.5 139q45 119 45 196q0 35 -12 41 q-18 10 -63.5 -51t-71.5 -129q-47 -117 -48 -188z" />
<glyph unicode="&#x26;" horiz-adv-x="1062" d="M-33 266q0 197 318 391q-16 29 -33 78q-35 100 -35 174q0 94 57 191q45 74 131.5 133t174.5 80q53 12 90 12q109 0 194 -113q76 -100 76 -208q0 -121 -94 -224q-78 -84 -264 -198q53 -100 108 -185q76 59 133 111q33 29 58 29q41 0 41 -80q0 -109 -115 -224 q51 -70 80 -102q23 -25 22 -41q0 -18 -28 -39q-53 -39 -97 -47q-55 -10 -143 92q-94 -63 -209 -102q-84 -27 -145 -27q-119 0 -219.5 96.5t-100.5 202.5zM221 231q0 -41 51 -41q82 0 234 86q-57 84 -115 181q-170 -129 -170 -226zM469 877q0 -39 16 -86l4 -13 q100 57 156 109q80 70 80 157q0 41 -23 72q-139 -35 -204 -141q-29 -45 -29 -98z" />
<glyph unicode="'" horiz-adv-x="434" d="M170 965q0 14 12 34q147 254 230 428q16 35 39 35q18 0 41 -18q53 -43 71.5 -72t18.5 -51q0 -20 -17 -61q-65 -156 -178 -283q-41 -47 -86 -49q-49 -4 -94 6q-37 8 -37 31z" />
<glyph unicode="(" horiz-adv-x="497" d="M76 403q0 256 101.5 521t277.5 462q20 25 43 25t45 -33q49 -74 49 -147q0 -68 -41 -131q-115 -174 -182 -387q-72 -223 -72 -430q0 -162 45 -295q6 -16 6 -27q0 -18 -39 -22q-127 -12 -178 127q-55 152 -55 337z" />
<glyph unicode=")" horiz-adv-x="555" d="M-123 -41q0 14 17 33q162 188 265 496.5t103 603.5q0 115 -18 217q-2 16 -2 28q0 41 37 41q10 0 24 -2q187 -38 207 -233q6 -55 6 -113q0 -276 -111.5 -570t-283.5 -462q-80 -78 -207 -66q-37 4 -37 27z" />
<glyph unicode="*" horiz-adv-x="972" d="M104 780q0 18 37 33q123 47 240 84q-86 98 -160 188q-16 20 -16 35q0 25 45 41q35 12 65 13q63 0 113 -58q27 -31 76 -88q45 133 96 250q16 35 35 35q14 0 35 -17q66 -55 65 -122q0 -31 -12 -64q-29 -70 -49 -131q90 20 139 20q92 0 133 -77q10 -18 10 -31q1 -23 -36 -29 q-72 -14 -215 -51q49 -51 157 -160q20 -20 21 -33q0 -12 -29 -30q-39 -25 -74 -25q-66 0 -202 137q-23 -72 -68 -221q-10 -33 -27 -33q-12 0 -34 13q-70 39 -70 112q0 29 8 64q12 53 23 84q-145 -51 -174 -51q-68 0 -117 80q-14 23 -15 32z" />
<glyph unicode="+" horiz-adv-x="999" d="M27 633q-10 47 55 61q113 25 287 37q59 178 104 273q20 43 53 43q23 0 68 -33q39 -29 57 -53q31 -39 11 -89q-16 -41 -52 -127q98 4 162 0q53 -2 78 -55q10 -23 29 -100q4 -14 2 -25q-2 -26 -43 -26q-166 -2 -306 -17q-55 -174 -90 -299q-10 -39 -28 -39q-10 0 -31 11 q-72 37 -90 53q-43 39 -33 90q16 84 37 158q-59 -8 -133 -23q-53 -10 -82 31q-41 57 -55 129z" />
<glyph unicode="," horiz-adv-x="428" d="M-182 -199q0 14 12 37q123 201 207 355q18 35 45 34q16 0 39 -14q125 -74 125 -131q0 -20 -19 -53q-70 -129 -176 -238q-41 -43 -88 -45q-45 -2 -115 23q-31 12 -30 32z" />
<glyph unicode="-" d="M49 649q0 41 49 51q217 45 492 45q59 0 76.5 -51t27.5 -112q8 -49 -51 -54q-254 -14 -455 -55q-55 -12 -86 39q-53 90 -53 137z" />
<glyph unicode="." horiz-adv-x="452" d="M-31 90q0 70 46 125t116 55q25 0 51 -8q88 -31 88 -121q0 -33 -12 -65q-47 -121 -156 -123q-57 -2 -95 37t-38 100z" />
<glyph unicode="/" horiz-adv-x="724" d="M-80 63q0 25 21 66q78 162 320.5 577.5t354.5 583.5q25 37 54 37q20 0 43 -18q125 -99 125 -142q0 -20 -23 -53q-115 -168 -355.5 -561t-350.5 -590q-20 -37 -43 -37q-14 0 -37 15q-45 29 -86 71q-23 25 -23 51z" />
<glyph unicode="0" horiz-adv-x="935" d="M12 356q0 227 107 478q115 260 284 395q78 61 181 61q59 0 138 -27.5t116 -66.5q74 -74 80 -192q10 -164 -48 -396q-66 -266 -178 -434q-139 -203 -315 -203q-137 0 -242 74q-78 55 -102 143q-20 74 -21 168zM276 322q0 -133 62 -134q53 0 123.5 112t126.5 278 q74 225 74 387q0 84 -29 94q-47 16 -136 -111t-149 -282q-72 -188 -72 -344z" />
<glyph unicode="1" horiz-adv-x="528" d="M-8 96q0 18 6 47q80 352 231 818q-59 39 -59 61q0 16 16 45q49 86 125 180q33 41 62 41q76 0 168 -78q37 -31 37 -55q-1 -16 -11 -43q-188 -510 -348 -1098q-12 -47 -41 -47q-10 0 -28 6q-76 23 -123 56q-35 25 -35 67z" />
<glyph unicode="2" horiz-adv-x="845" d="M-78 174q0 35 33 62q227 178 462.5 444t235.5 338q0 23 -24 22q-45 0 -211 -149q-49 -43 -129 -43q-57 0 -107 20q-33 14 -32 45q0 35 40 97q76 113 181 190q127 92 241 92q88 0 166 -55q66 -47 95.5 -108.5t29.5 -122.5q0 -102 -98 -256q-168 -266 -471 -506 q88 16 215 22q55 2 84 -53q43 -86 43 -137q0 -29 -45 -33q-266 -25 -479 -78q-35 -8 -58 -8q-39 0 -63 31q-68 84 -92 129q-16 33 -17 57z" />
<glyph unicode="3" horiz-adv-x="886" d="M-78 213q0 27 34 49.5t83 22.5q55 0 100 -29q92 -59 166 -59q80 0 148.5 73.5t68.5 153.5q0 39 -16 57q-37 39 -131 25q-59 -8 -112.5 29.5t-82.5 107.5q-8 20 -8 37q0 35 37 47q215 78 342 166q109 76 108 127q0 31 -32 31q-49 0 -154 -70q-45 -31 -104 -31 q-45 0 -97 25q-61 29 -61 72q0 23 20 47q121 152 306 196q45 10 84 10q133 0 217 -126q57 -88 57 -183q0 -131 -94 -223q-80 -78 -211 -135q68 -20 110 -66q84 -88 84 -200q0 -113 -79 -222q-139 -188 -390 -190q-197 -2 -348 174q-45 51 -45 84z" />
<glyph unicode="4" horiz-adv-x="970" d="M2 549q0 33 29 76q100 147 273 343.5t300 307.5q37 31 66 31q16 0 41 -9q35 -12 108.5 -54t106 -69.5t32.5 -54.5q0 -16 -10 -43q-84 -221 -160 -448q53 -2 72 -58.5t25 -107.5q6 -57 -49 -60q-41 -2 -125 -8q-76 -227 -123 -393q-12 -47 -43 -47q-66 0 -144 63 q-35 27 -34 66q0 41 75 285q-133 -16 -231 -35q-66 -12 -102 28q-53 61 -95 140q-12 23 -12 47zM266 590q68 8 256 26q61 182 140 398q-193 -180 -396 -424z" />
<glyph unicode="5" horiz-adv-x="804" d="M-49 229q0 20 26 39q41 27 95 27q63 0 100 -33q70 -61 127 -61q61 0 113 71q63 90 63 195q0 39 -14.5 52t-69.5 11q-51 0 -90 -13t-51 -13q-16 0 -40 20.5t-79 71.5q-23 23 -22 53q0 23 12 58q70 207 201 467q33 63 102 75q166 27 373 35q68 2 88 -55q8 -20 20 -131 q6 -57 -51 -64q-107 -10 -324 -43q-66 -125 -120 -260q117 0 213 -68.5t96 -205.5q0 -109 -68 -242q-45 -88 -125 -149q-109 -84 -245 -89q-195 -4 -291 158q-39 68 -39 94z" />
<glyph unicode="6" horiz-adv-x="835" d="M-18 279q0 33 6 71q29 203 143 422q147 283 393 496q51 45 109 32q106 -23 160 -61q33 -25 32 -45q0 -23 -28 -45q-184 -156 -334 -375q66 4 129 -26q156 -74 145 -246q-8 -145 -86 -287q-72 -129 -166 -197q-76 -55 -161 -55q-76 0 -164 43q-178 86 -178 273zM227 254 q0 -70 54 -70q78 0 161 160q51 98 52 164q0 63 -50 63q-81 1 -163 -118q-53 -129 -54 -199z" />
<glyph unicode="7" horiz-adv-x="878" d="M74 109q0 27 20 67q209 415 545 864q-104 -12 -277 -34q-76 -12 -110 36q-16 23 -43 81.5t-27 76.5q0 23 33 31q215 55 549 65q66 2 102 -53q45 -68 74 -127q16 -31 16 -57q0 -35 -30 -74q-362 -467 -654 -1005q-18 -35 -39 -35q-27 0 -77 45q-41 37 -61.5 65.5 t-20.5 53.5z" />
<glyph unicode="8" horiz-adv-x="892" d="M-29 252q0 33 9 70q41 164 294 335q-102 92 -102 203q0 125 129 256q111 111 242 164q47 18 92 18q113 0 205 -95t92 -208q0 -86 -55 -168q-66 -96 -248 -206q135 -115 135 -238q0 -109 -109 -248q-135 -172 -329 -172q-84 0 -164 33q-190 80 -191 256zM231 238 q0 -68 58 -68q80 0 147 109q51 80 51 135q0 53 -43 92q-139 -94 -194 -201q-18 -37 -19 -67zM432 825q0 -35 21 -61q223 143 223 240q0 42 -39 79q-205 -133 -205 -258z" />
<glyph unicode="9" horiz-adv-x="831" d="M8 90q0 20 29 43q147 121 282 293q-45 8 -69 18q-172 72 -178 242q-6 150 73 313q76 158 183 238q84 63 178 63q70 0 141 -34q117 -55 166 -127q53 -78 47 -197q-10 -203 -190 -483q-182 -291 -418 -463q-47 -35 -76 -35q-18 0 -39 12q-37 20 -104 74q-25 25 -25 43z M328 698q0 -82 59 -82q37 0 84 43q119 219 119 345q0 66 -39 65q-39 0 -92 -62.5t-90 -144.5q-41 -92 -41 -164z" />
<glyph unicode=":" horiz-adv-x="503" d="M-55 92q0 70 46.5 125t114.5 55q25 0 50 -8q88 -31 88 -137q0 -70 -42 -123t-112 -53q-59 0 -102 41t-43 100zM113 623q0 70 45.5 125t115.5 55q25 0 52 -8q88 -31 88 -121q0 -33 -13 -66q-47 -121 -155 -123q-57 -2 -95 37t-38 101z" />
<glyph unicode=";" horiz-adv-x="532" d="M-170 -197q0 14 12 35q139 229 207 355q18 35 45 34q18 0 41 -14q123 -72 123 -133q0 -18 -18 -51q-71 -129 -177 -238q-41 -43 -88 -45q-43 -2 -112 23q-33 12 -33 34zM123 625q0 70 45 124t115 54q25 0 51 -8q88 -31 88 -123q0 -31 -10 -64q-14 -43 -52 -78 q-49 -43 -106 -45t-94 38t-37 102z" />
<glyph unicode="&#x3c;" horiz-adv-x="712" d="M57 602q8 31 31 100q18 49 62 76q150 92 350 162q57 20 104 -41q55 -70 55 -96q1 -21 -34 -35q-115 -45 -297 -135q139 -74 185 -106.5t36 -82.5q-29 -133 -66 -133q-12 0 -32 13q-186 115 -379 202q-33 14 -15 76z" />
<glyph unicode="=" horiz-adv-x="892" d="M49 489q0 39 49 50q287 55 570 49q53 -2 73.5 -49t30.5 -99q10 -49 -43 -51q-287 -10 -549 -61q-59 -12 -84 34q-47 84 -47 127zM123 829q-10 57 51 66q287 37 569 8q57 -6 72 -53q20 -61 25 -100q4 -29 -6.5 -39.5t-40.5 -8.5q-262 11 -553 -22q-57 -6 -81 41t-36 108z " />
<glyph unicode="&#x3e;" horiz-adv-x="757" d="M51 492q0 27 33 43q127 61 326 124q-106 53 -183 84q-47 18 -51 66q0 76 14 129q12 47 64 27q213 -84 418 -207q33 -20 33 -45q-1 -15 -7 -35q-25 -72 -46 -119t-74 -63q-197 -61 -363 -142q-43 -20 -78 11q-86 80 -86 127z" />
<glyph unicode="?" horiz-adv-x="927" d="M76 70q0 68 42.5 118t110.5 50q29 0 62 -13q90 -33 90 -125q0 -80 -53.5 -128t-134.5 -38q-117 16 -117 136zM143 979q0 33 47 94q197 260 420 260q164 0 250 -141q59 -96 60 -195q0 -127 -99 -239q-43 -49 -149 -119q-113 -72 -158 -119q-80 -80 -108 -196 q-10 -43 -41 -43q-60 0 -140 57q-43 31 -26 106q27 137 143 250q55 55 188 144q178 119 179 219q0 53 -52 51q-47 0 -113.5 -50t-128 -99.5t-136.5 -49.5q-53 0 -103 27q-33 18 -33 43z" />
<glyph unicode="@" horiz-adv-x="1218" d="M51 520q0 129 49 277q78 227 250 352q158 115 344 115q109 0 205 -41q266 -117 266 -439q0 -133 -51 -272q-111 -295 -293 -295q-129 0 -174 105q-51 -47 -119 -48q-37 0 -73 15q-127 49 -127 192q0 70 34 158q55 143 149.5 235.5t184.5 92.5q115 0 133 -125 q49 -35 50 -74q0 -16 -9 -45q-31 -86 -59 -174q-47 -139 -47 -189q0 -31 22 -30q33 0 82.5 70.5t92.5 191.5q47 131 47 252q0 213 -158 282q-47 20 -105 21q-135 0 -264 -107q-141 -119 -219 -325q-53 -139 -53 -256q0 -123 57 -207q45 -68 107 -88q39 -12 93 -15.5t77 -9.5 q76 -20 104 -69q23 -39 -14 -52q-47 -16 -107 -16q-84 0 -172 35q-125 51 -207 164q-96 135 -96 319zM483 449q0 -49 27 -58q86 -24 240 422q0 35 -23 43q-23 10 -90 -68q-76 -84 -115 -183t-39 -156z" />
<glyph unicode="A" horiz-adv-x="980" d="M-80 166q227 510 578 1073q48 76 129 76h12q160 -12 270 -62q39 -19 39 -73q0 -12 -2 -25q-63 -440 -110 -1130q-4 -59 -60 -60q-100 0 -140 24.5t-40 96.5q0 55 8 231q-139 -23 -383 -75q-39 -72 -121 -234q-20 -39 -43 -39q-12 0 -34 11q-70 35 -99 67q-22 24 -22 51 t18 68zM379 539q158 25 239 30q20 258 48 475q-125 -210 -287 -505z" />
<glyph unicode="B" horiz-adv-x="948" d="M-27 182q0 23 11 66q35 152 227 753q-53 100 -53 140q0 33 39 53q229 121 481 121q168 0 231 -76q84 -102 95 -229q1 -11 1 -21q0 -134 -139 -258q-61 -55 -147 -110q100 -66 104 -201q2 -121 -108 -225q-74 -68 -201 -138q-119 -63 -221 -96q-49 -16 -74 -16 q-35 0 -76 32q-66 51 -125 117q-45 49 -45 88zM231 219q145 45 239 115q88 65 87 118v7q-4 47 -100 47q-66 0 -146 -31q-27 -86 -80 -256zM397 729q156 57 269 158q93 83 93 132q0 4 -1 7q-4 33 -68 33q-82 0 -196 -58q-54 -145 -97 -272z" />
<glyph unicode="C" horiz-adv-x="876" d="M-25 309q0 229 123 507t301 429q86 73 183 73q12 0 24 -1q152 -14 244 -100q65 -59 65 -167v-16q-4 -145 -51 -264q-18 -47 -49 -47q-12 0 -27 4q-141 33 -147 174q0 23 5 67t5 62q0 43 -24 53q-4 1 -9 1q-44 0 -135 -140q-94 -147 -151 -299q-76 -207 -76 -354 q0 -113 55 -113q53 0 160 119q59 68 143 68q33 -1 68 -13q45 -16 45 -53q0 -29 -27 -84q-53 -106 -157 -197q-81 -71 -193 -71q-20 0 -41 2q-106 10 -200 67q-86 51 -113 140q-20 66 -21 153z" />
<glyph unicode="D" horiz-adv-x="1001" d="M-33 182q0 33 15 82q92 342 223 748q-59 119 -60 149q0 31 39 53q164 92 361 93q311 0 407 -265q29 -82 29 -178q0 -258 -176 -502q-195 -274 -531 -399q-35 -12 -63 -12q-41 0 -80 29q-51 41 -117 108q-47 49 -47 94zM242 236q231 115 362 327q104 172 105 324 q0 39 -9 65q-29 80 -127 80q-37 0 -77 -14q-125 -340 -254 -782z" />
<glyph unicode="E" horiz-adv-x="788" d="M-39 225q45 203 248 811q-33 55 -49 135q-2 8 -2 15q0 32 37 43q229 66 591 78h4q58 0 76 -58q20 -72 25 -114v-7q0 -52 -55 -59q-166 -16 -322 -43q-33 -90 -104 -281q66 10 157 15h5q62 0 79 -47q23 -61 29 -119q1 -5 1 -10q0 -46 -52 -58q-111 -20 -324 -69 q-45 -127 -63 -187q117 23 245 33q7 1 14 1q56 0 72 -46q25 -63 31 -121q1 -6 1 -11q0 -47 -50 -58q-125 -27 -358 -86q-33 -10 -58 -11q-39 0 -71 33q-25 23 -82 88q-30 37 -30 88q0 21 5 45z" />
<glyph unicode="F" horiz-adv-x="778" d="M-59 143q51 281 266 897q-25 45 -47 131q-4 12 -4 23q0 23 39 35q205 61 577 78h4q58 -1 83 -57q28 -63 28 -121q0 -52 -53 -60q-147 -18 -324 -45q-10 -29 -98 -276q96 12 151 14h5q59 0 78 -45q20 -47 30 -121q1 -7 1 -13q0 -45 -52 -55q-168 -31 -308 -65 q-70 -215 -141 -447q-14 -47 -49 -47q-27 0 -80 21.5t-78 40.5q-32 23 -32 73q0 18 4 39z" />
<glyph unicode="G" horiz-adv-x="905" d="M-29 324q0 240 135 526q141 301 332 426q61 40 143 40q22 0 46 -3q139 -18 221 -101q61 -61 65 -178v-22q0 -122 -41 -248q-14 -46 -56 -46q-6 0 -13 1q-158 22 -158 171v7q4 49 6 98v14q0 65 -18 70q-4 1 -9 1q-45 0 -130 -116q-93 -130 -168 -309q-84 -197 -84 -362 q0 -123 59 -123q90 0 205 236h-13q-135 0 -153 159v6q0 36 49 50q113 29 250 47q14 2 26 2q62 0 91 -41q25 -35 47 -82q16 -35 16 -62q0 -29 -18 -71q-74 -180 -174 -299q-137 -164 -289 -164q-127 0 -246 82q-78 55 -104 151q-16 61 -17 140z" />
<glyph unicode="H" horiz-adv-x="925" d="M-57 96q0 47 86 365q-10 23 -31 92q-4 16 -4 27q0 23 80 45q125 438 190 616q18 51 53 51q29 0 95 -35q57 -29 86 -51q39 -31 39 -57q0 -16 -11 -41q-74 -203 -145 -428q72 8 207 20q100 334 178 562q16 51 53 51q72 0 174 -82q35 -29 35 -57q0 -16 -8 -41 q-176 -485 -361 -1125q-14 -45 -41 -45q-10 0 -28 4q-84 25 -127 59q-31 25 -31 73q0 18 4 38q20 98 78 307q-74 -12 -219 -38q-72 -238 -117 -396q-12 -47 -43 -47q-66 0 -155 66q-37 27 -37 67z" />
<glyph unicode="I" horiz-adv-x="425" d="M-76 96q0 16 6 45q37 176 141.5 543t172.5 557q18 49 55 49q74 0 180 -84q39 -31 39 -57q0 -16 -10 -41q-172 -469 -348 -1098q-12 -47 -43 -47q-66 0 -156 66q-37 27 -37 67z" />
<glyph unicode="J" horiz-adv-x="856" d="M-20 211q-6 32 -6 68q0 79 28 176q27 92 74 92q14 0 35 -10q128 -66 128 -179q0 -10 -1 -20q-6 -65 -6 -99q0 -12 1 -20q4 -39 35 -41h2q72 0 201 404q96 301 180 669q12 51 54 52q35 0 96 -29q55 -25 87 -48.5t38 -43.5q1 -5 1 -13q0 -16 -5 -41q-217 -938 -449 -1112 q-82 -61 -176 -61q-54 0 -111 18q-174 57 -206 238z" />
<glyph unicode="K" horiz-adv-x="907" d="M-70 141q37 180 144 551q109 381 176 568q18 49 55 49q72 0 178 -84q39 -31 39 -56q0 -16 -10 -41q-37 -94 -125 -368q344 365 475 524q23 29 43 29q31 0 68 -60q31 -47 41 -86q4 -15 4 -31q0 -45 -33 -98q-115 -184 -471 -540q94 -227 184 -387q10 -20 11 -35 q0 -27 -33 -46.5t-94 -35.5q-23 -6 -41 -6q-59 0 -99 59q-102 160 -176 332l-108 -369q-12 -47 -41 -47t-81 23.5t-77 42.5q-33 26 -33 74q0 18 4 38z" />
<glyph unicode="L" horiz-adv-x="727" d="M-66 217q45 197 148 516q102 330 184 531q18 47 56 47q33 0 94 -29t88 -51q35 -29 35 -55q0 -16 -11 -43q-150 -389 -299 -859q96 20 234 31q7 1 13 1q55 0 73 -47q20 -52 31 -120q2 -15 3 -26q-1 -17 -7 -24q-10 -11 -46 -19q-123 -29 -358 -88q-37 -10 -61 -11 q-35 0 -68 33q-25 23 -84 88q-29 37 -29 85q0 19 4 40z" />
<glyph unicode="M" horiz-adv-x="1261" d="M-74 92q0 16 4 41q33 176 144 551q96 324 174 547q23 63 74 63q12 0 28 -2q82 -12 189 -57q49 -20 63 -55q10 -23 10 -68v-16q-2 -94 -2 -459q178 336 353 616q37 57 86 58q23 0 61 -11q117 -33 205 -79q43 -23 43 -62q0 -20 -10 -51q-182 -530 -332 -1088 q-14 -55 -51 -55q-57 0 -140 58q-37 27 -37 69q0 18 5 43q49 240 184 668q-145 -264 -369 -680q-27 -51 -51 -51q-47 0 -115 34q-53 27 -57 113q-8 159 -8 356q0 98 2 205q-133 -422 -225 -770q-12 -49 -45 -49q-59 0 -144 59q-39 29 -39 72z" />
<glyph unicode="N" horiz-adv-x="958" d="M-68 150q31 141 138 503q109 381 180 584q18 53 65 53q14 0 31 -4q80 -25 164 -67q59 -31 61 -121q7 -248 25 -561q84 336 209 704q16 51 57 51q14 0 33 -6q66 -20 123 -59q35 -23 35 -58q0 -20 -11 -51q-170 -510 -325 -1089q-14 -53 -62 -54q-47 0 -147 54 q-55 29 -72 102q-49 213 -74 578q-82 -266 -204 -695q-12 -45 -39 -45t-81 23.5t-79 44.5q-31 26 -31 74q0 18 4 39z" />
<glyph unicode="O" horiz-adv-x="948" d="M12 356q0 227 111 478q115 258 287 401q79 65 183 65h3q59 0 136 -29.5t116 -68.5q76 -76 82 -196q1 -20 1 -41q0 -151 -50 -357q-66 -266 -179 -436q-139 -207 -315 -207q-143 0 -248 74q-76 53 -104 147q-23 76 -23 170zM342 182q55 0 127 112t129 284q76 223 76 389 q0 90 -33 100q-4 1 -9 1q-45 0 -128 -122q-86 -127 -144 -278q-75 -200 -75 -359q0 -127 57 -127z" />
<glyph unicode="P" horiz-adv-x="966" d="M-27 131q47 225 240 842q-59 117 -59 151q0 29 39 52q244 137 491 137q156 0 219 -78q111 -137 111 -289q0 -119 -123 -254q-90 -100 -255 -192.5t-331 -141.5q-63 -199 -108 -356q-12 -45 -43 -45q-70 0 -152 61q-33 26 -33 75q0 18 4 38zM401 651q176 63 287 180 q89 93 89 160q0 7 -1 13q-6 32 -70 32h-4q-82 0 -180 -45q-47 -123 -121 -340z" />
<glyph unicode="Q" horiz-adv-x="946" d="M12 356q0 227 111 478q115 258 287 401q79 65 183 65h3q59 0 136 -29.5t116 -68.5q72 -72 80 -196q1 -28 1 -56q0 -164 -48 -358q-66 -244 -183 -418q21 -38 62 -108q16 -25 16 -41q0 -20 -33 -43q-45 -33 -102 -45q-11 -2 -22 -2q-55 0 -101 61q-57 -29 -137 -29 q-22 0 -45 2q-111 10 -197 70q-76 53 -104 147q-23 76 -23 170zM326 186q7 -3 16 -3q20 0 45 18q-35 57 -35 80q0 27 33 43q53 27 125 43q43 84 86 211q76 225 76 391q0 88 -31 98q-4 1 -9 1q-45 0 -128 -122q-86 -127 -144 -278q-75 -200 -75 -359q0 -106 41 -123z" />
<glyph unicode="R" horiz-adv-x="993" d="M-27 131q45 227 242 842q-59 113 -59 151q0 31 37 52q244 137 491 137q156 0 219 -78q111 -137 111 -293q0 -131 -121 -250q-129 -125 -332 -225q113 -188 252 -352q20 -23 21 -41q0 -18 -29 -42t-86 -42q-23 -6 -43 -6q-51 0 -101 45q-139 127 -272 360 q-72 -215 -119 -377q-12 -45 -43 -45q-10 0 -26 4q-72 18 -111 47q-35 25 -35 75q0 18 4 38zM397 659q168 63 289 183q95 95 95 150q0 6 -1 12q-8 38 -82 38h-4q-80 0 -172 -45q-29 -70 -125 -338z" />
<glyph unicode="S" horiz-adv-x="821" d="M-96 281q-1 27 30 43q39 20 91 20q68 0 104 -33q130 -114 227 -114h2q70 0 70 39q0 35 -100 122q-139 121 -172 160q-80 92 -80 215q0 78 35 158q45 102 131 204.5t176 159.5q68 41 137 41q61 0 135 -39.5t117 -89.5q48 -55 48 -141q0 -22 -3 -47q-25 -174 -109 -338 q-20 -39 -47 -39q-12 0 -30 8q-137 59 -138 158q0 16 4.5 32.5t34.5 119.5q25 80 25 106q0 14 -6 16q-5 3 -10 3q-35 0 -115 -95q-98 -117 -99 -217q0 -49 25 -83t195 -187q116 -105 116 -188q0 -40 -20 -78q-119 -229 -350 -236h-11q-210 0 -370 227q-43 61 -43 93z" />
<glyph unicode="T" horiz-adv-x="907" d="M156 1196q0 25 39 33q324 74 690 80q55 0 78 -33q41 -61 51 -135q1 -12 1 -21q0 -18 -5 -26q-8 -12 -43 -13q-70 -6 -224 -22q-178 -512 -329 -1055q-12 -45 -41 -45q-66 0 -156 66q-33 24 -33 75q0 18 4 39q70 346 246 877q-49 -8 -129 -25q-13 -3 -24 -3q-38 0 -64 36 q-16 25 -38.5 85t-22.5 87z" />
<glyph unicode="U" horiz-adv-x="923" d="M2 309q0 164 88 445q49 160 174 479q18 47 53 47q31 0 86 -31q47 -25 74 -51q37 -37 37 -80q0 -25 -12 -57q-240 -608 -240 -791q0 -70 35 -82q6 -2 12 -2q142 0 430 1059q14 51 54 51q70 0 172 -79q36 -28 36 -55q0 -15 -8 -42q-115 -426 -178 -600q-154 -420 -319 -516 q-65 -38 -161 -38q-13 0 -28 1q-106 6 -192 70q-113 84 -113 272z" />
<glyph unicode="V" horiz-adv-x="954" d="M143 432q0 332 37 791q4 63 60 63q63 0 122 -24q72 -29 70 -119q-10 -240 -26 -787q145 297 428 910q18 41 53 41q16 0 37 -11q131 -61 131 -129q-1 -24 -15 -63q-63 -172 -235 -535q-160 -332 -283 -563q-33 -61 -78 -61q-20 0 -47 10q-78 27 -164 82q-78 51 -83 166 q-6 106 -7 229z" />
<glyph unicode="W" horiz-adv-x="1312" d="M27 115q29 475 157 1112q12 59 52 59q10 0 24 -2q114 -28 148 -64q22 -24 22 -73q0 -27 -6 -62q-41 -202 -127 -651q256 502 377 696q24 40 65 40q11 0 23 -3q33 -8 108 -43q33 -14 37 -39q4 -14 -2 -57q-4 -31 -98 -582q276 588 399 809q27 47 51 48q14 0 43 -15 q59 -29 103 -71q24 -24 24 -57q0 -36 -20 -77q-324 -645 -516 -1079q-23 -51 -68 -51q-16 0 -41 6q-72 16 -136 46q-62 29 -62 109v5q4 254 20 424q-96 -188 -297 -553q-23 -37 -65 -37q-11 0 -23 2q-92 20 -156 55q-37 20 -37 88q0 8 1 17z" />
<glyph unicode="X" horiz-adv-x="966" d="M-90 123q0 29 27 70q117 178 370 489q-37 137 -76 276q-51 197 -51 271q0 45 53 49q35 3 67 3q42 0 79 -5q72 -8 90 -89t59 -257q111 137 291 356q27 31 55 31q63 0 134 -141q12 -25 12 -50q0 -39 -33 -77q-231 -274 -377 -455l135 -551q6 -20 7 -33q0 -33 -43 -39 q-34 -5 -70 -5t-74 5q-61 8 -90 84q-16 45 -84 297q-84 -106 -289 -375q-22 -28 -44 -28h-1q-53 0 -133 129q-14 25 -14 45z" />
<glyph unicode="Y" horiz-adv-x="888" d="M152 1233q-1 7 -1 14q0 44 48 51q39 6 73 6q36 0 65 -7q56 -13 73 -93q33 -158 65 -420q141 213 316 498q23 35 45 35q16 0 41 -14q61 -39 94 -84q18 -25 18 -50q1 -24 -22 -69q-82 -166 -457 -713q-66 -203 -121 -397q-12 -45 -41 -45t-80 23.5t-75 43.5q-35 29 -35 68 q0 18 6 47q31 135 94 365q-20 168 -106 741z" />
<glyph unicode="Z" horiz-adv-x="768" d="M-94 147q0 27 16 52q207 331 613 827q-66 -12 -191 -35q-15 -3 -29 -3q-53 0 -75 44q-35 66 -50 137q-2 9 -2 17q0 35 37 45q229 59 555 69h4q57 0 74 -51q18 -59 27 -114q2 -14 2 -27q0 -51 -31 -92q-303 -373 -610 -776q119 29 205 41q12 2 22 2q57 0 74 -47 q27 -74 31 -121q1 -5 1 -10q0 -47 -55 -58q-211 -45 -374 -92q-35 -10 -60 -10q-37 0 -67 30q-45 45 -86 99q-31 39 -31 73z" />
<glyph unicode="[" horiz-adv-x="622" d="M-16 133q0 25 8 57q113 442 323 1033q18 53 80 61q80 10 223 16q59 2 80 -57q25 -68 29 -113q6 -53 -51 -61q-27 -4 -160 -18q-164 -451 -280 -840q29 2 88 8q66 6 86 -47q28 -78 28 -135q0 -33 -53 -43q-68 -12 -197 -39q-61 -12 -104 20q-12 10 -72 82q-29 35 -28 76z " />
<glyph unicode="\" horiz-adv-x="733" d="M182 1247q-4 72 64 74q74 4 136.5 -9t66.5 -81q12 -201 57 -599.5t80 -623.5q8 -57 -49 -65q-47 -6 -113 2q-53 6 -72 92q-39 176 -97 594t-73 616z" />
<glyph unicode="]" horiz-adv-x="651" d="M-74 133q0 35 43 45q57 14 164 35q133 446 273 842q-23 -2 -68 -8q-63 -8 -82 45q-12 37 -33 112q-8 53 53 66q92 18 240 28q61 4 90 -36q20 -27 56 -82q28 -50 8 -103q-172 -465 -334 -1020q-14 -51 -84 -63l-186 -31q-66 -10 -93 39q-47 90 -47 131z" />
<glyph unicode="^" horiz-adv-x="915" d="M143 791q-25 47 9 92q168 233 387 438q31 29 55 29q14 0 33 -13q57 -41 85.5 -73.5t30.5 -98.5q10 -248 50 -514q4 -29 -6 -40t-39 -9q-72 4 -103 14q-55 18 -67 70q-20 94 -43 311q-141 -152 -265 -297q-18 -23 -34 -22q-14 0 -33 22q-39 49 -60 91z" />
<glyph unicode="_" horiz-adv-x="880" d="M-88 -346q0 31 37 123q23 53 80 53h913q49 0 49 -29q0 -8 -4 -22q-10 -33 -37 -103q-25 -53 -78 -53h-917q-43 0 -43 31z" />
<glyph unicode="a" horiz-adv-x="980" d="M-80 166q227 510 578 1073q48 76 129 76h12q160 -12 270 -62q39 -19 39 -73q0 -12 -2 -25q-63 -440 -110 -1130q-4 -59 -60 -60q-100 0 -140 24.5t-40 96.5q0 55 8 231q-139 -23 -383 -75q-39 -72 -121 -234q-20 -39 -43 -39q-12 0 -34 11q-70 35 -99 67q-22 24 -22 51 t18 68zM379 539q158 25 239 30q20 258 48 475q-125 -210 -287 -505z" />
<glyph unicode="b" horiz-adv-x="948" d="M-27 182q0 23 11 66q35 152 227 753q-53 100 -53 140q0 33 39 53q229 121 481 121q168 0 231 -76q84 -102 95 -229q1 -11 1 -21q0 -134 -139 -258q-61 -55 -147 -110q100 -66 104 -201q2 -121 -108 -225q-74 -68 -201 -138q-119 -63 -221 -96q-49 -16 -74 -16 q-35 0 -76 32q-66 51 -125 117q-45 49 -45 88zM231 219q145 45 239 115q88 65 87 118v7q-4 47 -100 47q-66 0 -146 -31q-27 -86 -80 -256zM397 729q156 57 269 158q93 83 93 132q0 4 -1 7q-4 33 -68 33q-82 0 -196 -58q-54 -145 -97 -272z" />
<glyph unicode="c" horiz-adv-x="876" d="M-25 309q0 229 123 507t301 429q86 73 183 73q12 0 24 -1q152 -14 244 -100q65 -59 65 -167v-16q-4 -145 -51 -264q-18 -47 -49 -47q-12 0 -27 4q-141 33 -147 174q0 23 5 67t5 62q0 43 -24 53q-4 1 -9 1q-44 0 -135 -140q-94 -147 -151 -299q-76 -207 -76 -354 q0 -113 55 -113q53 0 160 119q59 68 143 68q33 -1 68 -13q45 -16 45 -53q0 -29 -27 -84q-53 -106 -157 -197q-81 -71 -193 -71q-20 0 -41 2q-106 10 -200 67q-86 51 -113 140q-20 66 -21 153z" />
<glyph unicode="d" horiz-adv-x="1001" d="M-33 182q0 33 15 82q92 342 223 748q-59 119 -60 149q0 31 39 53q164 92 361 93q311 0 407 -265q29 -82 29 -178q0 -258 -176 -502q-195 -274 -531 -399q-35 -12 -63 -12q-41 0 -80 29q-51 41 -117 108q-47 49 -47 94zM242 236q231 115 362 327q104 172 105 324 q0 39 -9 65q-29 80 -127 80q-37 0 -77 -14q-125 -340 -254 -782z" />
<glyph unicode="e" horiz-adv-x="788" d="M-39 225q45 203 248 811q-33 55 -49 135q-2 8 -2 15q0 32 37 43q229 66 591 78h4q58 0 76 -58q20 -72 25 -114v-7q0 -52 -55 -59q-166 -16 -322 -43q-33 -90 -104 -281q66 10 157 15h5q62 0 79 -47q23 -61 29 -119q1 -5 1 -10q0 -46 -52 -58q-111 -20 -324 -69 q-45 -127 -63 -187q117 23 245 33q7 1 14 1q56 0 72 -46q25 -63 31 -121q1 -6 1 -11q0 -47 -50 -58q-125 -27 -358 -86q-33 -10 -58 -11q-39 0 -71 33q-25 23 -82 88q-30 37 -30 88q0 21 5 45z" />
<glyph unicode="f" horiz-adv-x="778" d="M-59 143q51 281 266 897q-25 45 -47 131q-4 12 -4 23q0 23 39 35q205 61 577 78h4q58 0 83 -57q28 -63 28 -121q0 -52 -53 -60q-147 -18 -324 -45q-10 -29 -98 -276q96 12 151 14h5q59 0 78 -45q20 -47 30 -121q1 -7 1 -13q0 -45 -52 -55q-168 -31 -308 -65 q-70 -215 -141 -447q-14 -47 -49 -47q-27 0 -80 21.5t-78 40.5q-32 23 -32 73q0 18 4 39z" />
<glyph unicode="g" horiz-adv-x="905" d="M-29 324q0 240 135 526q141 301 332 426q61 40 143 40q22 0 46 -3q139 -18 221 -101q61 -61 65 -178v-22q0 -122 -41 -248q-14 -46 -56 -46q-6 0 -13 1q-158 22 -158 171v7q4 49 6 98v14q0 65 -18 70q-4 1 -9 1q-45 0 -130 -116q-93 -130 -168 -309q-84 -197 -84 -362 q0 -123 59 -123q90 0 205 236h-13q-135 0 -153 159v6q0 36 49 50q113 29 250 47q14 2 26 2q62 0 91 -41q25 -35 47 -82q16 -35 16 -62q0 -29 -18 -71q-74 -180 -174 -299q-137 -164 -289 -164q-127 0 -246 82q-78 55 -104 151q-16 61 -17 140z" />
<glyph unicode="h" horiz-adv-x="925" d="M-57 96q0 47 86 365q-10 23 -31 92q-4 16 -4 27q0 23 80 45q125 438 190 616q18 51 53 51q29 0 95 -35q57 -29 86 -51q39 -31 39 -57q0 -16 -11 -41q-74 -203 -145 -428q72 8 207 20q100 334 178 562q16 51 53 51q72 0 174 -82q35 -29 35 -57q0 -16 -8 -41 q-176 -485 -361 -1125q-14 -45 -41 -45q-10 0 -28 4q-84 25 -127 59q-31 25 -31 73q0 18 4 38q20 98 78 307q-74 -12 -219 -38q-72 -238 -117 -396q-12 -47 -43 -47q-66 0 -155 66q-37 27 -37 67z" />
<glyph unicode="i" horiz-adv-x="425" d="M-76 96q0 16 6 45q37 176 141.5 543t172.5 557q18 49 55 49q74 0 180 -84q39 -31 39 -57q0 -16 -10 -41q-172 -469 -348 -1098q-12 -47 -43 -47q-66 0 -156 66q-37 27 -37 67z" />
<glyph unicode="j" horiz-adv-x="856" d="M-20 211q-6 32 -6 68q0 79 28 176q27 92 74 92q14 0 35 -10q128 -66 128 -179q0 -10 -1 -20q-6 -65 -6 -99q0 -12 1 -20q4 -39 35 -41h2q72 0 201 404q96 301 180 669q12 51 54 52q35 0 96 -29q55 -25 87 -48.5t38 -43.5q1 -5 1 -13q0 -16 -5 -41q-217 -938 -449 -1112 q-82 -61 -176 -61q-54 0 -111 18q-174 57 -206 238z" />
<glyph unicode="k" horiz-adv-x="907" d="M-70 141q37 180 144 551q109 381 176 568q18 49 55 49q72 0 178 -84q39 -31 39 -56q0 -16 -10 -41q-37 -94 -125 -368q344 365 475 524q23 29 43 29q31 0 68 -60q31 -47 41 -86q4 -15 4 -31q0 -45 -33 -98q-115 -184 -471 -540q94 -227 184 -387q10 -20 11 -35 q0 -27 -33 -46.5t-94 -35.5q-23 -6 -41 -6q-59 0 -99 59q-102 160 -176 332l-108 -369q-12 -47 -41 -47t-81 23.5t-77 42.5q-33 26 -33 74q0 18 4 38z" />
<glyph unicode="l" horiz-adv-x="727" d="M-66 217q45 197 148 516q102 330 184 531q18 47 56 47q33 0 94 -29t88 -51q35 -29 35 -55q0 -16 -11 -43q-150 -389 -299 -859q96 20 234 31q7 1 13 1q55 0 73 -47q20 -52 31 -120q2 -15 3 -26q-1 -17 -7 -24q-10 -11 -46 -19q-123 -29 -358 -88q-37 -10 -61 -11 q-35 0 -68 33q-25 23 -84 88q-29 37 -29 85q0 19 4 40z" />
<glyph unicode="m" horiz-adv-x="1261" d="M-74 92q0 16 4 41q33 176 144 551q96 324 174 547q23 63 74 63q12 0 28 -2q82 -12 189 -57q49 -20 63 -55q10 -23 10 -68v-16q-2 -94 -2 -459q178 336 353 616q37 57 86 58q23 0 61 -11q117 -33 205 -79q43 -23 43 -62q0 -20 -10 -51q-182 -530 -332 -1088 q-14 -55 -51 -55q-57 0 -140 58q-37 27 -37 69q0 18 5 43q49 240 184 668q-145 -264 -369 -680q-27 -51 -51 -51q-47 0 -115 34q-53 27 -57 113q-8 159 -8 356q0 98 2 205q-133 -422 -225 -770q-12 -49 -45 -49q-59 0 -144 59q-39 29 -39 72z" />
<glyph unicode="n" horiz-adv-x="958" d="M-68 150q31 141 138 503q109 381 180 584q18 53 65 53q14 0 31 -4q80 -25 164 -67q59 -31 61 -121q7 -248 25 -561q84 336 209 704q16 51 57 51q14 0 33 -6q66 -20 123 -59q35 -23 35 -58q0 -20 -11 -51q-170 -510 -325 -1089q-14 -53 -62 -54q-47 0 -147 54 q-55 29 -72 102q-49 213 -74 578q-82 -266 -204 -695q-12 -45 -39 -45t-81 23.5t-79 44.5q-31 26 -31 74q0 18 4 39z" />
<glyph unicode="o" horiz-adv-x="948" d="M12 356q0 227 111 478q115 258 287 401q79 65 183 65h3q59 0 136 -29.5t116 -68.5q76 -76 82 -196q1 -20 1 -41q0 -151 -50 -357q-66 -266 -179 -436q-139 -207 -315 -207q-143 0 -248 74q-76 53 -104 147q-23 76 -23 170zM342 182q55 0 127 112t129 284q76 223 76 389 q0 90 -33 100q-4 1 -9 1q-45 0 -128 -122q-86 -127 -144 -278q-75 -200 -75 -359q0 -127 57 -127z" />
<glyph unicode="p" horiz-adv-x="966" d="M-27 131q47 225 240 842q-59 117 -59 151q0 29 39 52q244 137 491 137q156 0 219 -78q111 -137 111 -289q0 -119 -123 -254q-90 -100 -255 -192.5t-331 -141.5q-63 -199 -108 -356q-12 -45 -43 -45q-70 0 -152 61q-33 26 -33 75q0 18 4 38zM401 651q176 63 287 180 q89 93 89 160q0 6 -1 13q-6 32 -70 32h-4q-82 0 -180 -45q-47 -123 -121 -340z" />
<glyph unicode="q" horiz-adv-x="946" d="M12 356q0 227 111 478q115 258 287 401q79 65 183 65h3q59 0 136 -29.5t116 -68.5q72 -72 80 -196q1 -28 1 -56q0 -164 -48 -358q-66 -244 -183 -418q21 -38 62 -108q16 -25 16 -41q0 -20 -33 -43q-45 -33 -102 -45q-11 -2 -22 -2q-55 0 -101 61q-57 -29 -137 -29 q-22 0 -45 2q-111 10 -197 70q-76 53 -104 147q-23 76 -23 170zM326 186q7 -3 16 -3q20 0 45 18q-35 57 -35 80q0 27 33 43q53 27 125 43q43 84 86 211q76 225 76 391q0 88 -31 98q-4 1 -9 1q-45 0 -128 -122q-86 -127 -144 -278q-75 -200 -75 -359q0 -106 41 -123z" />
<glyph unicode="r" horiz-adv-x="993" d="M-27 131q45 227 242 842q-59 113 -59 151q0 31 37 52q244 137 491 137q156 0 219 -78q111 -137 111 -293q0 -131 -121 -250q-129 -125 -332 -225q113 -188 252 -352q20 -23 21 -41q0 -18 -29 -42t-86 -42q-23 -6 -43 -6q-51 0 -101 45q-139 127 -272 360 q-72 -215 -119 -377q-12 -45 -43 -45q-10 0 -26 4q-72 18 -111 47q-35 25 -35 75q0 18 4 38zM397 659q168 63 289 183q95 95 95 150q0 6 -1 12q-8 38 -82 38h-4q-80 0 -172 -45q-29 -70 -125 -338z" />
<glyph unicode="s" horiz-adv-x="821" d="M-96 281q-1 27 30 43q39 20 91 20q68 0 104 -33q130 -114 227 -114h2q70 0 70 39q0 35 -100 122q-139 121 -172 160q-80 92 -80 215q0 78 35 158q45 102 131 204.5t176 159.5q68 41 137 41q61 0 135 -39.5t117 -89.5q48 -55 48 -141q0 -22 -3 -47q-25 -174 -109 -338 q-20 -39 -47 -39q-12 0 -30 8q-137 59 -138 158q0 16 4.5 32.5t34.5 119.5q25 80 25 106q0 14 -6 16q-5 3 -10 3q-35 0 -115 -95q-98 -117 -99 -217q0 -49 25 -83t195 -187q116 -105 116 -188q0 -40 -20 -78q-119 -229 -350 -236h-11q-210 0 -370 227q-43 61 -43 93z" />
<glyph unicode="t" horiz-adv-x="907" d="M156 1196q0 25 39 33q324 74 690 80q55 0 78 -33q41 -61 51 -135q1 -12 1 -21q0 -18 -5 -26q-8 -12 -43 -13q-70 -6 -224 -22q-178 -512 -329 -1055q-12 -45 -41 -45q-66 0 -156 66q-33 24 -33 75q0 18 4 39q70 346 246 877q-49 -8 -129 -25q-13 -3 -24 -3q-38 0 -64 36 q-16 25 -38.5 85t-22.5 87z" />
<glyph unicode="u" horiz-adv-x="923" d="M2 309q0 164 88 445q49 160 174 479q18 47 53 47q31 0 86 -31q47 -25 74 -51q37 -37 37 -80q0 -25 -12 -57q-240 -608 -240 -791q0 -70 35 -82q6 -2 12 -2q142 0 430 1059q14 51 54 51q70 0 172 -79q36 -28 36 -55q0 -15 -8 -42q-115 -426 -178 -600q-154 -420 -319 -516 q-65 -38 -161 -38q-13 0 -28 1q-106 6 -192 70q-113 84 -113 272z" />
<glyph unicode="v" horiz-adv-x="954" d="M143 432q0 332 37 791q4 63 60 63q63 0 122 -24q72 -29 70 -119q-10 -240 -26 -787q145 297 428 910q18 41 53 41q16 0 37 -11q131 -61 131 -129q-1 -24 -15 -63q-63 -172 -235 -535q-160 -332 -283 -563q-33 -61 -78 -61q-20 0 -47 10q-78 27 -164 82q-78 51 -83 166 q-6 106 -7 229z" />
<glyph unicode="w" horiz-adv-x="1312" d="M27 115q29 475 157 1112q12 59 52 59q10 0 24 -2q114 -28 148 -64q22 -24 22 -73q0 -27 -6 -62q-41 -202 -127 -651q256 502 377 696q24 40 65 40q11 0 23 -3q33 -8 108 -43q33 -14 37 -39q4 -14 -2 -57q-4 -31 -98 -582q276 588 399 809q27 47 51 48q14 0 43 -15 q59 -29 103 -71q24 -24 24 -57q0 -36 -20 -77q-324 -645 -516 -1079q-23 -51 -68 -51q-16 0 -41 6q-72 16 -136 46q-62 29 -62 109v5q4 254 20 424q-96 -188 -297 -553q-23 -37 -65 -37q-11 0 -23 2q-92 20 -156 55q-37 20 -37 88q0 8 1 17z" />
<glyph unicode="x" horiz-adv-x="966" d="M-90 123q0 29 27 70q117 178 370 489q-37 137 -76 276q-51 197 -51 271q0 45 53 49q35 3 67 3q42 0 79 -5q72 -8 90 -89t59 -257q111 137 291 356q27 31 55 31q63 0 134 -141q12 -25 12 -50q0 -39 -33 -77q-231 -274 -377 -455l135 -551q6 -20 7 -33q0 -33 -43 -39 q-34 -5 -70 -5t-74 5q-61 8 -90 84q-16 45 -84 297q-84 -106 -289 -375q-22 -28 -44 -28h-1q-53 0 -133 129q-14 25 -14 45z" />
<glyph unicode="y" horiz-adv-x="888" d="M152 1233q-1 7 -1 14q0 44 48 51q39 6 73 6q36 0 65 -7q56 -13 73 -93q33 -158 65 -420q141 213 316 498q23 35 45 35q16 0 41 -14q61 -39 94 -84q18 -25 18 -50q1 -24 -22 -69q-82 -166 -457 -713q-66 -203 -121 -397q-12 -45 -41 -45t-80 23.5t-75 43.5q-35 29 -35 68 q0 18 6 47q31 135 94 365q-20 168 -106 741z" />
<glyph unicode="z" horiz-adv-x="768" d="M-94 147q0 27 16 52q207 331 613 827q-66 -12 -191 -35q-15 -3 -29 -3q-53 0 -75 44q-35 66 -50 137q-2 9 -2 17q0 35 37 45q229 59 555 69h4q57 0 74 -51q18 -59 27 -114q2 -14 2 -27q0 -51 -31 -92q-303 -373 -610 -776q119 29 205 41q12 2 22 2q57 0 74 -47 q27 -74 31 -121q1 -5 1 -10q0 -47 -55 -58q-211 -45 -374 -92q-35 -10 -60 -10q-37 0 -67 30q-45 45 -86 99q-31 39 -31 73z" />
<glyph unicode="{" horiz-adv-x="694" d="M51 668q-10 55 62 75q59 8 118 17q78 246 156 463q18 53 82 61q80 10 221 16q80 2 105 -139q2 -14 4 -31q6 -53 -48.5 -60t-162.5 -19q-152 -418 -279 -840q29 2 88 8q63 6 84 -46.5t29 -113.5q8 -55 -51 -65q-8 -2 -119 -27q-74 -16 -117 -16q-41 0 -72.5 32.5 t-66.5 73.5q-29 35 -29 76q0 25 8 57q31 117 84 299q-25 2 -47 39q-31 53 -49 140z" />
<glyph unicode="|" horiz-adv-x="733" d="M51 -8q0 18 6 49q37 176 172.5 646t204.5 659q18 49 53 49q14 0 35 -9q158 -69 158 -120q0 -16 -10 -43q-70 -184 -211 -637q-137 -436 -201 -666q-12 -45 -41 -45q-12 0 -29 4q-49 14 -102 49q-35 23 -35 64z" />
<glyph unicode="}" horiz-adv-x="772" d="M-74 131q0 35 43 47q68 20 164 35q133 446 273 842q-23 -2 -68 -8q-66 -8 -84 45q-23 61 -33 112q-10 53 55 66q88 16 240 28q61 4 90 -36q20 -27 56 -82q26 -50 8 -103q-51 -143 -119 -334q59 0 78 -57q31 -98 30 -145q0 -37 -53 -45q-45 -6 -143 -21 q-82 -258 -127 -418q-14 -51 -86 -63l-187 -31q-63 -10 -90 39q-47 90 -47 129z" />
<glyph unicode="&#xad;" d="M49 649q0 41 49 51q217 45 492 45q59 0 76.5 -51t27.5 -112q8 -49 -51 -54q-254 -14 -455 -55q-55 -12 -86 39q-53 90 -53 137z" />
<glyph unicode="&#x2000;" horiz-adv-x="765" />
<glyph unicode="&#x2001;" horiz-adv-x="1530" />
<glyph unicode="&#x2002;" horiz-adv-x="765" />
<glyph unicode="&#x2003;" horiz-adv-x="1530" />
<glyph unicode="&#x2004;" horiz-adv-x="510" />
<glyph unicode="&#x2005;" horiz-adv-x="382" />
<glyph unicode="&#x2006;" horiz-adv-x="255" />
<glyph unicode="&#x2007;" horiz-adv-x="255" />
<glyph unicode="&#x2008;" horiz-adv-x="191" />
<glyph unicode="&#x2009;" horiz-adv-x="306" />
<glyph unicode="&#x200a;" horiz-adv-x="85" />
<glyph unicode="&#x2010;" d="M49 649q0 41 49 51q217 45 492 45q59 0 76.5 -51t27.5 -112q8 -49 -51 -54q-254 -14 -455 -55q-55 -12 -86 39q-53 90 -53 137z" />
<glyph unicode="&#x2011;" d="M49 649q0 41 49 51q217 45 492 45q59 0 76.5 -51t27.5 -112q8 -49 -51 -54q-254 -14 -455 -55q-55 -12 -86 39q-53 90 -53 137z" />
<glyph unicode="&#x2012;" d="M49 649q0 41 49 51q217 45 492 45q59 0 76.5 -51t27.5 -112q8 -49 -51 -54q-254 -14 -455 -55q-55 -12 -86 39q-53 90 -53 137z" />
<glyph unicode="&#x2013;" horiz-adv-x="974" d="M53 647q1 43 62 53q270 45 614 45q72 0 97.5 -55t33.5 -108q8 -49 -65 -54q-315 -14 -568 -55q-72 -12 -108 39q-66 92 -66 135z" />
<glyph unicode="&#x2014;" horiz-adv-x="1136" d="M51 649q0 41 74 51q328 45 739 45q90 0 117 -53q41 -82 41 -127q0 -35 -78 -37q-379 -14 -682 -55q-86 -12 -131 39q-80 90 -80 137z" />
<glyph unicode="&#x2018;" horiz-adv-x="536" d="M238 1354q-4 70 36 102q70 53 123 53q37 0 41 -47q6 -53 45 -264q35 -190 35 -237q0 -39 -47 -33q-45 6 -89 24.5t-67 75.5q-68 166 -77 326z" />
<glyph unicode="&#x2019;" horiz-adv-x="475" d="M219 981q0 10 6 27q84 248 135 469q10 41 41 41q53 0 121 -68q39 -39 25 -107q-33 -167 -119 -321q-27 -47 -70 -59q-35 -10 -94 -13q-45 -2 -45 31z" />
<glyph unicode="&#x201c;" horiz-adv-x="794" d="M188 1356q-12 70 25 106q70 68 123 68q29 0 39 -43q37 -168 131 -469q4 -16 4 -27q0 -33 -41 -30q-78 4 -109.5 19t-58.5 62q-80 135 -113 314zM518 1354q-6 70 37 102q70 53 123 53q37 0 41 -47q6 -53 45 -264q35 -190 35 -237q0 -39 -47 -33q-45 6 -88 24.5t-68 75.5 q-63 147 -78 326z" />
<glyph unicode="&#x201d;" horiz-adv-x="786" d="M219 981q0 10 6 27q84 248 135 469q10 41 41 41q53 0 121 -68q39 -39 25 -107q-33 -167 -119 -321q-27 -47 -70 -59q-35 -10 -94 -13q-45 -2 -45 31zM510 979q0 12 8 31q113 238 187 450q12 37 40 37q49 0 117 -80q33 -41 12 -108q-51 -164 -149 -299q-39 -53 -80 -60 q-47 -8 -96 -2q-39 4 -39 31z" />
<glyph unicode="&#x2026;" horiz-adv-x="1538" d="M-31 90q0 70 46 125t116 55q25 0 51 -8q88 -31 88 -121q0 -33 -12 -65q-47 -121 -156 -123q-57 -2 -95 37t-38 100zM512 90q0 70 46 125t116 55q25 0 51 -8q88 -31 88 -121q0 -33 -12 -65q-47 -121 -156 -123q-57 -2 -95 37t-38 100zM1055 90q0 70 46 125t116 55 q25 0 51 -8q88 -31 88 -121q0 -33 -13 -65q-47 -121 -155 -123q-57 -2 -95 37t-38 100z" />
<glyph unicode="&#x202f;" horiz-adv-x="306" />
<glyph unicode="&#x205f;" horiz-adv-x="382" />
<glyph unicode="&#xe000;" horiz-adv-x="1320" d="M0 0v1321h1321v-1321h-1321z" />
</font>
</defs>
</svg>
