<?xml version="1.0" standalone="no"?>
<!DOCTYPE svg PUBLIC "-//W3C//DTD SVG 1.1//EN" "http://www.w3.org/Graphics/SVG/1.1/DTD/svg11.dtd" >
<svg xmlns="http://www.w3.org/2000/svg">
<metadata></metadata>
<defs>
<font id="stencilregular" horiz-adv-x="1177" >
<font-face units-per-em="2048" ascent="1638" descent="-410" />
<missing-glyph horiz-adv-x="512" />
<glyph horiz-adv-x="0" />
<glyph horiz-adv-x="682" />
<glyph unicode=" "  horiz-adv-x="512" />
<glyph unicode="&#x09;" horiz-adv-x="512" />
<glyph unicode="&#xa0;" horiz-adv-x="512" />
<glyph unicode="!" horiz-adv-x="691" d="M346 1393q88 0 145 -70t57 -178q0 -45 -11 -93.5t-43 -147.5q-46 -140 -64.5 -223.5t-22.5 -163.5q-2 -41 -15.5 -58t-43.5 -17q-26 0 -38.5 14.5t-14.5 47.5q-6 67 -10 94.5t-19 85.5q-24 94 -62 202q-45 127 -56.5 174t-11.5 103q0 90 55 158q57 72 155 72zM341 362 q80 0 137 -57t57 -137q0 -81 -57 -138t-137 -57q-81 0 -138 57t-57 138q0 80 57 137t138 57z" />
<glyph unicode="&#x22;" horiz-adv-x="840" d="M326 817h-193l-49 548h291zM707 817h-193l-49 548h292z" />
<glyph unicode="#" horiz-adv-x="1176" d="M443 1365h177l-72 -327h176l-31 -137h-176l-93 -424h177l-31 -137h-177l-75 -340h-178l76 340h-220l31 137h220l92 424h-219l31 137h219zM870 1365h177l-72 -327h219l-31 -137h-219l-93 -424h219l-31 -137h-219l-76 -340h-181z" />
<glyph unicode="$" d="M534 1496h85v-130q128 -9 217 -51q78 -37 121.5 -97.5t43.5 -132.5q0 -68 -43.5 -110t-113.5 -42q-63 0 -105 41t-42 103q0 44 21 78l21 34q10 16 9 23q-2 20 -41 35.5t-88 15.5v-278l-85 46v225q-41 -9 -66 -29q-54 -43 -54 -112q0 -74 73 -129q49 -38 209 -112 q115 -53 166.5 -85t89.5 -74q47 -50 73 -124.5t26 -160.5q0 -105 -42.5 -192.5t-122.5 -147.5q-100 -74 -267 -91v-150h-85v150q-136 8 -235 58q-81 41 -127 107t-46 141q0 74 48 124t119 50q63 0 108.5 -47t45.5 -112q0 -40 -20 -76.5t-52 -53.5q-25 -13 -24 -23t23 -24 t54 -25q55 -19 106 -19v313l85 -40v-272q56 5 93 27q40 23 63 60t23 78q0 42 -19 74t-60 62q-24 16 -58.5 34t-130.5 64q-119 56 -179 96t-101 91q-89 109 -89 257q0 111 54.5 207t149.5 153q76 46 169 60v133z" />
<glyph unicode="%" horiz-adv-x="1491" d="M403 1378l22 1q122 0 208 -72q103 -86 103 -231q0 -152 -110 -232q-84 -60 -196 -60q-7 0 -27 1v74q38 9 52.5 35t14.5 85v221q0 44 -20 73q-11 17 -47 31v74zM352 1378v-74q-38 -14 -51 -31q-21 -29 -21 -73v-221q0 -59 15.5 -85t56.5 -35v-74q-21 -1 -29 -1 q-115 0 -198 60q-111 80 -111 232q0 115 66 194q91 109 249 109zM1019 1365h117l-662 -1365h-117zM1141 580l23 1q125 0 211 -72q103 -86 103 -231q0 -152 -110 -232q-85 -60 -198 -60q-5 0 -23 1v74q37 10 51 36t14 84v221q0 44 -21 73q-12 17 -50 31v74zM1089 580v-74 q-36 -14 -47 -31q-20 -28 -20 -73v-221q0 -58 14 -84t51 -36v-74q-19 -1 -25 -1q-111 0 -196 60q-110 80 -110 232q0 145 103 231q87 72 208 72z" />
<glyph unicode="&#x26;" horiz-adv-x="1427" d="M878 0l-456 818q-21 39 -37.5 110.5t-16.5 126.5q0 89 51.5 167.5t140.5 124.5q93 48 188 48q27 0 74 -6v-124q-32 -11 -48.5 -34t-16.5 -56q0 -46 26 -95l485 -902q16 -31 29 -44.5t41 -30.5q20 -11 28 -22t8 -27q0 -27 -18.5 -40.5t-53.5 -13.5h-424zM910 1265v112 q38 -7 60.5 -17t47.5 -31q44 -37 68.5 -87.5t24.5 -106.5q0 -82 -51 -158q-31 -45 -87 -82l-48 93q40 38 55 68t15 70q0 48 -20 80.5t-65 58.5zM1189 492l-51 96q30 47 30 93q0 39 -17 69l-16 30q-9 16 -9 30q0 27 33.5 46t81.5 19q33 0 51.5 -29.5t18.5 -82.5 q0 -74 -26.5 -133t-95.5 -138zM376 753l46 -93q-26 -35 -26 -57q0 -21 26 -70l182 -338q8 -15 25 -30q16 -13 48 -15q7 0 11 -1q6 0 19 -3l53 -94q-61 -38 -131 -58.5t-138 -20.5q-220 0 -349 159q-87 106 -87 231q0 155 137 280q85 77 184 110z" />
<glyph unicode="'" horiz-adv-x="459" d="M326 817h-193l-49 548h291z" />
<glyph unicode="(" horiz-adv-x="858" d="M664 1394q19 0 39 -19.5t19 -37.5q-1 -20 -20 -55q-55 -102 -85 -280q-23 -134 -31.5 -231.5t-8.5 -234.5q0 -138 8.5 -235.5t31.5 -231.5q30 -178 85 -280q20 -37 20 -56q0 -18 -19 -37t-36 -19q-30 0 -97 57t-130 134q-107 135 -181 310q-71 172 -71 358q0 185 71 357 q73 173 181 310q58 72 127.5 131.5t96.5 59.5z" />
<glyph unicode=")" horiz-adv-x="858" d="M197 1395q26 0 96 -60.5t127 -131.5q108 -136 181 -310q71 -172 71 -357q0 -186 -71 -357q-74 -176 -181 -311q-62 -77 -129.5 -134t-97.5 -57q-15 0 -34 17q-22 19 -21 40q1 20 20 55q55 103 86 280q22 133 30.5 231t8.5 236q0 137 -8.5 235.5t-30.5 231.5 q-30 175 -86 280q-20 37 -20 56t20 37.5t39 18.5z" />
<glyph unicode="*" d="M588 1051l-123 204q-16 27 -16 52q0 32 20 53q17 17 45 24.5t74 7.5q47 0 74.5 -7.5t44.5 -24.5q20 -21 20 -53q0 -25 -16 -52zM627 1023l156 180q31 36 70 36q36 0 61 -31q19 -24 36.5 -76t17.5 -85q0 -35 -23.5 -58t-59.5 -23q-12 0 -27 3zM612 977l219 -93 q28 -12 43.5 -32.5t15.5 -44.5q0 -25 -14.5 -46.5t-50.5 -50.5q-69 -54 -112 -54q-34 0 -55.5 22.5t-25.5 61.5zM564 977l-20 -237q-4 -38 -25.5 -61t-55.5 -23q-43 0 -112 54q-36 29 -50.5 50.5t-14.5 46.5t15.5 45t43.5 32zM549 1023l-232 -54q-14 -3 -26 -3 q-36 0 -59.5 23t-23.5 57q0 33 17.5 85t36.5 76q24 31 61 31q40 0 70 -35z" />
<glyph unicode="+" d="M696 574v-357q0 -23 -8.5 -32t-31.5 -9h-142q-23 0 -31.5 9t-8.5 32v357h-356q-23 0 -32 9t-9 33v131q0 24 9 33t32 9h356v362q0 23 8.5 32t31.5 9h142q23 0 31.5 -9t8.5 -32v-362h362q24 0 33 -9t9 -33v-131q0 -24 -9 -33t-33 -9h-362z" />
<glyph unicode="," horiz-adv-x="685" d="M339 359q86 0 147 -67q29 -31 46 -75.5t17 -89.5q0 -95 -62 -192.5t-166 -165.5q-88 -58 -138 -58q-20 0 -33 12t-13 32q0 30 38 50q91 47 133 93q40 43 40 63q0 19 -30 23l-13 2l-15 1q-65 10 -105.5 60.5t-40.5 122.5q0 74 50 128q57 61 145 61z" />
<glyph unicode="-" horiz-adv-x="512" d="M512 748v-135q0 -23 -9 -31.5t-32 -8.5h-430q-23 0 -32 8.5t-9 31.5v135q0 23 9 31.5t32 8.5h430q23 0 32 -8.5t9 -31.5z" />
<glyph unicode="." horiz-adv-x="661" d="M331 362q80 0 137 -57t57 -137q0 -81 -57 -138t-137 -57q-81 0 -138 57t-57 138q0 80 57 137t138 57z" />
<glyph unicode="/" horiz-adv-x="680" d="M452 1365h245l-583 -1661h-246z" />
<glyph unicode="0" horiz-adv-x="1176" d="M550 -17q-105 13 -186.5 59.5t-151.5 134.5q-77 96 -117 225t-40 281q0 151 40 280t117 225q70 88 151.5 134.5t186.5 59.5v-104q-28 -9 -39 -15.5t-21 -19.5q-29 -37 -29 -107v-907q0 -70 29 -107q10 -13 21 -19.5t39 -15.5v-104zM627 -17v104q28 9 39 15.5t21 19.5 q29 37 29 107v907q0 70 -29 107q-10 13 -21 19.5t-39 15.5v104q105 -13 186.5 -59.5t151.5 -134.5q77 -96 117 -225t40 -280q0 -152 -40 -281t-117 -225q-70 -88 -151.5 -134.5t-186.5 -59.5z" />
<glyph unicode="1" d="M782 1365v-1175q0 -39 15 -56q8 -10 15 -12.5t46 -12.5q48 -11 48 -55q0 -26 -26 -42q-19 -12 -63 -12h-34h-384h-33q-45 0 -63 12q-26 16 -26 42q0 44 48 55q39 10 46 12.5t14 12.5q15 17 15 56v936q0 52 -10.5 76t-33.5 27l-35 5q-47 7 -47 48q0 32 30 50q15 8 62 11z " />
<glyph unicode="2" d="M440 1379v-106q-28 -6 -45.5 -17t-16.5 -22q2 -14 27 -30q45 -31 65 -67t20 -87q0 -76 -57.5 -131t-135.5 -55q-85 0 -142 58.5t-57 145.5q0 82 49.5 153t134.5 112q54 26 158 46zM528 1273v109h27q104 0 198.5 -34.5t157.5 -95.5q106 -103 106 -260q0 -135 -79.5 -239.5 t-225.5 -163.5l-131 -52q-57 -23 -161 -80l-30 -17q-40 0 -77 -10.5t-107 -40.5q36 48 72.5 83t109.5 92q94 73 126.5 105.5t55.5 75.5q23 44 33.5 103.5t10.5 150.5q0 160 -28 216q-11 22 -23.5 34t-34.5 24zM1009 444q22 1 36.5 -18t14.5 -50q0 -69 -36.5 -154.5 t-87.5 -137.5q-44 -45 -109 -73t-123 -28q-70 0 -148 23l-132 39q-111 32 -144 32q-44 0 -93 -42q-31 -26 -47 -26q-23 0 -35.5 15t-12.5 43q0 54 25 110t68 98q91 89 248 89q73 0 197 -23q181 -34 236 -34q48 0 71 24q8 9 12.5 20.5t11.5 41.5q11 49 48 51z" />
<glyph unicode="3" d="M466 1377v-101q-39 -9 -56 -19q-11 -6 -18.5 -16t-7.5 -17q1 -16 21 -32l46 -37q33 -27 33 -95q0 -73 -52.5 -125t-126.5 -52t-124 53.5t-50 132.5q0 68 35.5 129.5t99.5 104.5q74 50 200 74zM767 698q87 -26 130 -46.5t76 -50.5q44 -41 70 -104t26 -131 q0 -155 -106 -256q-65 -62 -158.5 -94.5t-205.5 -32.5l-44 1v105q56 16 81 47q15 18 21 38.5t6 54.5v287q0 42 -4 61t-18 37q-28 37 -88 40q-40 2 -53 10q-22 14 -22 42t15.5 39t58.5 15q112 10 112 113l-1 39v226q0 63 -24 93.5t-84 44.5v106h28q96 0 185 -27t152 -75 q62 -47 94.5 -111.5t32.5 -138.5q0 -133 -85 -223q-37 -39 -78.5 -62t-116.5 -47zM466 89v-105q-111 14 -190 49q-90 40 -139.5 106.5t-49.5 148.5q0 84 54 140.5t134 56.5q88 0 146 -70q41 -50 41 -107q0 -41 -21 -80t-56 -64q-32 -23 -32 -35q0 -16 34 -28t79 -12z" />
<glyph unicode="4" horiz-adv-x="1174" d="M549 1108l157 217q19 27 34 33.5t55 6.5h87q36 0 43 -13q6 -13 6 -42v-895h125q50 0 50 -48q0 -51 -56 -51h-119v-127q0 -38 15 -56q8 -9 15 -11.5t46 -12.5q48 -11 48 -55q0 -26 -26 -42q-19 -12 -64 -12h-33h-384h-33q-45 0 -63 12q-26 16 -26 42q0 44 48 55 q38 10 45.5 12.5t14.5 11.5q15 18 15 56v919zM470 1000v-148l-314 -437h314v-99h-349q-43 0 -58.5 13t-15.5 48q0 43 34 90l15 21z" />
<glyph unicode="5" horiz-adv-x="1178" d="M203 1051l28 331q33 -4 39 -5l202 -27q107 -15 256 -15q100 0 162 10t130 37q-21 -69 -46 -113t-70 -89q-48 -48 -106.5 -82t-116.5 -47q-88 -20 -228 -20q-127 0 -250 20zM196 975l92 -10l-17 -208q59 49 105 74t102 39v-141q-107 -25 -180 -69q-48 -30 -70 -30 q-27 0 -42.5 14.5t-15.5 39.5q0 12 1 28zM562 729v145q103 0 173 -16t134 -54q201 -118 201 -366q0 -119 -46 -214t-131 -154q-60 -40 -139 -63.5t-158 -23.5h-31v113q31 10 49.5 25.5t30.5 43.5q8 16 13.5 52t5.5 69v256q0 88 -21 126.5t-81 60.5zM478 96v-110 q-105 7 -195 54q-85 44 -130.5 107.5t-45.5 138.5q0 87 55.5 145t139.5 58q72 0 124.5 -52t52.5 -123q0 -40 -20 -81.5t-49 -63.5q-23 -17 -23 -28q0 -16 24 -28t67 -17z" />
<glyph unicode="6" d="M590 1382v-101q-55 -17 -78.5 -50.5t-23.5 -94.5v-916q0 -48 3 -66.5t14 -32.5q16 -21 62 -33v-105q-96 11 -180 57.5t-150 125.5q-74 89 -114.5 226.5t-40.5 298.5q0 343 197 544q69 70 150.5 108.5t160.5 38.5zM665 1281v101q99 0 201 -48q86 -41 134.5 -106.5 t48.5 -141.5q0 -83 -56 -139t-140 -56q-74 0 -126 48t-52 115q0 53 45 106q21 24 28 36.5t7 26.5q0 47 -90 58zM567 625v115q109 60 211 60q62 0 124.5 -24t109.5 -66q52 -48 81 -116.5t29 -145.5q0 -102 -44 -200.5t-116 -158.5q-59 -48 -139 -77t-156 -29h-25v105 q40 10 57 32t17 64v374q0 45 -19 71t-50 24q-31 -1 -80 -28z" />
<glyph unicode="7" horiz-adv-x="1176" d="M136 929l63 426h74l-15 -116q78 76 146 109.5t147 33.5q36 0 64 -5t81 -22q82 -25 110 -36q60 -23 97 -25q23 -1 46 25l11 14q16 18 32 18q14 0 25 -11.5t11 -26.5q0 -28 -18 -77.5t-43 -92.5q-41 -71 -101.5 -103.5t-148.5 -32.5q-38 0 -66.5 5t-158.5 36 q-127 30 -182 30q-50 0 -73.5 -31t-23.5 -96v-22h-77zM875 964q-65 -127 -91 -214q-40 -133 -40 -237q0 -41 6 -78l19 -111q9 -53 9 -104q0 -114 -70 -178q-64 -59 -148 -59q-96 0 -157.5 75t-61.5 191q0 120 71 248q22 41 55.5 84t110.5 130q80 90 116.5 137t52.5 81 q55 5 128 35z" />
<glyph unicode="8" d="M553 1285q-42 -22 -54 -47t-12 -92v-276q0 -33 12 -63q9 -20 20.5 -31t33.5 -20v-105q-36 -14 -51 -39t-15 -71v-342q0 -40 13 -69q8 -19 19 -28t33 -15v-104l-20 1q-88 0 -180 21q-56 13 -92.5 29.5t-70.5 44.5q-113 95 -113 255q0 89 35.5 163t101.5 123q37 28 77.5 46 t110.5 39q-68 20 -107.5 38.5t-73.5 46.5q-105 88 -105 236q0 97 48 176.5t133 123.5q95 49 257 56v-97zM622 1285v97q163 -7 258 -56q85 -44 133 -123.5t48 -176.5q0 -148 -105 -236q-34 -28 -73.5 -46.5t-107.5 -38.5q70 -21 110.5 -39t77.5 -46q66 -49 101.5 -123 t35.5 -163q0 -160 -113 -255q-34 -29 -70.5 -45.5t-92.5 -28.5q-79 -17 -181 -21l-14 -1v104q22 6 33 15t19 28q13 29 13 69v342q0 9 -6.5 31.5t-12.5 36.5q-8 15 -19 24t-34 18v105q24 10 35.5 20.5t18.5 30.5q4 10 11 35t7 28v276q0 11 -6 36l-11 55q-10 25 -55 48z" />
<glyph unicode="9" d="M587 -17v101q32 10 48.5 21t28.5 32q25 42 25 92v923q0 46 -3 65.5t-14 33.5q-16 21 -62 33v98q96 -10 180 -56.5t150 -126.5q74 -88 114.5 -226t40.5 -299q0 -344 -197 -544q-69 -70 -150.5 -108.5t-160.5 -38.5zM512 84v-101q-99 0 -201 48q-86 41 -134.5 106.5 t-48.5 141.5q0 83 56 139t140 56q74 0 126.5 -48.5t52.5 -117.5q0 -47 -23 -80l-32 -46q-13 -18 -13 -35q0 -29 31 -50q15 -10 46 -13zM610 740v-115q-109 -60 -211 -60q-62 0 -124.5 24t-109.5 66q-52 48 -81 116.5t-29 146.5q0 112 51.5 216t136.5 163q124 85 292 85v-98 q-39 -10 -56.5 -32t-17.5 -64v-381q0 -45 19 -70.5t51 -24.5q30 1 79 28z" />
<glyph unicode=":" horiz-adv-x="661" d="M331 1015q80 0 137 -57t57 -137q0 -81 -57 -138t-137 -57q-81 0 -138 57t-57 138q0 80 57 137t138 57zM331 362q80 0 137 -57t57 -137q0 -81 -57 -138t-137 -57q-81 0 -138 57t-57 138q0 80 57 137t138 57z" />
<glyph unicode=";" horiz-adv-x="685" d="M339 359q86 0 147 -67q29 -31 46 -75.5t17 -89.5q0 -95 -62 -192.5t-166 -165.5q-88 -58 -138 -58q-20 0 -33 12t-13 32q0 30 38 50q91 47 133 93q40 43 40 63q0 19 -30 23l-13 2l-15 1q-65 10 -105.5 60.5t-40.5 122.5q0 74 50 128q57 61 145 61zM348 1015q80 0 137 -57 t57 -137q0 -81 -57 -138t-137 -57q-81 0 -138 57t-57 138q0 80 57 137t138 57z" />
<glyph unicode="&#x3c;" horiz-adv-x="867" d="M867 1308v-141l-487 -305l487 -333v-374l-867 595v19z" />
<glyph unicode="=" d="M1100 957v-133q0 -23 -9 -32t-32 -9h-941q-23 0 -32 9t-9 32v133q0 23 9 32t32 9h941q23 0 32 -9t9 -32zM1100 544v-133q0 -23 -9 -32t-32 -9h-941q-23 0 -32 9t-9 32v133q0 23 9 32t32 9h941q23 0 32 -9t9 -32z" />
<glyph unicode="&#x3e;" horiz-adv-x="867" d="M0 155v141l487 305l-487 333v374l867 -596v-18z" />
<glyph unicode="?" horiz-adv-x="1105" d="M516 1392v-110q-28 -4 -38 -12t-10 -26q0 -17 5 -31l9 -23q8 -22 8 -48q0 -68 -50 -114t-123 -46q-75 0 -127.5 50t-52.5 121q0 103 108 173q48 31 114 48.5t133 17.5h24zM601 1276v112q92 -12 162 -52q96 -56 151 -148.5t55 -199.5q0 -75 -27.5 -147.5t-77.5 -129.5 q-55 -63 -139.5 -103.5t-186.5 -52.5q-47 -6 -59.5 -17.5t-12.5 -49.5q0 -33 -11.5 -47t-37.5 -14q-52 0 -52 59v351q0 22 2 28t10 10q14 7 50 7q91 0 160 61q75 66 75 183q0 53 -14.5 88.5t-46.5 61.5zM440 362q80 0 137 -57t57 -137q0 -81 -57 -138t-137 -57 q-81 0 -138 57t-57 138q0 80 57 137t138 57z" />
<glyph unicode="@" horiz-adv-x="1448" d="M1072 466q63 18 100 44q51 37 85 119t34 171q0 85 -31 166.5t-88 144.5q-71 79 -175.5 122t-227.5 43q-139 0 -260.5 -54t-205.5 -154q-69 -82 -107.5 -187.5t-38.5 -213.5q0 -107 36.5 -206.5t105.5 -178.5q88 -102 201 -147.5t280 -45.5q183 0 362 59l40 -109 q-72 -29 -185.5 -46t-240.5 -17q-342 0 -540 224q-83 95 -129 218t-46 252q0 158 67.5 305t185.5 247q94 80 213.5 123.5t245.5 43.5q151 0 276.5 -49.5t216.5 -144.5q78 -81 119.5 -183.5t41.5 -213.5t-41.5 -207t-114.5 -157q-42 -34 -86.5 -53.5t-114.5 -35.5zM1081 1024 l-103 -466q-7 -32 -9 -53q-4 -43 48 -43l-25 -123q-63 -11 -110 -11q-84 0 -119 40q-33 38 -33 82q0 20 9 62l103 462q6 28 14.5 38.5t24.5 11.5h68h132zM681 784l-39 -179l-16 -62q-3 -13 -3 -31q0 -34 10 -49.5t32 -17.5q21 -1 26 -10q8 -13 8 -30q0 -30 -25 -49 q-17 -12 -47.5 -20t-60.5 -8q-60 0 -105 35q-35 27 -56 73.5t-21 96.5q0 101 38.5 206t101.5 175q51 57 107 83.5t126 26.5q48 0 48 -26q0 -9 -9 -42q-4 -14 -10.5 -21.5t-27.5 -21.5q-30 -19 -47.5 -49t-29.5 -80z" />
<glyph unicode="A" horiz-adv-x="1268" d="M483 1365h403l278 -1175q8 -31 18 -55q9 -19 40 -31q26 -11 36 -22t10 -30q0 -52 -78 -52h-499q-30 0 -48 14.5t-18 38.5q0 20 8 30t36 25q20 10 28 22t8 30q0 17 -3 30l-32 145h-279l27 119h224l-184 813zM414 1111l51 -207l-177 -646q-8 -28 -8 -52q0 -63 59 -90 l35 -16q33 -15 33 -50q0 -50 -73 -50h-254q-37 0 -58.5 15.5t-21.5 42.5q0 29 44 48q41 18 60.5 32.5t37.5 39.5q28 41 46 109z" />
<glyph unicode="B" horiz-adv-x="1371" d="M628 1365v-1365h-445h-26q-36 0 -55.5 13.5t-19.5 38.5q0 41 40 54q33 11 38.5 13.5t11.5 11.5q12 16 12 51v1001q0 35 -12 51q-6 9 -11.5 11.5t-38.5 13.5q-40 13 -40 54q0 25 19.5 38.5t55.5 13.5h26h445zM939 707q90 -18 138.5 -35t87.5 -43q67 -43 102.5 -113.5 t35.5 -157.5q0 -171 -126 -267q-65 -50 -143.5 -70.5t-205.5 -20.5h-119v105q40 3 63 11.5t41 28.5q33 37 33 115v227q0 50 -8.5 78t-31.5 51q-17 18 -37 26t-57 13v104q37 3 57.5 10t37.5 23q16 15 27 39t12 44v55v173q0 27 -9 56.5t-22 46.5q-19 23 -42.5 34t-63.5 15v110 h115q228 0 348 -94q55 -43 84 -104t29 -132q0 -70 -29.5 -132t-82.5 -103q-39 -32 -90 -52t-144 -41z" />
<glyph unicode="C" horiz-adv-x="1197" d="M632 1392v-121q-59 -9 -88 -52t-29 -123v-826v-43q0 -23 9.5 -48.5t24.5 -43.5q16 -20 34 -28.5t49 -11.5v-122q-194 0 -337 101q-126 89 -190 239.5t-64 356.5q0 151 41.5 281.5t120.5 226.5q80 97 191.5 156t214.5 59zM711 1270v121q49 -8 79.5 -17t110.5 -38 q51 -18 68 -18q29 0 44 26l13 24q12 24 45 24q27 0 41.5 -16t14.5 -47v-416q0 -40 -18 -58t-41 -18q-24 0 -38.5 15.5t-23.5 50.5q-21 79 -41 124q-43 95 -98 154q-37 40 -74 61.5t-82 27.5zM714 -27v122q78 6 164 59q46 29 82 77.5t54 106.5q10 32 23.5 45.5t35.5 13.5 q24 0 40 -18t16 -45q0 -45 -34.5 -109t-88.5 -118q-66 -66 -135.5 -98t-156.5 -36z" />
<glyph unicode="D" horiz-adv-x="1328" d="M628 1365v-1365h-445h-26q-36 0 -55.5 13.5t-19.5 38.5q0 41 40 54q33 11 38.5 13.5t11.5 11.5q12 16 12 51v1001q0 35 -12 51q-6 9 -11.5 11.5t-38.5 13.5q-40 13 -40 54q0 25 19.5 38.5t55.5 13.5h26h445zM830 286v789q0 73 -21 116q-13 28 -32 41t-60 22v111 q53 0 90 -4q127 -14 246 -108q118 -91 175 -237q59 -148 59 -328q0 -204 -75 -362.5t-215 -249.5q-68 -44 -126.5 -60t-153.5 -16v108q42 11 58.5 20t28.5 28q15 22 20.5 49.5t5.5 80.5z" />
<glyph unicode="E" horiz-adv-x="1202" d="M628 1365v-1365h-445h-26q-36 0 -55.5 13.5t-19.5 38.5q0 41 40 54q33 11 38.5 13.5t11.5 11.5q12 16 12 51v1001q0 35 -12 51q-6 9 -11.5 11.5t-38.5 13.5q-40 13 -40 54q0 25 19.5 38.5t55.5 13.5h26h445zM717 1365h403v-354q0 -31 -12 -45t-38 -14q-22 0 -32 9t-19 37 q-38 116 -111.5 177t-190.5 73v117zM712 637v116q58 28 86 61t41 88q8 38 21 52.5t37 14.5q32 0 44 -25q7 -13 7 -59v-381q0 -47 -10.5 -65t-38.5 -18q-23 0 -36 14t-21 47q-17 69 -48.5 106t-81.5 49zM718 0v108q65 10 107.5 28t85.5 55t68.5 76.5t48.5 104.5 q11 32 23 43.5t33 11.5q28 0 39 -16.5t11 -57.5v-353h-416z" />
<glyph unicode="F" horiz-adv-x="1160" d="M628 1365v-1175q0 -39 15 -56q8 -10 15 -12.5t46 -12.5q48 -11 48 -55q0 -26 -26 -42q-19 -12 -63 -12h-34h-446h-26q-36 0 -55.5 13.5t-19.5 38.5q0 41 40 54q33 11 38.5 13.5t11.5 11.5q12 16 12 51v1001q0 35 -12 51q-6 9 -11.5 11.5t-38.5 13.5q-40 13 -40 54 q0 25 19.5 38.5t55.5 13.5h26h445zM716 1365h403v-349q0 -34 -12 -49t-39 -15q-20 0 -31.5 10.5t-19.5 35.5q-15 49 -39 90t-54 70q-41 40 -90 61t-118 29v117zM711 637v116q59 28 86.5 60.5t40.5 88.5q8 38 21 52.5t37 14.5q32 0 44 -25q7 -13 7 -59v-381q0 -47 -10.5 -65 t-38.5 -18q-23 0 -36 14t-21 47q-18 69 -49 106t-81 49z" />
<glyph unicode="G" horiz-adv-x="1270" d="M603 1392v-111q-88 -21 -88 -140v-931q0 -54 15 -83q13 -24 55 -41v-113q-32 0 -58.5 5t-70.5 20q-105 36 -190 110t-140 177q-85 161 -85 381q0 213 76 378t218 259q82 55 176 79q39 10 92 10zM685 1283v108q163 -15 268 -60q31 -14 48 -14q16 0 24.5 7.5t34.5 42.5 q18 25 45 25q28 0 39.5 -15.5t11.5 -51.5v-389q0 -76 -56 -76q-28 0 -41.5 15t-25.5 59q-15 56 -54 130.5t-75 117.5q-41 50 -92 73.5t-127 27.5zM1137 167q-40 -40 -106.5 -81.5t-125.5 -65.5q-54 -21 -119.5 -34t-115.5 -13v113q29 7 43.5 17t24.5 28q17 31 17 79v292 q0 39 -15 56q-7 10 -14 12.5t-46 11.5q-48 12 -48 56q0 26 22.5 40t66.5 14h33h366q45 0 63.5 -12.5t18.5 -43.5q0 -19 -7.5 -31.5t-27.5 -26.5t-25 -26t-5 -44v-341z" />
<glyph unicode="H" horiz-adv-x="1546" d="M734 747h163v436q0 56 -29 66l-32 10q-38 12 -38 54q0 52 72 52h26h445h27q75 0 75 -52q0 -41 -40 -54q-33 -11 -38.5 -13.5t-11.5 -11.5q-12 -16 -12 -51v-997q0 -55 30 -67l32 -11q40 -13 40 -55q0 -53 -75 -53h-27h-445h-28q-70 0 -70 53q0 42 38 55l32 11q29 9 29 67 v462h-163v99zM650 0h-446h-26q-36 0 -55.5 13.5t-19.5 38.5q0 41 40 54q33 11 38.5 13.5t11.5 11.5q12 16 12 51v1001q0 35 -12 51q-6 9 -11.5 11.5t-38.5 13.5q-40 13 -40 54q0 25 19.5 38.5t55.5 13.5h26h446h26q71 0 71 -52q0 -42 -38 -54l-31 -10q-29 -10 -29 -66v-1001 q0 -56 29 -66l31 -10q38 -12 38 -54q0 -52 -71 -52h-26z" />
<glyph unicode="I" horiz-adv-x="812" d="M629 0h-446h-26q-36 0 -55.5 13.5t-19.5 38.5q0 41 40 54q33 11 38.5 13.5t11.5 11.5q12 16 12 51v1001q0 35 -12 51q-6 9 -11.5 11.5t-38.5 13.5q-40 13 -40 54q0 25 19.5 38.5t55.5 13.5h26h446h26q36 0 55.5 -13.5t19.5 -38.5q0 -41 -40 -54q-33 -11 -38.5 -13.5 t-11.5 -11.5q-12 -16 -12 -51v-1001q0 -35 12 -51q6 -9 11.5 -11.5t38.5 -13.5q40 -13 40 -54q0 -25 -19.5 -38.5t-55.5 -13.5h-26z" />
<glyph unicode="J" horiz-adv-x="1098" d="M498 229v946q0 62 -36 70l-39 10q-48 12 -48 55q0 27 22.5 40.5t66.5 13.5l33 1h445l27 1l36 -4q39 -11 39 -49q0 -40 -40 -54l-32 -10q-30 -10 -30 -66v-836q0 -183 -120 -279q-57 -45 -145 -70.5t-186 -25.5q-17 0 -58 2v116q7 5 10 7q20 15 28.5 24.5t14.5 23.5 q12 33 12 84zM343 90v-110q-125 20 -200 69q-68 45 -105.5 110.5t-37.5 140.5q0 91 62.5 156t149.5 65q83 0 141.5 -58.5t58.5 -140.5q0 -64 -43 -119q-29 -37 -84 -61q-18 -9 -19 -14t8.5 -12.5t23.5 -13.5q15 -6 45 -12z" />
<glyph unicode="K" horiz-adv-x="1503" d="M650 0h-446h-26q-36 0 -55.5 13.5t-19.5 38.5q0 41 40 54q33 11 38.5 13.5t11.5 11.5q12 16 12 51v1001q0 35 -12 51q-6 9 -11.5 11.5t-38.5 13.5q-40 13 -40 54q0 25 19.5 38.5t55.5 13.5h26h446h26q36 0 55.5 -13.5t19.5 -38.5q0 -41 -40 -54q-33 -11 -38.5 -13.5 t-11.5 -11.5q-12 -16 -12 -51v-1001q0 -56 29 -66l31 -10q38 -12 38 -54q0 -52 -71 -52h-26zM1046 969l302 -790q12 -32 25 -48.5t34 -25.5q21 -10 27 -15q14 -14 14 -37q0 -53 -75 -53h-503q-36 0 -55.5 15t-19.5 43q0 32 37 50q23 11 31 18.5t9 20.5q0 7 -8 32l-128 382 q-18 53 -18 90q0 35 29 76l239 337q34 47 34 98q0 28 -15 52t-40 34l-36 15q-34 14 -34 47q0 27 21 44q14 11 46 11h356q35 0 54.5 -15.5t19.5 -43.5q0 -42 -46 -60l-53 -21q-33 -12 -84 -54q-38 -32 -94 -107z" />
<glyph unicode="L" horiz-adv-x="1091" d="M628 0h-445h-26q-36 0 -55.5 13.5t-19.5 38.5q0 41 40 54q33 11 38.5 13.5t11.5 11.5q12 16 12 51v1001q0 35 -12 51q-6 9 -11.5 11.5t-38.5 13.5q-40 13 -40 54q0 25 19.5 38.5t55.5 13.5h26h446h34q44 0 63 -12q26 -16 26 -42q0 -44 -48 -55q-39 -9 -46 -12t-15 -12 q-15 -18 -15 -56v-1176zM709 0v112q49 9 77.5 20t54.5 32q42 33 77 91t57 129q16 55 29.5 72.5t39.5 17.5q28 0 41 -23q6 -11 6 -44v-407h-382z" />
<glyph unicode="M" horiz-adv-x="1604" d="M976 1365h444h27q75 0 75 -52q0 -41 -40 -54q-33 -11 -38.5 -13.5t-11.5 -11.5q-12 -16 -12 -51v-1001q0 -35 12 -51q6 -9 11.5 -11.5t38.5 -13.5q40 -13 40 -54q0 -52 -75 -52h-27h-445h-33q-44 0 -66.5 13.5t-22.5 40.5q0 44 48 55q39 10 46 12.5t14 11.5q15 18 15 57 v1175zM608 1365l197 -561l87 303v-332l-231 -775h-53l-388 1151q-20 58 -42 78q-13 13 -45 19q-65 14 -65 62q0 26 18.5 40.5t53.5 14.5h468zM220 905l106 -302v-301q0 -46 3.5 -66t15.5 -44q21 -44 58 -66l37 -24q38 -23 38 -51q0 -51 -75 -51h-251q-75 0 -75 50 q0 16 6.5 24.5t25.5 19.5q111 60 111 208v603z" />
<glyph unicode="N" horiz-adv-x="1375" d="M648 1365l532 -924v-441h-273l-679 1170q-22 38 -36 53t-36 22l-38 14q-15 5 -24 18t-9 29q0 17 9 31.5t24 20.5q17 7 92 7h438zM229 1014l106 -176v-536q0 -70 23.5 -115t74.5 -74l30 -17q26 -15 26 -45q0 -23 -19 -38q-16 -13 -66 -13h-231q-91 0 -91 52q0 18 9.5 28.5 t41.5 28.5q96 53 96 193v712zM1180 601l-106 179v277q0 84 -24.5 128.5t-86.5 76.5q-21 10 -29 21.5t-8 29.5q0 27 17.5 39.5t56.5 12.5h250q51 0 67 -16q17 -16 17 -38q0 -21 -9.5 -31.5t-45.5 -28.5q-53 -27 -80 -83q-19 -41 -19 -111v-456z" />
<glyph unicode="O" horiz-adv-x="1299" d="M608 1284q-51 -18 -72 -49t-21 -91v-894q0 -88 24 -124q19 -30 69 -43v-110q-222 18 -372 167q-195 194 -195 541q0 174 51.5 314.5t152.5 238.5q77 75 166 114t197 44v-108zM690 1284v108q108 -5 197.5 -44t166.5 -114q204 -199 204 -553q0 -347 -195 -541 q-150 -150 -373 -167v110q26 6 40.5 15.5t26.5 27.5q27 41 27 124v894q0 53 -18 84q-12 21 -28.5 33t-47.5 23z" />
<glyph unicode="P" horiz-adv-x="1303" d="M628 1365v-1175q0 -39 15 -56q8 -10 15 -12.5t46 -12.5q48 -11 48 -55q0 -26 -26 -42q-19 -12 -63 -12h-34h-446h-26q-36 0 -55.5 13.5t-19.5 38.5q0 41 40 54q33 11 38.5 13.5t11.5 11.5q12 16 12 51v1001q0 35 -12 51q-6 9 -11.5 11.5t-38.5 13.5q-40 13 -40 54 q0 25 19.5 38.5t55.5 13.5h26h445zM713 523v107q43 10 60.5 21t30.5 34q21 39 21 105v320q0 47 -7 70t-28 42q-29 28 -78 35v108q206 0 304 -39q113 -45 179 -138q67 -95 67 -233q0 -154 -68 -252q-68 -97 -190 -143q-101 -37 -291 -37z" />
<glyph unicode="Q" horiz-adv-x="1311" d="M1041 114q37 -37 98 -37q35 0 63 13q25 11 35 11q12 0 22.5 -13.5t10.5 -29.5q0 -32 -48 -67q-86 -61 -177 -61q-120 0 -191 74q-67 -24 -158 -32v111q22 5 32.5 10.5t23.5 18.5l-8 8q-27 33 -44 45.5t-41 16.5q-31 6 -39.5 9.5t-14.5 12.5q-10 12 -10 29q0 28 24 44 t65 16q33 0 56.5 -6t49.5 -21v878q0 53 -18 84q-12 21 -28.5 33t-47.5 23v108q108 -5 197.5 -44t166.5 -114q204 -200 204 -554q0 -365 -223 -566zM614 1284q-51 -18 -72 -49t-21 -91v-894q0 -88 24 -124q19 -30 69 -43v-110q-222 18 -372 167q-195 194 -195 541 q0 174 51.5 314.5t152.5 238.5q77 75 166 114t197 44v-108z" />
<glyph unicode="R" horiz-adv-x="1432" d="M628 1365v-1175q0 -39 15 -56q8 -10 15 -12.5t46 -12.5q48 -11 48 -55q0 -26 -26 -42q-19 -12 -63 -12h-34h-446h-26q-36 0 -55.5 13.5t-19.5 38.5q0 41 40 54q33 11 38.5 13.5t11.5 11.5q12 16 12 51v1001q0 35 -12 51q-6 9 -11.5 11.5t-38.5 13.5q-40 13 -40 54 q0 25 19.5 38.5t55.5 13.5h26h445zM935 669q92 -14 141.5 -31t89.5 -46q42 -31 64.5 -74t22.5 -91v-207q0 -32 21 -32q8 0 13.5 4.5t15.5 17.5q25 34 51 34q17 0 34 -18t17 -36q0 -31 -29.5 -75.5t-73.5 -79.5q-41 -33 -89 -47.5t-113 -14.5q-132 0 -206 75.5t-74 210.5v168 q0 56 -1 65q-5 40 -28 69q-29 35 -83 41v107q54 8 77 28q20 18 27.5 41t7.5 68v265q0 63 -24.5 94t-88.5 49v111h26q111 0 189 -8q116 -11 207 -76q131 -93 131 -265q0 -141 -88 -231q-37 -38 -86.5 -62t-150.5 -54z" />
<glyph unicode="S" horiz-adv-x="1147" d="M543 1392v-115q-62 -17 -94.5 -52.5t-32.5 -87.5q0 -50 27 -87.5t88 -71.5q42 -23 190 -88q90 -39 139.5 -70.5t93.5 -78.5q118 -124 118 -295q0 -129 -64 -236t-176 -168q-60 -32 -131.5 -50.5t-133.5 -18.5v114q87 21 125.5 58.5t38.5 101.5q0 67 -60 118 q-40 33 -152 82q-123 54 -168.5 77t-87.5 54q-188 134 -188 357q0 114 47 210.5t131 155.5q117 82 290 91zM622 1277v110q60 -4 104 -15.5t125 -45.5q20 -8 33 -8q19 0 28 13l22 29q16 22 39 22q27 0 39.5 -19.5t12.5 -61.5v-330q0 -29 -16.5 -47.5t-42.5 -18.5 q-20 0 -37 13q-9 8 -14.5 19.5t-10.5 38.5q-11 49 -38 101t-63 93q-72 81 -181 107zM491 87v-114q-82 0 -181 47q-37 17 -51 22t-27 5q-20 0 -30 -6.5t-32 -32.5q-18 -22 -39 -22q-56 0 -56 86v364q0 28 16 47.5t40 20.5q22 1 34.5 -12.5t21.5 -47.5q23 -86 66.5 -161 t101.5 -127q59 -54 136 -69z" />
<glyph unicode="T" horiz-adv-x="1216" d="M829 1365v-1175q0 -39 15 -56q8 -10 15 -12.5t46 -12.5q48 -11 48 -55q0 -26 -26 -42q-19 -12 -64 -12h-33h-446h-33q-44 0 -66.5 13.5t-22.5 40.5q0 44 48 55q39 10 46 12.5t14 12.5q15 17 15 56v1175h444zM1175 1365v-409q0 -29 -16.5 -47t-42.5 -18q-25 0 -41.5 16.5 t-21.5 45.5l-10 61q-15 93 -58 161q-27 42 -73 69v121h263zM41 1365h263v-121q-47 -27 -73 -69q-43 -68 -58 -161l-10 -61q-5 -29 -21.5 -45.5t-41.5 -16.5q-26 0 -42.5 18t-16.5 47v409z" />
<glyph unicode="U" horiz-adv-x="1386" d="M167 399v784q0 35 -12 51q-6 9 -11.5 11.5t-38.5 13.5q-40 13 -40 53q0 26 19.5 39.5t55.5 13.5h26h446h26l36 -4q17 -5 28 -18t11 -31q0 -40 -40 -53q-33 -11 -38.5 -13.5t-11.5 -11.5q-12 -16 -12 -51v-839q0 -85 4.5 -118.5t18.5 -60.5q13 -25 29 -36t61 -25v-131h-22 q-130 0 -216 23q-101 27 -177 80t-108 119q-34 70 -34 204zM816 -27v131q100 13 167 82q76 79 76 227v652q0 137 -105 191q-31 16 -40.5 27.5t-9.5 33.5q0 26 19 37t62 11h245q31 0 41.5 -1.5t20.5 -7.5q26 -15 26 -41q0 -22 -16 -37q-5 -5 -43 -27q-44 -24 -69 -73.5 t-25 -112.5v-653q0 -168 -74 -276q-54 -80 -155 -128q-50 -24 -120 -35z" />
<glyph unicode="V" horiz-adv-x="1236" d="M830 350l-95 -350h-263l-356 1195q-8 27 -15 36.5t-22 16.5q-32 13 -42 24t-10 33q0 30 27 47q21 13 69 13h445q42 0 57.5 -2t25.5 -8q10 -7 17 -20t7 -25q0 -37 -35 -53q-26 -13 -35.5 -26.5t-9.5 -38.5q0 -16 3 -28zM868 493l-53 188l115 421q11 40 12 49q2 22 -10 49 q-16 35 -50 46l-33 12q-39 13 -39 51q0 27 22 41.5t61 14.5h245q46 0 60 -9q24 -15 24 -43q0 -19 -7.5 -30t-27.5 -20l-51 -24q-32 -15 -61.5 -59.5t-45.5 -101.5z" />
<glyph unicode="W" horiz-adv-x="1682" d="M779 484l-121 -484h-216l-322 1175q-11 40 -20.5 54t-32.5 23q-40 16 -40 53q0 29 25 44.5t70 15.5h468q44 0 60 -12q21 -15 21 -41q0 -31 -35 -52q-29 -17 -37.5 -28.5t-8.5 -34.5q0 -11 3 -22zM874 1365h206l240 -910l-114 -455h-218l-233 879zM1358 615l-52 203 l73 296q9 35 9 54q0 30 -16.5 51.5t-54.5 40.5q-25 13 -34.5 25t-9.5 31q0 26 16.5 37.5t52.5 11.5h238q41 0 57.5 -11.5t16.5 -38.5q0 -16 -8.5 -26.5t-28.5 -19.5q-45 -20 -66 -42q-46 -46 -69 -133z" />
<glyph unicode="X" horiz-adv-x="1246" d="M627 1190l503 -1023q18 -35 49 -51q27 -14 36.5 -26t9.5 -33q0 -27 -20 -43q-17 -14 -72 -14h-469q-54 0 -70 7q-35 15 -35 51q0 13 7 22.5t26 23.5q34 25 33 46q-1 17 -18 51l-491 989q-12 25 -26 39.5t-37 26.5q-20 10 -27.5 22t-7.5 33q0 30 21.5 42t76.5 12h466 q51 0 73.5 -13t22.5 -42t-33 -51q-15 -11 -20.5 -18.5t-5.5 -20.5q0 -14 8 -30zM852 913l-56 111l56 95q19 33 19 57q0 22 -13.5 43t-35.5 31l-35 16q-10 5 -17.5 19t-7.5 28q0 24 17 38t45 14h289q28 0 46.5 -12.5t18.5 -32.5q0 -24 -18 -42q-7 -6 -42 -25 q-71 -39 -118 -113zM380 488l55 -114l-62 -101q-34 -56 -34 -89q0 -48 54 -70q30 -12 41 -24t11 -33q0 -28 -24 -46q-9 -7 -20 -9t-42 -2h-258q-32 0 -50.5 13.5t-18.5 37.5q0 19 11.5 31.5t40.5 23.5q75 29 116 95z" />
<glyph unicode="Y" horiz-adv-x="1223" d="M821 626v-436q0 -39 15 -56q8 -10 15 -12.5t46 -12.5q48 -11 48 -55q0 -29 -27 -44q-16 -10 -62 -10h-34h-446h-33q-45 0 -63 12q-26 16 -26 42q0 44 48 55q39 10 46 12.5t14 12.5q15 17 15 56v338l-283 675q-16 38 -45 55q-27 17 -34.5 27t-7.5 28q0 52 76 52h490 q39 0 54 -9q25 -16 25 -42q0 -32 -29 -50l-29 -18q-17 -11 -17 -33q0 -25 11 -49zM860 721l-56 131l105 235q13 30 13 82q0 58 -64 83q-35 14 -45.5 24.5t-10.5 32.5q0 27 18 41q12 9 27 12t52 3h247q70 0 70 -56q0 -20 -9.5 -31t-36.5 -23q-49 -22 -70 -44q-30 -32 -50 -73 l-23 -51z" />
<glyph unicode="Z" horiz-adv-x="1072" d="M1031 1365v-115l-553 -1250h-437v99l555 1266h435zM75 1365h434l-50 -114q-85 -11 -156 -62q-90 -64 -123 -182q-8 -31 -20 -43t-34 -12q-51 0 -51 59v354zM1031 0h-468l45 100q123 29 178 67q47 33 76 76t61 129q12 32 23.5 43.5t31.5 11.5q26 0 39.5 -18t13.5 -52v-357 z" />
<glyph unicode="[" horiz-adv-x="807" d="M582 -296h-390q-22 0 -28 6t-6 29v1591q0 23 6 29t28 6h390q92 0 114 -19q21 -18 21 -49q0 -27 -14.5 -41.5t-49.5 -21.5q-49 -10 -69.5 -18t-36.5 -23q-21 -19 -29 -48.5t-8 -82.5v-1055q0 -53 8 -82.5t29 -48.5q16 -15 36.5 -23t69.5 -18q35 -7 49.5 -21.5t14.5 -40.5 q0 -32 -21 -50q-22 -19 -114 -19z" />
<glyph unicode="\" horiz-adv-x="680" d="M229 1365l583 -1661h-245l-584 1661h246z" />
<glyph unicode="]" horiz-adv-x="807" d="M225 1365h390q22 0 28 -6t6 -29v-1591q0 -23 -6 -29t-28 -6h-390q-92 0 -114 19q-21 18 -21 50q0 27 14.5 41t49.5 21q49 10 70 18t37 23q20 19 28 48.5t8 82.5v1055q0 53 -8 82.5t-28 48.5q-16 15 -37 23t-70 18q-35 7 -49.5 21.5t-14.5 41.5q0 31 21 49q22 19 114 19z " />
<glyph unicode="^" horiz-adv-x="1153" d="M0 566l539 867h19l595 -867h-374l-333 487l-305 -487h-141z" />
<glyph unicode="_" horiz-adv-x="1001" d="M0 -195h1001v-160h-1001v160z" />
<glyph unicode="`" horiz-adv-x="1024" d="M223 1744h200q29 0 40 -6t27 -32l150 -232q4 -7 4 -13t-8.5 -10.5t-20.5 -4.5h-72q-14 0 -32 14l-19 14l-275 214q-26 20 -25 33q1 10 10 16.5t21 6.5z" />
<glyph unicode="{" horiz-adv-x="889" d="M390 536q83 -16 124 -33.5t66 -47.5q22 -28 27.5 -59.5t5.5 -139.5v-260q0 -67 19 -99q16 -25 40.5 -37.5t83.5 -24.5q35 -7 49.5 -21t14.5 -41q0 -32 -21 -50q-23 -19 -114 -19h-97q-175 0 -242 69q-46 48 -58 132q-6 40 -6 174v152l-4 100q0 64 -26 96q-18 24 -43 35.5 t-70 15.5q-31 3 -45 16.5t-14 41.5q0 27 14 41t45 17q45 4 70 15t43 36q26 32 26 96l4 100v152q0 134 6 174q12 84 58 132q33 35 90.5 50.5t151.5 15.5h138q94 0 94 -68q0 -27 -14.5 -41.5t-49.5 -21.5q-43 -9 -60.5 -14.5t-33.5 -16.5q-39 -27 -44 -71l-3 -34l-2 -34v-248 q0 -109 -5.5 -140t-27.5 -59q-25 -30 -66 -47.5t-124 -33.5z" />
<glyph unicode="|" horiz-adv-x="222" d="M0 1365h222v-1706h-222v1706z" />
<glyph unicode="}" horiz-adv-x="889" d="M498 533q-83 16 -124 33.5t-66 47.5q-22 28 -27.5 59.5t-5.5 139.5v260q0 67 -19 99q-16 26 -40.5 38t-83.5 24q-35 7 -49.5 21.5t-14.5 41.5q0 31 21 49q23 19 114 19h97q175 0 242 -69q46 -48 58 -132q6 -40 6 -174v-152l4 -100q0 -64 26 -96q18 -25 43 -36t69 -15 q32 -3 46 -17t14 -41t-14 -41t-46 -17q-44 -4 -69 -15t-43 -36q-26 -32 -26 -96l-4 -100v-152q0 -134 -6 -174q-12 -84 -58 -132q-33 -35 -90.5 -50.5t-151.5 -15.5h-138q-94 0 -94 69q0 27 14.5 41t49.5 21q43 9 60.5 14.5t33.5 16.5q39 27 44 71l3 34l2 34v249 q0 107 5.5 138.5t27.5 59.5q25 30 66 47.5t124 33.5z" />
<glyph unicode="~" horiz-adv-x="794" d="M744 1502l50 -31q-44 -88 -113 -160q-37 -39 -74 -56t-83 -17q-30 0 -64 8t-86 28l-58 21q-61 23 -117 23q-39 0 -73 -18q-23 -11 -60 -51q-5 -6 -18 -19l-48 30q62 114 115 166q72 69 152 69q50 0 163 -41q110 -39 157 -39q86 0 157 87z" />
<glyph unicode="&#xa1;" horiz-adv-x="691" d="M336 924q26 0 38.5 -14.5t15.5 -47.5q4 -65 8.5 -93.5t19.5 -86.5q24 -94 62 -202q45 -128 56.5 -173.5t11.5 -97.5q0 -101 -58.5 -168.5t-145.5 -67.5q-93 0 -150.5 68.5t-57.5 179.5q0 45 11 93.5t43 147.5q57 176 71 256q16 88 16 131q0 75 59 75zM341 1395 q80 0 137 -57t57 -138q0 -80 -57 -137t-137 -57q-81 0 -138 57t-57 137q0 81 57 138t138 57z" />
<glyph unicode="&#xa2;" horiz-adv-x="1170" d="M659 1331v-157q80 -5 131.5 -19t99.5 -45q117 -76 117 -188q0 -76 -46.5 -127t-115.5 -51q-80 0 -130 54q-47 52 -47 116q0 38 19 78q13 26 13 36q0 17 -16.5 27t-43.5 10q-55 0 -75 -35t-20 -132v-396q0 -85 26.5 -126t81.5 -41q60 0 120.5 33.5t105.5 91.5 q22 28 35 37.5t31 9.5q23 0 37.5 -15t14.5 -38q0 -61 -92 -143q-55 -49 -112.5 -75t-133.5 -37v-199h-85v194q-78 11 -138.5 38t-117.5 76q-79 69 -117 156t-38 200q0 118 41.5 219.5t118.5 172.5q55 51 113.5 77.5t137.5 36.5v161h85z" />
<glyph unicode="&#xa3;" d="M690 1386q86 -10 141.5 -32t104.5 -65q48 -42 75.5 -99t27.5 -114q0 -44 -18.5 -84.5t-52.5 -70.5q-61 -54 -137 -54q-90 0 -144 66q-44 54 -44 115q0 40 19.5 76t62.5 76q20 18 20 29q0 23 -55 35v122zM633 1388v-119q-48 -21 -69.5 -60.5t-21.5 -106.5q0 -99 37 -206 l32 -89q22 -63 22 -126h224v-119h-245q-21 -59 -47 -116l-135 5q8 44 8 63t-3 48h-224v119h184q-23 23 -68 56q-89 67 -131.5 135.5t-42.5 148.5q0 82 31.5 153.5t88.5 118.5q60 50 137.5 73t186.5 23zM424 75q-11 0 -25 -12q-61 -48 -91.5 -62.5t-69.5 -14.5q-66 0 -104 39 t-38 108q0 52 23 101t66 86q90 79 224 79q50 0 102 -7.5t190 -34.5q117 -23 174 -23q74 0 92 45l21 52q4 11 16 18t26 7q27 0 38.5 -20t11.5 -69q0 -134 -71 -249q-41 -67 -113 -104.5t-160 -37.5q-59 0 -124 17.5t-118 47.5q-59 34 -70 34z" />
<glyph unicode="&#xa4;" horiz-adv-x="1366" d="M968 1108l173 172q16 16 23.5 21t16.5 5t16.5 -4.5t23.5 -21.5l63 -62q17 -17 21.5 -24.5t4.5 -16.5q0 -8 -5 -15.5t-21 -24.5l-173 -172q47 -70 69 -137t22 -143q0 -75 -22 -142t-69 -137l173 -173q16 -16 21 -23.5t5 -16.5t-4.5 -16t-21.5 -24l-63 -63 q-17 -17 -24 -21.5t-16 -4.5t-16 4.5t-24 21.5l-173 172q-65 -42 -119.5 -61.5t-124.5 -26.5v53v9v124v11v40q9 1 21 4q8 2 19 4q12 4 23 8q83 36 129.5 105t46.5 153q0 85 -46.5 154t-129.5 105q-11 4 -23 8q-11 1 -19 4q-12 3 -21 4v40v10v124v10v52q31 -2 57 -7 q19 -4 44 -11q45 -15 72.5 -28t70.5 -42zM397 262l-172 -172q-17 -17 -24 -21.5t-16 -4.5t-16 4.5t-24 21.5l-63 63q-17 17 -21.5 24t-4.5 16t4.5 16t21.5 24l173 173q-48 70 -69.5 137t-21.5 142q0 76 21.5 143t69.5 137l-93 92l-80 80q-17 18 -21.5 24.5t-4.5 15.5 q0 10 4.5 17t21.5 24l63 62q16 16 23.5 21t16.5 5t16.5 -4.5t23.5 -21.5l66 -66v1l106 -107q91 59 182 79q32 7 63 9v-236q-9 -1 -22 -4q-7 -2 -17 -4l-30 -10q-38 -18 -72 -46q-98 -89 -98 -211q0 -121 98 -211q34 -27 72 -45q15 -6 30 -10v0l12 -3l5 -1q13 -3 22 -4v-237 q-24 2 -56 8q-21 4 -49 12q-48 16 -91 39q-19 10 -49 29z" />
<glyph unicode="&#xa5;" d="M928 927h140v-99h-185l-51 -113l-54 137l105 236q14 32 14 75q0 64 -64 89q-35 14 -46 25t-11 32q0 30 19.5 43t63.5 13h260q27 0 42.5 -14t15.5 -38q0 -19 -9.5 -31t-34.5 -24q-44 -22 -62.5 -42.5t-44.5 -75.5l-25 -52zM805 528v-339q0 -61 33 -70l35 -10 q44 -11 44 -55q0 -29 -24 -44q-15 -10 -57 -10h-30h-405h-30q-40 0 -60 14t-20 40q0 44 43 55l36 10q32 9 32 70v339h-257v99h227l-84 201h-191v99h154l-95 235q-18 42 -30.5 58t-38.5 26q-31 13 -42 26.5t-11 40.5q0 51 78 51l25 1h443q36 0 49 -9q23 -16 23 -45t-26 -47 l-27 -18q-15 -12 -15 -32q0 -27 9 -50l212 -537h243v-99h-243z" />
<glyph unicode="&#xa6;" horiz-adv-x="222" d="M0 1365h222v-733h-222v733zM0 314h222v-655h-222v655z" />
<glyph unicode="&#xa7;" horiz-adv-x="1025" d="M856 365l-111 72q11 22 11 36q0 30 -29.5 56t-116.5 73q-231 126 -291 165q-100 65 -143 133.5t-43 161.5q0 62 22 118.5t62 96.5q47 48 124 76.5t157 28.5q46 0 90 -10l87 -18q22 -5 38 -5q28 0 61 9q21 5 35 5q21 0 30 -14.5t9 -48.5v-196q0 -79 -63 -79q-42 0 -63 47 l-29 65q-26 60 -64 86.5t-97 26.5q-46 0 -75.5 -23t-29.5 -59q0 -27 19 -47.5t65 -41.5q260 -121 333 -185q58 -51 91 -124.5t33 -151.5q0 -69 -26 -127.5t-86 -125.5zM185 795l107 -74q-10 -25 -11 -44q-1 -27 44 -59t229 -135q126 -70 185 -110t93 -78q42 -47 66 -109.5 t24 -125.5t-21 -123t-59 -104q-47 -54 -125.5 -83t-176.5 -29q-88 0 -190 35q-37 13 -57 13q-14 0 -36 -10l-29 -14q-13 -6 -27 -6q-22 0 -31.5 17t-9.5 56v188q0 42 21.5 67.5t55.5 25.5q23 0 39 -15.5t29 -51.5q22 -60 45.5 -95t53.5 -53q45 -27 110 -27q55 0 91.5 27.5 t36.5 69.5q0 31 -17.5 52t-61.5 42l-141 68q-124 59 -191 101q-46 29 -71.5 53.5t-47.5 59.5q-56 89 -56 190q0 75 29 138t100 143z" />
<glyph unicode="&#xa8;" horiz-adv-x="1021" d="M319 1745q61 0 104.5 -43.5t43.5 -104.5t-43.5 -104.5t-104.5 -43.5t-104.5 43.5t-43.5 104.5t43.5 104.5t104.5 43.5zM701 1745q61 0 104.5 -43.5t43.5 -104.5t-43.5 -104.5t-104.5 -43.5t-104.5 43.5t-43.5 104.5t43.5 104.5t104.5 43.5z" />
<glyph unicode="&#xa9;" horiz-adv-x="1493" d="M765 1102v-72q-71 -10 -71 -102v-483v-26q0 -29 21 -53q17 -21 50 -23v-72q-120 0 -211 59q-164 105 -164 349q0 182 104 298q51 55 121.5 90t132.5 35h17zM815 1030v71q44 -7 72 -16l48 -16q30 -9 42 -10q19 -1 28 15l9 14q8 14 28 14q36 0 36 -38v-243 q0 -20 -9.5 -31.5t-26.5 -12.5q-30 -2 -41 38q-27 96 -75 151t-111 64zM816 271v72q50 3 104 34q62 36 86 107q6 19 14.5 27t22.5 8q15 0 25.5 -10.5t10.5 -26.5q0 -26 -22 -64t-56 -69q-79 -73 -185 -78zM772 1389q220 -11 389 -135q137 -100 214 -251t77 -320 q0 -170 -77 -321t-213 -251q-171 -124 -390 -135v117q177 9 317 112q113 83 176.5 209.5t63.5 268.5q0 141 -63.5 267.5t-176.5 210.5q-139 102 -317 112v116zM721 -23q-217 10 -388 133q-137 100 -214.5 251.5t-77.5 321.5q0 169 77.5 321t214.5 251q171 123 388 134v-117 q-178 -10 -316 -111q-113 -83 -177 -209.5t-64 -268.5t64 -268.5t178 -210.5q137 -101 315 -111v-116z" />
<glyph unicode="&#xaa;" horiz-adv-x="788" d="M642 1202v-205q0 -76 38 -76q14 0 30 20q12 15 24 15q26 0 26 -23q0 -36 -32 -71q-51 -54 -145 -54q-73 0 -119 41q-26 23 -35 46t-9 64v379q0 25 7 33t29 8q65 0 110 -27q36 -21 56 -61t20 -89zM304 1042v-92q0 -82 54 -82q17 0 27.5 -8t10.5 -20q0 -14 -28.5 -23 t-70.5 -9q-93 0 -153 54q-26 23 -37 51t-11 69q0 85 67 137q31 24 69.5 35t92.5 11q29 0 38.5 -5t9.5 -21q0 -12 -5.5 -18.5t-21.5 -12.5q-42 -17 -42 -66zM319 1379q50 0 50 -20q0 -15 -15 -19l-26 -6q-19 -5 -35 -20t-13 -25l8 -24v-10q-5 -69 -85 -69q-39 0 -59.5 19.5 t-20.5 56.5q0 58 71 90q57 27 125 27zM701 673v-63q0 -10 -9.5 -14t-36.5 -4h-487q-26 0 -36 4t-10 14v63q0 10 10 14t36 4h487q26 0 36 -4t10 -14z" />
<glyph unicode="&#xab;" horiz-adv-x="1109" d="M449 1072l84 -68q26 -22 26 -43q0 -16 -15.5 -39t-53.5 -61q-74 -78 -108 -118.5t-33 -51.5q0 -7 15 -27l53 -64l66 -80q55 -67 67 -84.5t13 -32.5q1 -12 -8 -22t-37 -29l-77 -50q-20 -13 -38 -12q-17 1 -41 36l-189 270q-22 32 -29 48.5t-7 37.5q0 30 14 51l28 39 l183 275l22 34q9 9 26 9q16 0 39 -18zM859 1072l84 -68q25 -21 25 -43q0 -16 -15.5 -38.5t-52.5 -61.5q-77 -81 -109.5 -120t-31.5 -50q0 -7 15 -27l53 -64l66 -80q55 -67 67 -84.5t13 -32.5q1 -12 -8 -22t-38 -29l-76 -50q-21 -13 -38 -12t-42 36l-188 270q-22 31 -29 48 t-7 38q0 29 13 51l28 39l183 275l23 34q8 9 26 9q16 0 39 -18z" />
<glyph unicode="&#xac;" horiz-adv-x="907" d="M555 0v393h-555v160h907v-553h-352z" />
<glyph unicode="&#xae;" horiz-adv-x="1493" d="M713 1084v-670q0 -22 9 -32q7 -7 37 -13q31 -7 30 -32q-1 -31 -55 -31h-20h-284h-16q-47 0 -47 30q0 23 25 31q26 7 32 14t6 29v570q0 22 -6 29t-32 14q-25 8 -25 31q0 30 47 30h16h283zM898 687q55 -8 85 -17.5t54 -26.5q53 -37 53 -94v-118q0 -27 13 -28q8 0 18 16 q15 24 32 26q9 1 20 -10t11 -21q0 -19 -18 -44t-46 -45q-49 -35 -123 -35q-80 0 -125 43t-45 121v95q0 37 -3.5 50t-15.5 27q-18 19 -54 23v61q42 5 57.5 21.5t15.5 56.5v151q0 32 -11 48t-43 29l-11 4v64h9q101 0 151.5 -10t92.5 -38q80 -53 80 -151q0 -37 -14.5 -72.5 t-39.5 -59.5q-22 -21 -52 -35t-91 -31zM772 1389q220 -11 389 -135q137 -100 214 -251t77 -320q0 -170 -77 -321t-213 -251q-171 -124 -390 -135v117q177 9 317 112q113 83 176.5 209.5t63.5 268.5q0 141 -63.5 267.5t-176.5 210.5q-139 102 -317 112v116zM721 -23 q-217 10 -388 133q-137 100 -214.5 251.5t-77.5 321.5q0 169 77.5 321t214.5 251q171 123 388 134v-117q-178 -10 -316 -111q-113 -83 -177 -209.5t-64 -268.5t64 -268.5t178 -210.5q137 -101 315 -111v-116z" />
<glyph unicode="&#xb0;" horiz-adv-x="1024" d="M486 1196q-35 -8 -55 -19.5t-39 -33.5q-38 -43 -38 -99q0 -59 37 -102q19 -22 39 -33t56 -20v-156q-93 11 -160 59q-61 43 -95 110t-34 142q0 74 34.5 139.5t94.5 109.5q67 47 160 58v-155zM538 1351q92 -10 159 -58q61 -43 95.5 -109t34.5 -140q0 -75 -34 -141.5 t-95 -110.5q-67 -48 -160 -59v156q35 8 55.5 19.5t39.5 33.5q37 44 37 102q0 56 -38 100q-19 21 -39 32.5t-55 19.5v155z" />
<glyph unicode="&#xb1;" d="M696 574v-317q0 -22 -8.5 -31t-31.5 -9h-142q-23 0 -31.5 8.5t-8.5 31.5v317h-356q-23 0 -32 9t-9 33v131q0 24 9 33t32 9h356v362q0 23 8.5 32t31.5 9h142q23 0 31.5 -9t8.5 -32v-362h362q24 0 33 -9t9 -33v-131q0 -24 -9 -33t-33 -9h-362zM1100 79v-135q0 -23 -9 -31.5 t-32 -8.5h-941q-23 0 -32 8.5t-9 31.5v135q0 23 9 31.5t32 8.5h941q23 0 32 -8.5t9 -31.5z" />
<glyph unicode="&#xb2;" horiz-adv-x="753" d="M298 1374v-71q-17 -3 -27 -8.5t-9 -11.5t13 -14q53 -33 53 -96q0 -46 -36 -80t-86 -34q-53 0 -89 36t-36 89q0 50 31 93.5t84 68.5q34 16 102 28zM344 1304v71h27q60 0 118 -21.5t96 -56.5q66 -62 66 -158q0 -81 -49 -144t-140 -99l-80 -31q-35 -13 -98 -47l-19 -10 q-26 0 -50.5 -7t-75.5 -30q27 37 50.5 59t71.5 58q57 43 77 62.5t33 44.5q27 48 27 148q0 94 -17 127q-12 22 -37 34zM641 818q17 0 26.5 -12t9.5 -33q0 -42 -22.5 -93.5t-54.5 -82.5q-27 -27 -67.5 -44t-76.5 -17q-31 0 -56.5 5.5t-116.5 31.5q-67 20 -86 20q-25 0 -54 -24 q-21 -17 -32 -17q-33 0 -33 38q0 33 15.5 67t42.5 59q57 54 156 54q42 0 119 -12q112 -17 143 -17q27 0 37.5 9t16.5 36q8 32 33 32z" />
<glyph unicode="&#xb3;" horiz-adv-x="752" d="M312 1373v-68q-22 -6 -32.5 -13t-9.5 -16q1 -7 10 -15q27 -24 32 -33q11 -19 11 -48q0 -45 -32.5 -77.5t-77.5 -32.5q-50 0 -82 32.5t-32 82.5q0 41 22.5 78.5t62.5 63.5q46 31 128 46zM504 965q81 -24 115 -55q28 -25 44 -63t16 -80q0 -129 -122 -195q-69 -36 -201 -36 v70q36 10 48 28q19 26 19 52v171q0 3 -4.5 20.5t-6.5 23.5q-11 31 -55 33q-28 2 -39 9.5t-11 25.5q0 19 10.5 26.5t38.5 10.5q47 4 58 33l5 30q4 19 4 23v134q0 36 -14 53t-51 26v70h18q127 0 208.5 -60t81.5 -153q0 -81 -53 -136q-22 -22 -45 -35t-64 -26zM312 607v-71 q-75 9 -122 30q-57 24 -87.5 64.5t-30.5 90.5q0 51 34.5 86t85.5 35q47 0 82.5 -33t35.5 -76q0 -25 -13 -49t-36 -40q-18 -12 -18 -17q0 -8 21 -14t48 -6z" />
<glyph unicode="&#xb4;" horiz-adv-x="1024" d="M809 1688l-275 -214l-19 -14q-18 -14 -32 -14h-73q-12 0 -20 4.5t-8 10.5t4 13l150 232q16 26 27 32t40 6h200q12 0 21 -6.5t10 -16.5q1 -13 -25 -33z" />
<glyph unicode="&#xb5;" horiz-adv-x="1070" d="M1070 111v-42l-284 -92q-5 -2 -12 -2q-36 0 -65 25q-15 14 -26.5 36t-30.5 76q-49 -57 -77 -81q-72 -63 -168 -63q-101 0 -157 62q-31 34 -62 107q-6 -22 -7 -30q-9 -77 75 -286q27 -68 27 -111q0 -48 -40 -81.5t-97 -33.5q-46 0 -83.5 19.5t-52.5 52.5q-10 21 -10 51 q0 50 19 137q28 129 46.5 305t18.5 321v455h297v-589q0 -164 31 -208q12 -17 34 -29t41 -12q36 0 68 22.5t77 79.5v736h297v-659q0 -99 13 -132q16 -40 74 -40q23 0 54 6z" />
<glyph unicode="&#xb6;" horiz-adv-x="1788" d="M1747 1365v-377q0 -27 -14.5 -43.5t-38.5 -16.5q-47 0 -56 57l-10 57q-14 86 -51 148q-24 38 -66 64v111h236zM590 630v-107q-161 0 -251 25q-146 41 -222 144.5t-76 262.5q0 138 67 233q65 92 179 138q98 39 304 39v-108q-49 -7 -78 -35q-21 -19 -28 -42t-7 -70v-320 q0 -66 21 -105q13 -23 30.5 -34t60.5 -21zM1006 -296h-342h-31q-42 0 -63 14t-21 40q0 44 45 55l37 10q34 9 34 71v1471h348v-109q-26 -7 -33 -13q-18 -17 -18 -67v-1282q0 -51 16 -68q6 -6 28 -13v-109zM1092 -296v109q26 8 35 24t9 57v1282q0 40 -10.5 56t-40.5 24v109 h348v-1471q0 -62 34 -71l37 -10q45 -11 45 -55q0 -27 -21 -40.5t-63 -13.5h-373z" />
<glyph unicode="&#xb8;" horiz-adv-x="999" d="M563 -388q-28 -5 -45 -5q-63 0 -99.5 35.5t-36.5 97.5q0 57 43.5 100t101.5 43q73 0 122 -55t49 -137q0 -62 -27.5 -118t-75.5 -94q-60 -46 -114 -46q-23 0 -37.5 12t-14.5 31q0 33 38 45l22 7q35 11 52 32q12 15 18 31q1 2 2.5 11.5z" />
<glyph unicode="&#xb9;" horiz-adv-x="747" d="M500 1365v-702q0 -22 8 -31q6 -6 35 -13q32 -7 32 -37q0 -36 -58 -36h-20h-230h-20q-58 0 -58 36q0 30 32 37q22 5 26.5 6.5t8.5 6.5q8 10 8 31v556q0 29 -5.5 42.5t-18.5 14.5l-21 3q-32 5 -32 33q0 21 20 33q10 5 40 7z" />
<glyph unicode="&#xba;" horiz-adv-x="784" d="M308 1239v-289v-38q0 -18 7 -28.5t24 -18.5q18 -9 23.5 -15t5.5 -18q0 -25 -26 -25q-55 0 -123 42q-70 42 -103 102t-33 143q0 84 33 144t103 103q68 41 124 41q25 0 25 -25q0 -11 -5.5 -17.5t-23.5 -15.5q-17 -8 -24 -18.5t-7 -28.5v-38zM476 950v289v38q0 32 -31 47 q-18 10 -23.5 16t-5.5 17q0 25 25 25q56 0 124 -42q70 -43 103 -102t33 -144q0 -83 -33 -143t-103 -103q-68 -41 -124 -41q-25 0 -25 25q0 12 5.5 18t23.5 15q31 15 31 47v38zM688 673v-63q0 -10 -9.5 -14t-36.5 -4h-487q-26 0 -36 4t-10 14v63q0 10 10 14t36 4h487 q26 0 36 -4t10 -14z" />
<glyph unicode="&#xbb;" horiz-adv-x="1109" d="M749 1047l183 -275l28 -39q14 -22 14 -51q0 -21 -7 -37.5t-29 -48.5l-189 -270q-25 -35 -42 -36t-38 12l-76 50q-27 18 -36.5 28.5t-8.5 22.5q1 15 13 32.5t67 84.5l66 80l53 64q15 20 15 27q1 11 -33 51.5t-108 118.5q-38 38 -53.5 61t-15.5 39q0 22 26 43l84 68 q22 18 39 18t25 -9zM339 1047l183 -275l28 -39q14 -22 14 -51q0 -21 -7 -38t-29 -48l-189 -270q-24 -35 -41 -36q-18 -1 -38 12l-77 50q-28 19 -37 29t-8 22q1 15 13 32.5t67 84.5l66 80l53 64q15 20 15 27q1 11 -31.5 50t-109.5 120q-37 39 -52.5 61.5t-15.5 38.5 q0 22 25 43l84 68q23 18 39 18q17 0 26 -9z" />
<glyph unicode="&#xbc;" horiz-adv-x="1683" d="M500 1365v-702q0 -22 8 -31q6 -6 35 -13q32 -7 32 -37q0 -36 -58 -36h-20h-230h-20q-58 0 -58 36q0 30 32 37q22 5 26.5 6.5t8.5 6.5q8 10 8 31v556q0 29 -5.5 42.5t-18.5 14.5l-21 3q-32 5 -32 33q0 21 20 33q10 5 40 7zM1107 1365h131l-662 -1365h-131zM1292 664 l95 130q12 17 21 21t35 4h52q20 0 26.5 -7t6.5 -30v-526h72q35 0 35 -33q0 -35 -38 -35h-69v-71q0 -21 8 -31q4 -5 8.5 -6.5t25.5 -6.5q33 -7 33 -37q0 -36 -58 -36h-20h-230h-20q-58 0 -58 36q0 30 32 37q22 5 26.5 6.5t8.5 6.5q8 9 8 31v547zM1244 610v-101l-187 -253h187 v-68h-217q-27 0 -38 9t-11 32q0 17 5.5 29.5t25.5 38.5z" />
<glyph unicode="&#xbd;" horiz-adv-x="1683" d="M500 1365v-702q0 -22 8 -31q6 -6 35 -13q32 -7 32 -37q0 -36 -58 -36h-20h-230h-20q-58 0 -58 36q0 30 32 37q22 5 26.5 6.5t8.5 6.5q8 10 8 31v556q0 29 -5.5 42.5t-18.5 14.5l-21 3q-32 5 -32 33q0 21 20 33q10 5 40 7zM1107 1365h131l-662 -1365h-131zM1228 828v-71 q-38 -7 -36 -20q1 -6 13 -14q53 -33 53 -95q0 -47 -36 -81t-86 -34q-53 0 -89 36t-36 89q0 51 30.5 94t84.5 68q34 16 102 28zM1274 758v71h27q59 0 117.5 -21t96.5 -57q66 -62 66 -158q0 -81 -49 -144.5t-140 -97.5l-80 -31q-32 -13 -98 -48l-19 -10q-26 0 -50.5 -7 t-75.5 -29q28 36 51 58.5t71 58.5q57 42 77 61.5t33 44.5q27 49 27 149q0 78 -11.5 111.5t-42.5 48.5zM1571 272q17 0 26.5 -12t9.5 -33q0 -42 -22.5 -93.5t-54.5 -82.5q-27 -27 -67.5 -44t-77.5 -17q-30 0 -55 5.5t-117 31.5q-67 20 -86 20q-25 0 -54 -25q-21 -17 -32 -17 q-33 0 -33 38q0 33 15.5 67t42.5 60q57 54 156 54q42 0 119 -12q112 -17 143 -17q27 0 37.5 9t16.5 36q8 32 33 32z" />
<glyph unicode="&#xbe;" horiz-adv-x="1682" d="M312 1373v-68q-22 -6 -32.5 -13t-9.5 -16q1 -7 10 -15q27 -24 32 -33q11 -19 11 -48q0 -45 -32.5 -77.5t-77.5 -32.5q-50 0 -82 32.5t-32 82.5q0 41 22.5 78.5t62.5 63.5q46 31 128 46zM504 965q81 -24 117 -55q57 -49 57 -143q0 -69 -28.5 -115t-92.5 -80 q-70 -36 -201 -36v70q37 10 51.5 27.5t14.5 52.5v171q0 39 -15.5 57t-49.5 20q-28 2 -39 10t-11 25q0 19 10.5 26.5t38.5 10.5q38 3 52 21t14 65v134q0 36 -14 53t-51 26v70h19q127 0 209.5 -60t82.5 -153q0 -81 -54 -136q-22 -22 -45.5 -35t-64.5 -26zM312 607v-71 q-75 9 -122 30q-57 24 -87.5 64.5t-30.5 90.5q0 51 34.5 86t85.5 35q47 0 82.5 -33t35.5 -76q0 -25 -13 -49t-36 -40q-18 -12 -18 -17q0 -8 21 -14t48 -6zM1106 1365h131l-662 -1365h-131zM1291 664l95 130q12 17 21 21t35 4h52q20 0 26.5 -7t6.5 -30v-526h72q35 0 35 -33 q0 -35 -38 -35h-69v-71q0 -21 8 -31q4 -5 8.5 -6.5t25.5 -6.5q33 -7 33 -37q0 -36 -58 -36h-20h-230h-20q-58 0 -58 36q0 30 32 37q22 5 26.5 6.5t8.5 6.5q8 9 8 31v547zM1243 610v-101l-187 -253h187v-68h-217q-28 0 -38.5 9t-10.5 32q0 17 5.5 29.5t25.5 38.5z" />
<glyph unicode="&#xbf;" horiz-adv-x="1107" d="M592 -27v110q28 4 38 12t10 26q0 17 -5 31l-9 23q-8 22 -8 48q0 67 50 113.5t123 46.5q76 0 128 -49.5t52 -121.5q0 -103 -109 -173q-48 -31 -113.5 -48.5t-132.5 -17.5h-24zM505 89v-112q-92 12 -162 52q-96 56 -151 148.5t-55 199.5q0 74 27.5 147t77.5 130 q55 63 139.5 103.5t186.5 52.5q47 6 59.5 17.5t12.5 49.5q0 32 11.5 46.5t37.5 14.5q52 0 52 -59v-351q0 -22 -2 -28t-10 -10q-14 -7 -50 -7q-91 0 -160 -61q-75 -66 -75 -183q0 -53 14.5 -88.5t46.5 -61.5zM665 1396q81 0 138 -57t57 -138t-57 -138t-138 -57t-138 57 t-57 138t57 138t138 57z" />
<glyph unicode="&#xc0;" horiz-adv-x="1268" d="M483 1365h403l278 -1175q8 -31 18 -55q9 -19 40 -31q26 -11 36 -22t10 -30q0 -52 -78 -52h-499q-30 0 -48 14.5t-18 38.5q0 20 8 30t36 25q20 10 28 22t8 30q0 17 -3 30l-32 145h-279l27 119h224l-184 813zM414 1111l51 -207l-177 -646q-8 -28 -8 -52q0 -63 59 -90 l35 -16q33 -15 33 -50q0 -50 -73 -50h-254q-37 0 -58.5 15.5t-21.5 42.5q0 29 44 48q41 18 60.5 32.5t37.5 39.5q28 41 46 109zM379 1744h200q29 0 40 -6t27 -32l149 -232q5 -7 5 -13t-8.5 -10.5t-20.5 -4.5h-72q-14 0 -32 14l-19 14l-275 214q-16 12 -21 18.5t-4 14.5 q1 10 10 16.5t21 6.5z" />
<glyph unicode="&#xc1;" horiz-adv-x="1268" d="M483 1365h403l278 -1175q8 -31 18 -55q9 -19 40 -31q26 -11 36 -22t10 -30q0 -52 -78 -52h-499q-30 0 -48 14.5t-18 38.5q0 20 8 30t36 25q20 10 28 22t8 30q0 17 -3 30l-32 145h-279l27 119h224l-184 813zM414 1111l51 -207l-177 -646q-8 -28 -8 -52q0 -63 59 -90 l35 -16q33 -15 33 -50q0 -50 -73 -50h-254q-37 0 -58.5 15.5t-21.5 42.5q0 29 44 48q41 18 60.5 32.5t37.5 39.5q28 41 46 109zM930 1688l-275 -214l-18 -14q-18 -14 -32 -14h-73q-12 0 -20 4.5t-8 10.5t4 13l150 232q16 26 27 32t40 6h199q13 0 22 -6.5t10 -16.5 q1 -13 -26 -33z" />
<glyph unicode="&#xc2;" horiz-adv-x="1268" d="M483 1365h403l278 -1175q8 -31 18 -55q9 -19 40 -31q26 -11 36 -22t10 -30q0 -52 -78 -52h-499q-30 0 -48 14.5t-18 38.5q0 20 8 30t36 25q20 10 28 22t8 30q0 17 -3 30l-32 145h-279l27 119h224l-184 813zM414 1111l51 -207l-177 -646q-8 -28 -8 -52q0 -63 59 -90 l35 -16q33 -15 33 -50q0 -50 -73 -50h-254q-37 0 -58.5 15.5t-21.5 42.5q0 29 44 48q41 18 60.5 32.5t37.5 39.5q28 41 46 109zM665 1557l-48 -78l-12 -18q-9 -13 -49 -13h-143q-46 0 -47 24q-1 10 17 29l195 204q37 38 65 38h51q36 0 73 -38l197 -204l16 -16q5 -7 5 -15 q0 -13 -7.5 -17.5t-28.5 -4.5h-164q-29 0 -46 7t-27 24z" />
<glyph unicode="&#xc3;" horiz-adv-x="1268" d="M483 1365h403l278 -1175q8 -31 18 -55q9 -19 40 -31q26 -11 36 -22t10 -30q0 -52 -78 -52h-499q-30 0 -48 14.5t-18 38.5q0 20 8 30t36 25q20 10 28 22t8 30q0 17 -3 30l-32 145h-279l27 119h224l-184 813zM414 1111l51 -207l-177 -646q-8 -28 -8 -52q0 -63 59 -90 l35 -16q33 -15 33 -50q0 -50 -73 -50h-254q-37 0 -58.5 15.5t-21.5 42.5q0 29 44 48q41 18 60.5 32.5t37.5 39.5q28 41 46 109zM548 1743q33 0 67 -12t97 -45q93 -48 146 -48q21 0 35 14t22 44q7 22 14 30.5t19 8.5q24 0 34.5 -11.5t10.5 -38.5q0 -66 -40 -137 q-56 -101 -164 -101q-32 0 -64 9t-82 33l-67 32q-66 31 -95 31q-40 0 -60 -55q-8 -24 -14.5 -31.5t-18.5 -7.5q-44 0 -44 53q0 31 15 74t37 75q56 83 152 83z" />
<glyph unicode="&#xc4;" horiz-adv-x="1268" d="M483 1365h403l278 -1175q8 -31 18 -55q9 -19 40 -31q26 -11 36 -22t10 -30q0 -52 -78 -52h-499q-30 0 -48 14.5t-18 38.5q0 20 8 30t36 25q20 10 28 22t8 30q0 17 -3 30l-32 145h-279l27 119h224l-184 813zM414 1111l51 -207l-177 -646q-8 -28 -8 -52q0 -63 59 -90 l35 -16q33 -15 33 -50q0 -50 -73 -50h-254q-37 0 -58.5 15.5t-21.5 42.5q0 29 44 48q41 18 60.5 32.5t37.5 39.5q28 41 46 109zM483 1745q61 0 104.5 -43.5t43.5 -104.5t-43.5 -104.5t-104.5 -43.5t-104.5 43.5t-43.5 104.5t43.5 104.5t104.5 43.5zM864 1745 q61 0 104.5 -43.5t43.5 -104.5t-43.5 -104.5t-104.5 -43.5t-104.5 43.5t-43.5 104.5t43.5 104.5t104.5 43.5z" />
<glyph unicode="&#xc5;" horiz-adv-x="1268" d="M483 1365h403l278 -1175q8 -31 18 -55q9 -19 40 -31q26 -11 36 -22t10 -30q0 -52 -78 -52h-499q-30 0 -48 14.5t-18 38.5q0 20 8 30t36 25q20 10 28 22t8 30q0 17 -3 30l-32 145h-279l27 119h224l-184 813zM414 1111l51 -207l-177 -646q-8 -28 -8 -52q0 -63 59 -90 l35 -16q33 -15 33 -50q0 -50 -73 -50h-254q-37 0 -58.5 15.5t-21.5 42.5q0 29 44 48q41 18 60.5 32.5t37.5 39.5q28 41 46 109zM711 1861q50 -11 79 -27t56 -47q54 -62 54 -143t-54 -143q-27 -31 -56 -47t-79 -27v130q35 17 50.5 37.5t15.5 49.5t-15.5 49.5t-50.5 36.5v131z M639 1427q-50 11 -79 27t-56 47q-54 62 -54 143t54 143q27 31 56 47t79 27v-131q-34 -16 -50 -36.5t-16 -49.5t16 -49.5t50 -37.5v-130z" />
<glyph unicode="&#xc6;" horiz-adv-x="1802" d="M1317 1365h403v-355q0 -58 -52 -58q-21 0 -30.5 9t-18.5 36q-39 117 -112 177.5t-190 72.5v118zM1312 637v116q58 28 86 60.5t41 88.5q8 38 21 52.5t37 14.5q32 0 44 -25q7 -13 7 -59v-381q0 -47 -10.5 -65t-38.5 -18q-23 0 -36 14t-21 47q-17 69 -48.5 106t-81.5 49z M1318 0v108q66 10 108 28t85 55q80 69 118 181q11 32 22.5 43.5t33.5 11.5q29 0 39 -16.5t10 -63.5v-347h-416zM1229 1365v-1365h-444h-27q-36 0 -55.5 13.5t-19.5 38.5q0 41 40 54q33 10 38.5 13t11.5 12q12 16 12 51v156h-378l65 119h313v726q0 35 -12 51q-6 9 -11.5 11.5 t-38.5 13.5q-40 13 -40 54q0 25 19.5 38.5t55.5 13.5h26h445zM716 1147v-186l-440 -718q-23 -37 -23 -64q0 -45 62 -70q39 -16 50 -27t11 -33q0 -23 -14.5 -36t-39.5 -13h-296q-23 0 -38 13.5t-15 35.5q0 20 9.5 32t33.5 21q48 18 65.5 32.5t42.5 55.5z" />
<glyph unicode="&#xc7;" horiz-adv-x="1197" d="M632 1392v-121q-59 -9 -88 -52t-29 -123v-826v-43q0 -23 9.5 -48.5t24.5 -43.5q16 -20 34 -28.5t49 -11.5v-122q-194 0 -337 101q-126 89 -190 239.5t-64 356.5q0 151 41.5 281.5t120.5 226.5q80 97 191.5 156t214.5 59zM711 1270v121q49 -8 79.5 -17t110.5 -38 q51 -18 68 -18q29 0 44 26l13 24q12 24 45 24q27 0 41.5 -16t14.5 -47v-416q0 -40 -18 -58t-41 -18q-24 0 -38.5 15.5t-23.5 50.5q-21 79 -41 124q-43 95 -98 154q-37 40 -74 61.5t-82 27.5zM714 -27v122q78 6 164 59q46 29 82 77.5t54 106.5q10 32 23.5 45.5t35.5 13.5 q24 0 40 -18t16 -45q0 -45 -34.5 -109t-88.5 -118q-66 -66 -135.5 -98t-156.5 -36zM662 -388q-27 -5 -45 -5q-63 0 -99.5 35.5t-36.5 97.5q0 57 43.5 100t101.5 43q73 0 122.5 -55t49.5 -137q0 -62 -27.5 -118t-76.5 -94q-60 -46 -114 -46q-23 0 -37.5 12t-14.5 31 q0 33 38 45l22 7q35 11 53 32q12 15 17 31q1 2 3 11.5t1 9.5z" />
<glyph unicode="&#xc8;" horiz-adv-x="1202" d="M628 1365v-1365h-445h-26q-36 0 -55.5 13.5t-19.5 38.5q0 41 40 54q33 11 38.5 13.5t11.5 11.5q12 16 12 51v1001q0 35 -12 51q-6 9 -11.5 11.5t-38.5 13.5q-40 13 -40 54q0 25 19.5 38.5t55.5 13.5h26h445zM717 1365h403v-354q0 -31 -12 -45t-38 -14q-22 0 -32 9t-19 37 q-38 116 -111.5 177t-190.5 73v117zM712 637v116q58 28 86 61t41 88q8 38 21 52.5t37 14.5q32 0 44 -25q7 -13 7 -59v-381q0 -47 -10.5 -65t-38.5 -18q-23 0 -36 14t-21 47q-17 69 -48.5 106t-81.5 49zM718 0v108q65 10 107.5 28t85.5 55t68.5 76.5t48.5 104.5 q11 32 23 43.5t33 11.5q28 0 39 -16.5t11 -57.5v-353h-416zM346 1744h200q29 0 40 -6t27 -32l149 -232q5 -7 5 -13t-8.5 -10.5t-20.5 -4.5h-72q-14 0 -32 14l-19 14l-275 214q-26 20 -25 33q1 10 10 16.5t21 6.5z" />
<glyph unicode="&#xc9;" horiz-adv-x="1202" d="M628 1365v-1365h-445h-26q-36 0 -55.5 13.5t-19.5 38.5q0 41 40 54q33 11 38.5 13.5t11.5 11.5q12 16 12 51v1001q0 35 -12 51q-6 9 -11.5 11.5t-38.5 13.5q-40 13 -40 54q0 25 19.5 38.5t55.5 13.5h26h445zM717 1365h403v-354q0 -31 -12 -45t-38 -14q-22 0 -32 9t-19 37 q-38 116 -111.5 177t-190.5 73v117zM712 637v116q58 28 86 61t41 88q8 38 21 52.5t37 14.5q32 0 44 -25q7 -13 7 -59v-381q0 -47 -10.5 -65t-38.5 -18q-23 0 -36 14t-21 47q-17 69 -48.5 106t-81.5 49zM718 0v108q65 10 107.5 28t85.5 55t68.5 76.5t48.5 104.5 q11 32 23 43.5t33 11.5q28 0 39 -16.5t11 -57.5v-353h-416zM897 1688l-275 -214l-18 -14q-18 -14 -32 -14h-73q-27 0 -28 15q0 6 4 13l149 232q17 26 28 32t40 6h199q13 0 22 -6.5t10 -16.5q1 -12 -26 -33z" />
<glyph unicode="&#xca;" horiz-adv-x="1202" d="M628 1365v-1365h-445h-26q-36 0 -55.5 13.5t-19.5 38.5q0 41 40 54q33 11 38.5 13.5t11.5 11.5q12 16 12 51v1001q0 35 -12 51q-6 9 -11.5 11.5t-38.5 13.5q-40 13 -40 54q0 25 19.5 38.5t55.5 13.5h26h445zM717 1365h403v-354q0 -31 -12 -45t-38 -14q-22 0 -32 9t-19 37 q-38 116 -111.5 177t-190.5 73v117zM712 637v116q58 28 86 61t41 88q8 38 21 52.5t37 14.5q32 0 44 -25q7 -13 7 -59v-381q0 -47 -10.5 -65t-38.5 -18q-23 0 -36 14t-21 47q-17 69 -48.5 106t-81.5 49zM718 0v108q65 10 107.5 28t85.5 55t68.5 76.5t48.5 104.5 q11 32 23 43.5t33 11.5q28 0 39 -16.5t11 -57.5v-353h-416zM591 1557l-48 -78l-12 -18q-9 -13 -49 -13h-143q-46 0 -47 24q-1 10 17 29l195 204q37 38 65 38h51q36 0 73 -38l197 -204l16 -16q5 -7 5 -15q0 -13 -7.5 -17.5t-28.5 -4.5h-164q-29 0 -46 7t-27 24z" />
<glyph unicode="&#xcb;" horiz-adv-x="1202" d="M628 1365v-1365h-445h-26q-36 0 -55.5 13.5t-19.5 38.5q0 41 40 54q33 11 38.5 13.5t11.5 11.5q12 16 12 51v1001q0 35 -12 51q-6 9 -11.5 11.5t-38.5 13.5q-40 13 -40 54q0 25 19.5 38.5t55.5 13.5h26h445zM717 1365h403v-354q0 -31 -12 -45t-38 -14q-22 0 -32 9t-19 37 q-38 116 -111.5 177t-190.5 73v117zM712 637v116q58 28 86 61t41 88q8 38 21 52.5t37 14.5q32 0 44 -25q7 -13 7 -59v-381q0 -47 -10.5 -65t-38.5 -18q-23 0 -36 14t-21 47q-17 69 -48.5 106t-81.5 49zM718 0v108q65 10 107.5 28t85.5 55t68.5 76.5t48.5 104.5 q11 32 23 43.5t33 11.5q28 0 39 -16.5t11 -57.5v-353h-416zM409 1745q61 0 104.5 -43.5t43.5 -104.5t-43.5 -104.5t-104.5 -43.5t-104.5 43.5t-43.5 104.5t43.5 104.5t104.5 43.5zM790 1745q61 0 104.5 -43.5t43.5 -104.5t-43.5 -104.5t-104.5 -43.5t-104.5 43.5 t-43.5 104.5t43.5 104.5t104.5 43.5z" />
<glyph unicode="&#xcc;" horiz-adv-x="812" d="M629 0h-446h-26q-36 0 -55.5 13.5t-19.5 38.5q0 41 40 54q33 11 38.5 13.5t11.5 11.5q12 16 12 51v1001q0 35 -12 51q-6 9 -11.5 11.5t-38.5 13.5q-40 13 -40 54q0 25 19.5 38.5t55.5 13.5h26h446h26q36 0 55.5 -13.5t19.5 -38.5q0 -41 -40 -54q-33 -11 -38.5 -13.5 t-11.5 -11.5q-12 -16 -12 -51v-1001q0 -35 12 -51q6 -9 11.5 -11.5t38.5 -13.5q40 -13 40 -54q0 -25 -19.5 -38.5t-55.5 -13.5h-26zM118 1744h200q29 0 40 -6t27 -32l150 -232q4 -7 4 -13t-8 -10.5t-20 -4.5h-73q-14 0 -32 14l-19 14l-275 214q-16 12 -21 19t-4 14 q1 10 10 16.5t21 6.5z" />
<glyph unicode="&#xcd;" horiz-adv-x="812" d="M629 0h-446h-26q-36 0 -55.5 13.5t-19.5 38.5q0 41 40 54q33 11 38.5 13.5t11.5 11.5q12 16 12 51v1001q0 35 -12 51q-6 9 -11.5 11.5t-38.5 13.5q-40 13 -40 54q0 25 19.5 38.5t55.5 13.5h26h446h26q36 0 55.5 -13.5t19.5 -38.5q0 -41 -40 -54q-33 -11 -38.5 -13.5 t-11.5 -11.5q-12 -16 -12 -51v-1001q0 -35 12 -51q6 -9 11.5 -11.5t38.5 -13.5q40 -13 40 -54q0 -25 -19.5 -38.5t-55.5 -13.5h-26zM704 1688l-275 -214l-19 -14q-18 -14 -32 -14h-72q-12 0 -20.5 4.5t-8.5 10.5t5 13l149 232q16 26 27 32t40 6h200q12 0 21 -6.5t10 -16.5 q1 -13 -25 -33z" />
<glyph unicode="&#xce;" horiz-adv-x="812" d="M629 0h-446h-26q-36 0 -55.5 13.5t-19.5 38.5q0 41 40 54q33 11 38.5 13.5t11.5 11.5q12 16 12 51v1001q0 35 -12 51q-6 9 -11.5 11.5t-38.5 13.5q-40 13 -40 54q0 25 19.5 38.5t55.5 13.5h26h446h26q36 0 55.5 -13.5t19.5 -38.5q0 -41 -40 -54q-33 -11 -38.5 -13.5 t-11.5 -11.5q-12 -16 -12 -51v-1001q0 -35 12 -51q6 -9 11.5 -11.5t38.5 -13.5q40 -13 40 -54q0 -25 -19.5 -38.5t-55.5 -13.5h-26zM398 1557l-49 -78l-11 -18q-10 -13 -50 -13h-142q-46 0 -47 24q-1 11 17 29l195 204q36 38 65 38h51q35 0 72 -38l197 -204l16 -16 q5 -7 5 -15q0 -13 -7.5 -17.5t-27.5 -4.5h-164q-30 0 -47 7t-27 24z" />
<glyph unicode="&#xcf;" horiz-adv-x="812" d="M629 0h-446h-26q-36 0 -55.5 13.5t-19.5 38.5q0 41 40 54q33 11 38.5 13.5t11.5 11.5q12 16 12 51v1001q0 35 -12 51q-6 9 -11.5 11.5t-38.5 13.5q-40 13 -40 54q0 25 19.5 38.5t55.5 13.5h26h446h26q36 0 55.5 -13.5t19.5 -38.5q0 -41 -40 -54q-33 -11 -38.5 -13.5 t-11.5 -11.5q-12 -16 -12 -51v-1001q0 -35 12 -51q6 -9 11.5 -11.5t38.5 -13.5q40 -13 40 -54q0 -25 -19.5 -38.5t-55.5 -13.5h-26zM215 1745q61 0 104.5 -43.5t43.5 -104.5t-43.5 -104.5t-104.5 -43.5t-104.5 43.5t-43.5 104.5t43.5 104.5t104.5 43.5zM597 1745 q61 0 104.5 -43.5t43.5 -104.5t-43.5 -104.5t-104.5 -43.5t-104.5 43.5t-43.5 104.5t43.5 104.5t104.5 43.5z" />
<glyph unicode="&#xd0;" horiz-adv-x="1328" d="M628 1365v-609h112v-99h-112v-657h-445h-26q-36 0 -55.5 13.5t-19.5 39.5q0 41 40 55q32 10 38 13t12 12q12 16 12 52v472h-102v99h102v427q0 35 -12 51q-6 9 -11.5 11.5t-38.5 13.5q-40 13 -40 54q0 25 19.5 38.5t55.5 13.5h26h445zM830 286v789q0 73 -21 116 q-13 28 -32 41t-60 22v111q53 0 90 -4q127 -14 246 -108q118 -91 175 -237q59 -148 59 -328q0 -204 -75 -362.5t-215 -249.5q-68 -44 -126.5 -60t-153.5 -16v108q42 11 58.5 20t28.5 28q15 22 20.5 49.5t5.5 80.5z" />
<glyph unicode="&#xd1;" horiz-adv-x="1375" d="M648 1365l532 -924v-441h-273l-679 1170q-22 38 -36 53t-36 22l-38 14q-15 5 -24 18t-9 29q0 17 9 31.5t24 20.5q17 7 92 7h438zM229 1014l106 -176v-536q0 -70 23.5 -115t74.5 -74l30 -17q26 -15 26 -45q0 -23 -19 -38q-16 -13 -66 -13h-231q-91 0 -91 52q0 18 9.5 28.5 t41.5 28.5q96 53 96 193v712zM1180 601l-106 179v277q0 84 -24.5 128.5t-86.5 76.5q-21 10 -29 21.5t-8 29.5q0 27 17.5 39.5t56.5 12.5h250q51 0 67 -16q17 -16 17 -38q0 -21 -9.5 -31.5t-45.5 -28.5q-53 -27 -80 -83q-19 -41 -19 -111v-456zM568 1743q32 0 66.5 -12 t97.5 -45q93 -48 146 -48q21 0 35 14t22 44q6 22 13 30.5t20 8.5q24 0 34.5 -12t10.5 -38q0 -29 -11 -67t-29 -70q-56 -101 -164 -101q-32 0 -64.5 9.5t-82.5 32.5l-67 32q-66 31 -94 31q-41 0 -61 -55q-8 -24 -14.5 -31.5t-18.5 -7.5q-44 0 -44 53q0 31 15 74t37 75 q56 83 153 83z" />
<glyph unicode="&#xd2;" horiz-adv-x="1299" d="M608 1284q-51 -18 -72 -49t-21 -91v-894q0 -88 24 -124q19 -30 69 -43v-110q-222 18 -372 167q-195 194 -195 541q0 174 51.5 314.5t152.5 238.5q77 75 166 114t197 44v-108zM690 1284v108q108 -5 197.5 -44t166.5 -114q204 -199 204 -553q0 -347 -195 -541 q-150 -150 -373 -167v110q26 6 40.5 15.5t26.5 27.5q27 41 27 124v894q0 53 -18 84q-12 21 -28.5 33t-47.5 23zM360 1744h200q29 0 40 -6t27 -32l150 -232q4 -7 4 -13t-8.5 -10.5t-20.5 -4.5h-72q-14 0 -32 14l-19 14l-275 214q-26 20 -25 33q1 10 10 16.5t21 6.5z" />
<glyph unicode="&#xd3;" horiz-adv-x="1299" d="M608 1284q-51 -18 -72 -49t-21 -91v-894q0 -88 24 -124q19 -30 69 -43v-110q-222 18 -372 167q-195 194 -195 541q0 174 51.5 314.5t152.5 238.5q77 75 166 114t197 44v-108zM690 1284v108q108 -5 197.5 -44t166.5 -114q204 -199 204 -553q0 -347 -195 -541 q-150 -150 -373 -167v110q26 6 40.5 15.5t26.5 27.5q27 41 27 124v894q0 53 -18 84q-12 21 -28.5 33t-47.5 23zM946 1688l-275 -214l-19 -14q-18 -14 -32 -14h-72q-13 0 -21 4.5t-8 10.5t4 13l150 232q16 26 27 32t40 6h200q12 0 21 -6.5t10 -16.5q1 -13 -25 -33z" />
<glyph unicode="&#xd4;" horiz-adv-x="1299" d="M608 1284q-51 -18 -72 -49t-21 -91v-894q0 -88 24 -124q19 -30 69 -43v-110q-222 18 -372 167q-195 194 -195 541q0 174 51.5 314.5t152.5 238.5q77 75 166 114t197 44v-108zM690 1284v108q108 -5 197.5 -44t166.5 -114q204 -199 204 -553q0 -347 -195 -541 q-150 -150 -373 -167v110q26 6 40.5 15.5t26.5 27.5q27 41 27 124v894q0 53 -18 84q-12 21 -28.5 33t-47.5 23zM639 1557l-48 -78l-11 -18q-10 -13 -50 -13h-143q-45 0 -46 24q-1 11 17 29l194 204q37 38 65 38h51q36 0 73 -38l197 -204l16 -16q5 -7 5 -15q0 -13 -7.5 -17.5 t-28.5 -4.5h-163q-30 0 -47 7t-27 24z" />
<glyph unicode="&#xd5;" horiz-adv-x="1299" d="M608 1284q-51 -18 -72 -49t-21 -91v-894q0 -88 24 -124q19 -30 69 -43v-110q-222 18 -372 167q-195 194 -195 541q0 174 51.5 314.5t152.5 238.5q77 75 166 114t197 44v-108zM690 1284v108q108 -5 197.5 -44t166.5 -114q204 -199 204 -553q0 -347 -195 -541 q-150 -150 -373 -167v110q26 6 40.5 15.5t26.5 27.5q27 41 27 124v894q0 53 -18 84q-12 21 -28.5 33t-47.5 23zM529 1743q33 0 67 -12t97 -45q93 -48 146 -48q21 0 35 14t22 44q6 22 13.5 30.5t19.5 8.5q24 0 34.5 -11.5t10.5 -38.5q0 -66 -40 -137q-56 -101 -164 -101 q-32 0 -64 9t-82 33l-67 32q-66 31 -95 31q-40 0 -60 -55q-8 -24 -14.5 -31.5t-18.5 -7.5q-44 0 -44 53q0 31 15 74t37 75q56 83 152 83z" />
<glyph unicode="&#xd6;" horiz-adv-x="1299" d="M608 1284q-51 -18 -72 -49t-21 -91v-894q0 -88 24 -124q19 -30 69 -43v-110q-222 18 -372 167q-195 194 -195 541q0 174 51.5 314.5t152.5 238.5q77 75 166 114t197 44v-108zM690 1284v108q108 -5 197.5 -44t166.5 -114q204 -199 204 -553q0 -347 -195 -541 q-150 -150 -373 -167v110q26 6 40.5 15.5t26.5 27.5q27 41 27 124v894q0 53 -18 84q-12 21 -28.5 33t-47.5 23zM457 1745q61 0 104.5 -43.5t43.5 -104.5t-43.5 -104.5t-104.5 -43.5t-104.5 43.5t-43.5 104.5t43.5 104.5t104.5 43.5zM839 1745q61 0 104.5 -43.5t43.5 -104.5 t-43.5 -104.5t-104.5 -43.5t-104.5 43.5t-43.5 104.5t43.5 104.5t104.5 43.5z" />
<glyph unicode="&#xd7;" horiz-adv-x="1176" d="M588 534l-256 -263q-16 -16 -29 -16q-12 0 -29 16l-98 99q-17 17 -17 29q0 13 17 29l262 256l-262 256q-17 16 -17 29q0 12 17 29l98 98q17 17 29 17q13 0 29 -17l256 -263l256 263q16 17 29 17q12 0 29 -17l98 -98q17 -17 17 -29q0 -13 -17 -29l-263 -256l263 -256 q17 -16 17 -29q0 -12 -17 -29l-98 -99q-17 -16 -29 -16q-13 0 -29 16z" />
<glyph unicode="&#xd8;" horiz-adv-x="1299" d="M1102 1182l4 -6q152 -192 152 -495q0 -347 -195 -541q-151 -150 -373 -167v110q27 6 41 15.5t26 27.5q27 41 27 124v552l-93 -124v146l93 123v197q0 53 -18 84q-12 21 -28 33t-48 23v108q206 -10 352 -147l119 147l66 -56zM609 567l-94 -124v-193q0 -88 24 -124 q19 -30 69 -43v-110q-212 17 -361 157l-127 -157l-65 60l132 162q-70 88 -108 213.5t-38 271.5q0 355 204 554q77 75 166 114t197 44v-108q-51 -18 -72 -49t-21 -91v-555l94 125v-147z" />
<glyph unicode="&#xd9;" horiz-adv-x="1386" d="M167 399v784q0 35 -12 51q-6 9 -11.5 11.5t-38.5 13.5q-40 13 -40 53q0 26 19.5 39.5t55.5 13.5h26h446h26l36 -4q17 -5 28 -18t11 -31q0 -40 -40 -53q-33 -11 -38.5 -13.5t-11.5 -11.5q-12 -16 -12 -51v-839q0 -85 4.5 -118.5t18.5 -60.5q13 -25 29 -36t61 -25v-131h-22 q-130 0 -216 23q-101 27 -177 80t-108 119q-34 70 -34 204zM816 -27v131q100 13 167 82q76 79 76 227v652q0 137 -105 191q-31 16 -40.5 27.5t-9.5 33.5q0 26 19 37t62 11h245q31 0 41.5 -1.5t20.5 -7.5q26 -15 26 -41q0 -22 -16 -37q-5 -5 -43 -27q-44 -24 -69 -73.5 t-25 -112.5v-653q0 -168 -74 -276q-54 -80 -155 -128q-50 -24 -120 -35zM445 1744h200q29 0 40 -6t27 -32l149 -232q5 -7 5 -13t-8.5 -10.5t-20.5 -4.5h-72q-14 0 -32 14l-19 14l-275 214q-26 20 -25 33q1 10 9.5 16.5t21.5 6.5z" />
<glyph unicode="&#xda;" horiz-adv-x="1386" d="M167 399v784q0 35 -12 51q-6 9 -11.5 11.5t-38.5 13.5q-40 13 -40 53q0 26 19.5 39.5t55.5 13.5h26h446h26l36 -4q17 -5 28 -18t11 -31q0 -40 -40 -53q-33 -11 -38.5 -13.5t-11.5 -11.5q-12 -16 -12 -51v-839q0 -85 4.5 -118.5t18.5 -60.5q13 -25 29 -36t61 -25v-131h-22 q-130 0 -216 23q-101 27 -177 80t-108 119q-34 70 -34 204zM816 -27v131q100 13 167 82q76 79 76 227v652q0 137 -105 191q-31 16 -40.5 27.5t-9.5 33.5q0 26 19 37t62 11h245q31 0 41.5 -1.5t20.5 -7.5q26 -15 26 -41q0 -22 -16 -37q-5 -5 -43 -27q-44 -24 -69 -73.5 t-25 -112.5v-653q0 -168 -74 -276q-54 -80 -155 -128q-50 -24 -120 -35zM990 1688l-275 -214l-19 -14q-18 -14 -32 -14h-73q-11 0 -19.5 4.5t-8.5 10.5t4 13l150 232q16 26 27 32t40 6h200q12 0 21 -6.5t10 -16.5q1 -13 -25 -33z" />
<glyph unicode="&#xdb;" horiz-adv-x="1386" d="M167 399v784q0 35 -12 51q-6 9 -11.5 11.5t-38.5 13.5q-40 13 -40 53q0 26 19.5 39.5t55.5 13.5h26h446h26l36 -4q17 -5 28 -18t11 -31q0 -40 -40 -53q-33 -11 -38.5 -13.5t-11.5 -11.5q-12 -16 -12 -51v-839q0 -85 4.5 -118.5t18.5 -60.5q13 -25 29 -36t61 -25v-131h-22 q-130 0 -216 23q-101 27 -177 80t-108 119q-34 70 -34 204zM816 -27v131q100 13 167 82q76 79 76 227v652q0 137 -105 191q-31 16 -40.5 27.5t-9.5 33.5q0 26 19 37t62 11h245q31 0 41.5 -1.5t20.5 -7.5q26 -15 26 -41q0 -22 -16 -37q-5 -5 -43 -27q-44 -24 -69 -73.5 t-25 -112.5v-653q0 -168 -74 -276q-54 -80 -155 -128q-50 -24 -120 -35zM718 1557l-49 -78l-11 -18q-10 -13 -50 -13h-143q-45 0 -46 24q-1 11 17 29l195 204q36 38 64 38h51q36 0 73 -38l197 -204l16 -16q5 -7 5 -15q0 -13 -7.5 -17.5t-27.5 -4.5h-164q-30 0 -47 7t-27 24z " />
<glyph unicode="&#xdc;" horiz-adv-x="1386" d="M167 399v784q0 35 -12 51q-6 9 -11.5 11.5t-38.5 13.5q-40 13 -40 53q0 26 19.5 39.5t55.5 13.5h26h446h26l36 -4q17 -5 28 -18t11 -31q0 -40 -40 -53q-33 -11 -38.5 -13.5t-11.5 -11.5q-12 -16 -12 -51v-839q0 -85 4.5 -118.5t18.5 -60.5q13 -25 29 -36t61 -25v-131h-22 q-130 0 -216 23q-101 27 -177 80t-108 119q-34 70 -34 204zM816 -27v131q100 13 167 82q76 79 76 227v652q0 137 -105 191q-31 16 -40.5 27.5t-9.5 33.5q0 26 19 37t62 11h245q31 0 41.5 -1.5t20.5 -7.5q26 -15 26 -41q0 -22 -16 -37q-5 -5 -43 -27q-44 -24 -69 -73.5 t-25 -112.5v-653q0 -168 -74 -276q-54 -80 -155 -128q-50 -24 -120 -35zM501 1745q61 0 104.5 -43.5t43.5 -104.5t-43.5 -104.5t-104.5 -43.5t-104.5 43.5t-43.5 104.5t43.5 104.5t104.5 43.5zM883 1745q61 0 104.5 -43.5t43.5 -104.5t-43.5 -104.5t-104.5 -43.5 t-104.5 43.5t-43.5 104.5t43.5 104.5t104.5 43.5z" />
<glyph unicode="&#xdd;" horiz-adv-x="1223" d="M821 626v-436q0 -39 15 -56q8 -10 15 -12.5t46 -12.5q48 -11 48 -55q0 -29 -27 -44q-16 -10 -62 -10h-34h-446h-33q-45 0 -63 12q-26 16 -26 42q0 44 48 55q39 10 46 12.5t14 12.5q15 17 15 56v338l-283 675q-16 38 -45 55q-27 17 -34.5 27t-7.5 28q0 52 76 52h490 q39 0 54 -9q25 -16 25 -42q0 -32 -29 -50l-29 -18q-17 -11 -17 -33q0 -25 11 -49zM860 721l-56 131l105 235q13 30 13 82q0 58 -64 83q-35 14 -45.5 24.5t-10.5 32.5q0 27 18 41q12 9 27 12t52 3h247q70 0 70 -56q0 -20 -9.5 -31t-36.5 -23q-49 -22 -70 -44q-30 -32 -50 -73 l-23 -51zM908 1688l-275 -214l-19 -14q-18 -14 -32 -14h-72q-12 0 -20.5 4.5t-8.5 10.5t5 13l149 232q16 26 27 32t40 6h200q13 0 21.5 -6.5t9.5 -16.5q1 -13 -25 -33z" />
<glyph unicode="&#xde;" horiz-adv-x="1303" d="M184 182v1001q0 35 -12 51q-6 9 -11.5 11.5t-38.5 13.5q-40 13 -40 54q0 25 19.5 38.5t55.5 13.5h26h446h34q44 0 63 -12q26 -16 26 -42q0 -44 -48 -55q-39 -9 -46 -12t-15 -12q-15 -18 -15 -56v-986q0 -39 15 -56q8 -10 15 -12.5t46 -12.5q48 -11 48 -55q0 -26 -26 -42 q-19 -12 -63 -12h-34h-446h-26q-36 0 -55.5 13.5t-19.5 38.5q0 41 40 54q33 11 38.5 13.5t11.5 11.5q12 16 12 51zM713 1066v108q205 0 303 -39q113 -45 179 -138q67 -95 67 -233q0 -154 -68 -251q-68 -98 -190 -144q-101 -37 -291 -37v108q43 9 60.5 20t30.5 34 q21 39 21 105v321q0 46 -7 69t-28 43q-29 27 -77 34z" />
<glyph unicode="&#xf7;" d="M1100 750v-133q0 -23 -9 -32t-32 -9h-941q-23 0 -32 9t-9 32v133q0 23 9 32t32 9h941q23 0 32 -9t9 -32zM586 1239q74 0 126.5 -52.5t52.5 -126.5t-52.5 -126.5t-126.5 -52.5t-126.5 52.5t-52.5 126.5t52.5 126.5t126.5 52.5zM586 491q74 0 126.5 -52.5t52.5 -126.5 t-52.5 -126.5t-126.5 -52.5t-126.5 52.5t-52.5 126.5t52.5 126.5t126.5 52.5z" />
<glyph unicode="&#x100;" horiz-adv-x="1268" d="M483 1365h403l278 -1175q8 -31 18 -55q9 -19 40 -31q26 -11 36 -22t10 -30q0 -52 -78 -52h-499q-30 0 -48 14.5t-18 38.5q0 20 8 30t36 25q20 10 28 22t8 30q0 17 -3 30l-32 145h-279l27 119h224l-184 813zM414 1111l51 -207l-177 -646q-8 -28 -8 -52q0 -63 59 -90 l35 -16q33 -15 33 -50q0 -50 -73 -50h-254q-37 0 -58.5 15.5t-21.5 42.5q0 29 44 48q41 18 60.5 32.5t37.5 39.5q28 41 46 109z" />
<glyph unicode="&#x101;" horiz-adv-x="1371" d="M628 1365v-1365h-445h-26q-36 0 -55.5 13.5t-19.5 38.5q0 41 40 54q33 11 38.5 13.5t11.5 11.5q12 16 12 51v1001q0 35 -12 51q-6 9 -11.5 11.5t-38.5 13.5q-40 13 -40 54q0 25 19.5 38.5t55.5 13.5h26h445zM939 707q90 -18 138.5 -35t87.5 -43q67 -43 102.5 -113.5 t35.5 -157.5q0 -171 -126 -267q-65 -50 -143.5 -70.5t-205.5 -20.5h-119v105q40 3 63 11.5t41 28.5q33 37 33 115v227q0 50 -8.5 78t-31.5 51q-17 18 -37 26t-57 13v104q37 3 57.5 10t37.5 23q16 15 27 39t12 44v55v173q0 27 -9 56.5t-22 46.5q-19 23 -42.5 34t-63.5 15v110 h115q228 0 348 -94q55 -43 84 -104t29 -132q0 -70 -29.5 -132t-82.5 -103q-39 -32 -90 -52t-144 -41z" />
<glyph unicode="&#x102;" horiz-adv-x="1197" d="M632 1392v-121q-59 -9 -88 -52t-29 -123v-826v-43q0 -23 9.5 -48.5t24.5 -43.5q16 -20 34 -28.5t49 -11.5v-122q-194 0 -337 101q-126 89 -190 239.5t-64 356.5q0 151 41.5 281.5t120.5 226.5q80 97 191.5 156t214.5 59zM711 1270v121q49 -8 79.5 -17t110.5 -38 q51 -18 68 -18q29 0 44 26l13 24q12 24 45 24q27 0 41.5 -16t14.5 -47v-416q0 -40 -18 -58t-41 -18q-24 0 -38.5 15.5t-23.5 50.5q-21 79 -41 124q-43 95 -98 154q-37 40 -74 61.5t-82 27.5zM714 -27v122q78 6 164 59q46 29 82 77.5t54 106.5q10 32 23.5 45.5t35.5 13.5 q24 0 40 -18t16 -45q0 -45 -34.5 -109t-88.5 -118q-66 -66 -135.5 -98t-156.5 -36z" />
<glyph unicode="&#x103;" horiz-adv-x="1328" d="M628 1365v-1365h-445h-26q-36 0 -55.5 13.5t-19.5 38.5q0 41 40 54q33 11 38.5 13.5t11.5 11.5q12 16 12 51v1001q0 35 -12 51q-6 9 -11.5 11.5t-38.5 13.5q-40 13 -40 54q0 25 19.5 38.5t55.5 13.5h26h445zM830 286v789q0 73 -21 116q-13 28 -32 41t-60 22v111 q53 0 90 -4q127 -14 246 -108q118 -91 175 -237q59 -148 59 -328q0 -204 -75 -362.5t-215 -249.5q-68 -44 -126.5 -60t-153.5 -16v108q42 11 58.5 20t28.5 28q15 22 20.5 49.5t5.5 80.5z" />
<glyph unicode="&#x104;" horiz-adv-x="1202" d="M628 1365v-1365h-445h-26q-36 0 -55.5 13.5t-19.5 38.5q0 41 40 54q33 11 38.5 13.5t11.5 11.5q12 16 12 51v1001q0 35 -12 51q-6 9 -11.5 11.5t-38.5 13.5q-40 13 -40 54q0 25 19.5 38.5t55.5 13.5h26h445zM717 1365h403v-354q0 -31 -12 -45t-38 -14q-22 0 -32 9t-19 37 q-38 116 -111.5 177t-190.5 73v117zM712 637v116q58 28 86 61t41 88q8 38 21 52.5t37 14.5q32 0 44 -25q7 -13 7 -59v-381q0 -47 -10.5 -65t-38.5 -18q-23 0 -36 14t-21 47q-17 69 -48.5 106t-81.5 49zM718 0v108q65 10 107.5 28t85.5 55t68.5 76.5t48.5 104.5 q11 32 23 43.5t33 11.5q28 0 39 -16.5t11 -57.5v-353h-416z" />
<glyph unicode="&#x105;" horiz-adv-x="1160" d="M628 1365v-1175q0 -39 15 -56q8 -10 15 -12.5t46 -12.5q48 -11 48 -55q0 -26 -26 -42q-19 -12 -63 -12h-34h-446h-26q-36 0 -55.5 13.5t-19.5 38.5q0 41 40 54q33 11 38.5 13.5t11.5 11.5q12 16 12 51v1001q0 35 -12 51q-6 9 -11.5 11.5t-38.5 13.5q-40 13 -40 54 q0 25 19.5 38.5t55.5 13.5h26h445zM716 1365h403v-349q0 -34 -12 -49t-39 -15q-20 0 -31.5 10.5t-19.5 35.5q-15 49 -39 90t-54 70q-41 40 -90 61t-118 29v117zM711 637v116q59 28 86.5 60.5t40.5 88.5q8 38 21 52.5t37 14.5q32 0 44 -25q7 -13 7 -59v-381q0 -47 -10.5 -65 t-38.5 -18q-23 0 -36 14t-21 47q-18 69 -49 106t-81 49z" />
<glyph unicode="&#x106;" horiz-adv-x="1270" d="M603 1392v-111q-88 -21 -88 -140v-931q0 -54 15 -83q13 -24 55 -41v-113q-32 0 -58.5 5t-70.5 20q-105 36 -190 110t-140 177q-85 161 -85 381q0 213 76 378t218 259q82 55 176 79q39 10 92 10zM685 1283v108q163 -15 268 -60q31 -14 48 -14q16 0 24.5 7.5t34.5 42.5 q18 25 45 25q28 0 39.5 -15.5t11.5 -51.5v-389q0 -76 -56 -76q-28 0 -41.5 15t-25.5 59q-15 56 -54 130.5t-75 117.5q-41 50 -92 73.5t-127 27.5zM1137 167q-40 -40 -106.5 -81.5t-125.5 -65.5q-54 -21 -119.5 -34t-115.5 -13v113q29 7 43.5 17t24.5 28q17 31 17 79v292 q0 39 -15 56q-7 10 -14 12.5t-46 11.5q-48 12 -48 56q0 26 22.5 40t66.5 14h33h366q45 0 63.5 -12.5t18.5 -43.5q0 -19 -7.5 -31.5t-27.5 -26.5t-25 -26t-5 -44v-341z" />
<glyph unicode="&#x107;" horiz-adv-x="1546" d="M734 747h163v436q0 56 -29 66l-32 10q-38 12 -38 54q0 52 72 52h26h445h27q75 0 75 -52q0 -41 -40 -54q-33 -11 -38.5 -13.5t-11.5 -11.5q-12 -16 -12 -51v-997q0 -55 30 -67l32 -11q40 -13 40 -55q0 -53 -75 -53h-27h-445h-28q-70 0 -70 53q0 42 38 55l32 11q29 9 29 67 v462h-163v99zM650 0h-446h-26q-36 0 -55.5 13.5t-19.5 38.5q0 41 40 54q33 11 38.5 13.5t11.5 11.5q12 16 12 51v1001q0 35 -12 51q-6 9 -11.5 11.5t-38.5 13.5q-40 13 -40 54q0 25 19.5 38.5t55.5 13.5h26h446h26q71 0 71 -52q0 -42 -38 -54l-31 -10q-29 -10 -29 -66v-1001 q0 -56 29 -66l31 -10q38 -12 38 -54q0 -52 -71 -52h-26z" />
<glyph unicode="&#x108;" horiz-adv-x="812" d="M629 0h-446h-26q-36 0 -55.5 13.5t-19.5 38.5q0 41 40 54q33 11 38.5 13.5t11.5 11.5q12 16 12 51v1001q0 35 -12 51q-6 9 -11.5 11.5t-38.5 13.5q-40 13 -40 54q0 25 19.5 38.5t55.5 13.5h26h446h26q36 0 55.5 -13.5t19.5 -38.5q0 -41 -40 -54q-33 -11 -38.5 -13.5 t-11.5 -11.5q-12 -16 -12 -51v-1001q0 -35 12 -51q6 -9 11.5 -11.5t38.5 -13.5q40 -13 40 -54q0 -25 -19.5 -38.5t-55.5 -13.5h-26z" />
<glyph unicode="&#x109;" horiz-adv-x="1098" d="M498 229v946q0 62 -36 70l-39 10q-48 12 -48 55q0 27 22.5 40.5t66.5 13.5l33 1h445l27 1l36 -4q39 -11 39 -49q0 -40 -40 -54l-32 -10q-30 -10 -30 -66v-836q0 -183 -120 -279q-57 -45 -145 -70.5t-186 -25.5q-17 0 -58 2v116q7 5 10 7q20 15 28.5 24.5t14.5 23.5 q12 33 12 84zM343 90v-110q-125 20 -200 69q-68 45 -105.5 110.5t-37.5 140.5q0 91 62.5 156t149.5 65q83 0 141.5 -58.5t58.5 -140.5q0 -64 -43 -119q-29 -37 -84 -61q-18 -9 -19 -14t8.5 -12.5t23.5 -13.5q15 -6 45 -12z" />
<glyph unicode="&#x10a;" horiz-adv-x="1503" d="M650 0h-446h-26q-36 0 -55.5 13.5t-19.5 38.5q0 41 40 54q33 11 38.5 13.5t11.5 11.5q12 16 12 51v1001q0 35 -12 51q-6 9 -11.5 11.5t-38.5 13.5q-40 13 -40 54q0 25 19.5 38.5t55.5 13.5h26h446h26q36 0 55.5 -13.5t19.5 -38.5q0 -41 -40 -54q-33 -11 -38.5 -13.5 t-11.5 -11.5q-12 -16 -12 -51v-1001q0 -56 29 -66l31 -10q38 -12 38 -54q0 -52 -71 -52h-26zM1046 969l302 -790q12 -32 25 -48.5t34 -25.5q21 -10 27 -15q14 -14 14 -37q0 -53 -75 -53h-503q-36 0 -55.5 15t-19.5 43q0 32 37 50q23 11 31 18.5t9 20.5q0 7 -8 32l-128 382 q-18 53 -18 90q0 35 29 76l239 337q34 47 34 98q0 28 -15 52t-40 34l-36 15q-34 14 -34 47q0 27 21 44q14 11 46 11h356q35 0 54.5 -15.5t19.5 -43.5q0 -42 -46 -60l-53 -21q-33 -12 -84 -54q-38 -32 -94 -107z" />
<glyph unicode="&#x10b;" horiz-adv-x="1091" d="M628 0h-445h-26q-36 0 -55.5 13.5t-19.5 38.5q0 41 40 54q33 11 38.5 13.5t11.5 11.5q12 16 12 51v1001q0 35 -12 51q-6 9 -11.5 11.5t-38.5 13.5q-40 13 -40 54q0 25 19.5 38.5t55.5 13.5h26h446h34q44 0 63 -12q26 -16 26 -42q0 -44 -48 -55q-39 -9 -46 -12t-15 -12 q-15 -18 -15 -56v-1176zM709 0v112q49 9 77.5 20t54.5 32q42 33 77 91t57 129q16 55 29.5 72.5t39.5 17.5q28 0 41 -23q6 -11 6 -44v-407h-382z" />
<glyph unicode="&#x10c;" horiz-adv-x="1604" d="M976 1365h444h27q75 0 75 -52q0 -41 -40 -54q-33 -11 -38.5 -13.5t-11.5 -11.5q-12 -16 -12 -51v-1001q0 -35 12 -51q6 -9 11.5 -11.5t38.5 -13.5q40 -13 40 -54q0 -52 -75 -52h-27h-445h-33q-44 0 -66.5 13.5t-22.5 40.5q0 44 48 55q39 10 46 12.5t14 11.5q15 18 15 57 v1175zM608 1365l197 -561l87 303v-332l-231 -775h-53l-388 1151q-20 58 -42 78q-13 13 -45 19q-65 14 -65 62q0 26 18.5 40.5t53.5 14.5h468zM220 905l106 -302v-301q0 -46 3.5 -66t15.5 -44q21 -44 58 -66l37 -24q38 -23 38 -51q0 -51 -75 -51h-251q-75 0 -75 50 q0 16 6.5 24.5t25.5 19.5q111 60 111 208v603z" />
<glyph unicode="&#x10d;" horiz-adv-x="1375" d="M648 1365l532 -924v-441h-273l-679 1170q-22 38 -36 53t-36 22l-38 14q-15 5 -24 18t-9 29q0 17 9 31.5t24 20.5q17 7 92 7h438zM229 1014l106 -176v-536q0 -70 23.5 -115t74.5 -74l30 -17q26 -15 26 -45q0 -23 -19 -38q-16 -13 -66 -13h-231q-91 0 -91 52q0 18 9.5 28.5 t41.5 28.5q96 53 96 193v712zM1180 601l-106 179v277q0 84 -24.5 128.5t-86.5 76.5q-21 10 -29 21.5t-8 29.5q0 27 17.5 39.5t56.5 12.5h250q51 0 67 -16q17 -16 17 -38q0 -21 -9.5 -31.5t-45.5 -28.5q-53 -27 -80 -83q-19 -41 -19 -111v-456z" />
<glyph unicode="&#x10e;" horiz-adv-x="1299" d="M608 1284q-51 -18 -72 -49t-21 -91v-894q0 -88 24 -124q19 -30 69 -43v-110q-222 18 -372 167q-195 194 -195 541q0 174 51.5 314.5t152.5 238.5q77 75 166 114t197 44v-108zM690 1284v108q108 -5 197.5 -44t166.5 -114q204 -199 204 -553q0 -347 -195 -541 q-150 -150 -373 -167v110q26 6 40.5 15.5t26.5 27.5q27 41 27 124v894q0 53 -18 84q-12 21 -28.5 33t-47.5 23z" />
<glyph unicode="&#x10f;" horiz-adv-x="1303" d="M628 1365v-1175q0 -39 15 -56q8 -10 15 -12.5t46 -12.5q48 -11 48 -55q0 -26 -26 -42q-19 -12 -63 -12h-34h-446h-26q-36 0 -55.5 13.5t-19.5 38.5q0 41 40 54q33 11 38.5 13.5t11.5 11.5q12 16 12 51v1001q0 35 -12 51q-6 9 -11.5 11.5t-38.5 13.5q-40 13 -40 54 q0 25 19.5 38.5t55.5 13.5h26h445zM713 523v107q43 10 60.5 21t30.5 34q21 39 21 105v320q0 47 -7 70t-28 42q-29 28 -78 35v108q206 0 304 -39q113 -45 179 -138q67 -95 67 -233q0 -154 -68 -252q-68 -97 -190 -143q-101 -37 -291 -37z" />
<glyph unicode="&#x110;" horiz-adv-x="1311" d="M1041 114q37 -37 98 -37q35 0 63 13q25 11 35 11q12 0 22.5 -13.5t10.5 -29.5q0 -32 -48 -67q-86 -61 -177 -61q-120 0 -191 74q-67 -24 -158 -32v111q22 5 32.5 10.5t23.5 18.5l-8 8q-27 33 -44 45.5t-41 16.5q-31 6 -39.5 9.5t-14.5 12.5q-10 12 -10 29q0 28 24 44 t65 16q33 0 56.5 -6t49.5 -21v878q0 53 -18 84q-12 21 -28.5 33t-47.5 23v108q108 -5 197.5 -44t166.5 -114q204 -200 204 -554q0 -365 -223 -566zM614 1284q-51 -18 -72 -49t-21 -91v-894q0 -88 24 -124q19 -30 69 -43v-110q-222 18 -372 167q-195 194 -195 541 q0 174 51.5 314.5t152.5 238.5q77 75 166 114t197 44v-108z" />
<glyph unicode="&#x111;" horiz-adv-x="1432" d="M628 1365v-1175q0 -39 15 -56q8 -10 15 -12.5t46 -12.5q48 -11 48 -55q0 -26 -26 -42q-19 -12 -63 -12h-34h-446h-26q-36 0 -55.5 13.5t-19.5 38.5q0 41 40 54q33 11 38.5 13.5t11.5 11.5q12 16 12 51v1001q0 35 -12 51q-6 9 -11.5 11.5t-38.5 13.5q-40 13 -40 54 q0 25 19.5 38.5t55.5 13.5h26h445zM935 669q92 -14 141.5 -31t89.5 -46q42 -31 64.5 -74t22.5 -91v-207q0 -32 21 -32q8 0 13.5 4.5t15.5 17.5q25 34 51 34q17 0 34 -18t17 -36q0 -31 -29.5 -75.5t-73.5 -79.5q-41 -33 -89 -47.5t-113 -14.5q-132 0 -206 75.5t-74 210.5v168 q0 56 -1 65q-5 40 -28 69q-29 35 -83 41v107q54 8 77 28q20 18 27.5 41t7.5 68v265q0 63 -24.5 94t-88.5 49v111h26q111 0 189 -8q116 -11 207 -76q131 -93 131 -265q0 -141 -88 -231q-37 -38 -86.5 -62t-150.5 -54z" />
<glyph unicode="&#x112;" horiz-adv-x="1147" d="M543 1392v-115q-62 -17 -94.5 -52.5t-32.5 -87.5q0 -50 27 -87.5t88 -71.5q42 -23 190 -88q90 -39 139.5 -70.5t93.5 -78.5q118 -124 118 -295q0 -129 -64 -236t-176 -168q-60 -32 -131.5 -50.5t-133.5 -18.5v114q87 21 125.5 58.5t38.5 101.5q0 67 -60 118 q-40 33 -152 82q-123 54 -168.5 77t-87.5 54q-188 134 -188 357q0 114 47 210.5t131 155.5q117 82 290 91zM622 1277v110q60 -4 104 -15.5t125 -45.5q20 -8 33 -8q19 0 28 13l22 29q16 22 39 22q27 0 39.5 -19.5t12.5 -61.5v-330q0 -29 -16.5 -47.5t-42.5 -18.5 q-20 0 -37 13q-9 8 -14.5 19.5t-10.5 38.5q-11 49 -38 101t-63 93q-72 81 -181 107zM491 87v-114q-82 0 -181 47q-37 17 -51 22t-27 5q-20 0 -30 -6.5t-32 -32.5q-18 -22 -39 -22q-56 0 -56 86v364q0 28 16 47.5t40 20.5q22 1 34.5 -12.5t21.5 -47.5q23 -86 66.5 -161 t101.5 -127q59 -54 136 -69z" />
<glyph unicode="&#x113;" horiz-adv-x="1216" d="M829 1365v-1175q0 -39 15 -56q8 -10 15 -12.5t46 -12.5q48 -11 48 -55q0 -26 -26 -42q-19 -12 -64 -12h-33h-446h-33q-44 0 -66.5 13.5t-22.5 40.5q0 44 48 55q39 10 46 12.5t14 12.5q15 17 15 56v1175h444zM1175 1365v-409q0 -29 -16.5 -47t-42.5 -18q-25 0 -41.5 16.5 t-21.5 45.5l-10 61q-15 93 -58 161q-27 42 -73 69v121h263zM41 1365h263v-121q-47 -27 -73 -69q-43 -68 -58 -161l-10 -61q-5 -29 -21.5 -45.5t-41.5 -16.5q-26 0 -42.5 18t-16.5 47v409z" />
<glyph unicode="&#x114;" horiz-adv-x="1386" d="M167 399v784q0 35 -12 51q-6 9 -11.5 11.5t-38.5 13.5q-40 13 -40 53q0 26 19.5 39.5t55.5 13.5h26h446h26l36 -4q17 -5 28 -18t11 -31q0 -40 -40 -53q-33 -11 -38.5 -13.5t-11.5 -11.5q-12 -16 -12 -51v-839q0 -85 4.5 -118.5t18.5 -60.5q13 -25 29 -36t61 -25v-131h-22 q-130 0 -216 23q-101 27 -177 80t-108 119q-34 70 -34 204zM816 -27v131q100 13 167 82q76 79 76 227v652q0 137 -105 191q-31 16 -40.5 27.5t-9.5 33.5q0 26 19 37t62 11h245q31 0 41.5 -1.5t20.5 -7.5q26 -15 26 -41q0 -22 -16 -37q-5 -5 -43 -27q-44 -24 -69 -73.5 t-25 -112.5v-653q0 -168 -74 -276q-54 -80 -155 -128q-50 -24 -120 -35z" />
<glyph unicode="&#x115;" horiz-adv-x="1236" d="M830 350l-95 -350h-263l-356 1195q-8 27 -15 36.5t-22 16.5q-32 13 -42 24t-10 33q0 30 27 47q21 13 69 13h445q42 0 57.5 -2t25.5 -8q10 -7 17 -20t7 -25q0 -37 -35 -53q-26 -13 -35.5 -26.5t-9.5 -38.5q0 -16 3 -28zM868 493l-53 188l115 421q11 40 12 49q2 22 -10 49 q-16 35 -50 46l-33 12q-39 13 -39 51q0 27 22 41.5t61 14.5h245q46 0 60 -9q24 -15 24 -43q0 -19 -7.5 -30t-27.5 -20l-51 -24q-32 -15 -61.5 -59.5t-45.5 -101.5z" />
<glyph unicode="&#x116;" horiz-adv-x="1682" d="M779 484l-121 -484h-216l-322 1175q-11 40 -20.5 54t-32.5 23q-40 16 -40 53q0 29 25 44.5t70 15.5h468q44 0 60 -12q21 -15 21 -41q0 -31 -35 -52q-29 -17 -37.5 -28.5t-8.5 -34.5q0 -11 3 -22zM874 1365h206l240 -910l-114 -455h-218l-233 879zM1358 615l-52 203 l73 296q9 35 9 54q0 30 -16.5 51.5t-54.5 40.5q-25 13 -34.5 25t-9.5 31q0 26 16.5 37.5t52.5 11.5h238q41 0 57.5 -11.5t16.5 -38.5q0 -16 -8.5 -26.5t-28.5 -19.5q-45 -20 -66 -42q-46 -46 -69 -133z" />
<glyph unicode="&#x117;" horiz-adv-x="1246" d="M627 1190l503 -1023q18 -35 49 -51q27 -14 36.5 -26t9.5 -33q0 -27 -20 -43q-17 -14 -72 -14h-469q-54 0 -70 7q-35 15 -35 51q0 13 7 22.5t26 23.5q34 25 33 46q-1 17 -18 51l-491 989q-12 25 -26 39.5t-37 26.5q-20 10 -27.5 22t-7.5 33q0 30 21.5 42t76.5 12h466 q51 0 73.5 -13t22.5 -42t-33 -51q-15 -11 -20.5 -18.5t-5.5 -20.5q0 -14 8 -30zM852 913l-56 111l56 95q19 33 19 57q0 22 -13.5 43t-35.5 31l-35 16q-10 5 -17.5 19t-7.5 28q0 24 17 38t45 14h289q28 0 46.5 -12.5t18.5 -32.5q0 -24 -18 -42q-7 -6 -42 -25 q-71 -39 -118 -113zM380 488l55 -114l-62 -101q-34 -56 -34 -89q0 -48 54 -70q30 -12 41 -24t11 -33q0 -28 -24 -46q-9 -7 -20 -9t-42 -2h-258q-32 0 -50.5 13.5t-18.5 37.5q0 19 11.5 31.5t40.5 23.5q75 29 116 95z" />
<glyph unicode="&#x118;" horiz-adv-x="1223" d="M821 626v-436q0 -39 15 -56q8 -10 15 -12.5t46 -12.5q48 -11 48 -55q0 -29 -27 -44q-16 -10 -62 -10h-34h-446h-33q-45 0 -63 12q-26 16 -26 42q0 44 48 55q39 10 46 12.5t14 12.5q15 17 15 56v338l-283 675q-16 38 -45 55q-27 17 -34.5 27t-7.5 28q0 52 76 52h490 q39 0 54 -9q25 -16 25 -42q0 -32 -29 -50l-29 -18q-17 -11 -17 -33q0 -25 11 -49zM860 721l-56 131l105 235q13 30 13 82q0 58 -64 83q-35 14 -45.5 24.5t-10.5 32.5q0 27 18 41q12 9 27 12t52 3h247q70 0 70 -56q0 -20 -9.5 -31t-36.5 -23q-49 -22 -70 -44q-30 -32 -50 -73 l-23 -51z" />
<glyph unicode="&#x119;" horiz-adv-x="1072" d="M1031 1365v-115l-553 -1250h-437v99l555 1266h435zM75 1365h434l-50 -114q-85 -11 -156 -62q-90 -64 -123 -182q-8 -31 -20 -43t-34 -12q-51 0 -51 59v354zM1031 0h-468l45 100q123 29 178 67q47 33 76 76t61 129q12 32 23.5 43.5t31.5 11.5q26 0 39.5 -18t13.5 -52v-357 z" />
<glyph unicode="&#x152;" horiz-adv-x="1801" d="M841 1365h386v-1365h-394q-66 -21 -143 -27v110q26 7 40.5 16t25.5 27q27 41 27 124v894q0 53 -18 84q-11 21 -27.5 33t-47.5 23v108q82 -4 151 -27zM608 1284q-51 -18 -72 -49t-21 -91v-894q0 -88 24 -124q19 -30 69 -43v-110q-222 18 -372 167q-195 194 -195 541 q0 174 51.5 314.5t152.5 238.5q77 75 166 114t197 44v-108zM1316 1365h403v-354q0 -31 -12 -45t-38 -14q-22 0 -32.5 9t-18.5 37q-38 116 -111.5 177t-190.5 73v117zM1317 0v108q65 10 107.5 28t85.5 55t69 77t48 104q11 32 23 43.5t33 11.5q28 0 39 -16.5t11 -57.5v-353 h-416zM1311 637v116q59 28 86.5 60.5t40.5 88.5q8 38 21 52.5t37 14.5q32 0 44 -25q7 -13 7 -59v-381q0 -47 -10.5 -65t-38.5 -18q-23 0 -36 14t-21 47q-18 69 -49 106t-81 49z" />
<glyph unicode="&#x160;" horiz-adv-x="1147" d="M543 1392v-115q-62 -17 -94.5 -52.5t-32.5 -87.5q0 -50 27 -87.5t88 -71.5q42 -23 190 -88q90 -39 139.5 -70.5t93.5 -78.5q118 -124 118 -295q0 -129 -64 -236t-176 -168q-60 -32 -131.5 -50.5t-133.5 -18.5v114q87 21 125.5 58.5t38.5 101.5q0 67 -60 118 q-40 33 -152 82q-123 54 -168.5 77t-87.5 54q-188 134 -188 357q0 114 47 210.5t131 155.5q117 82 290 91zM622 1277v110q60 -4 104 -15.5t125 -45.5q20 -8 33 -8q19 0 28 13l22 29q16 22 39 22q27 0 39.5 -19.5t12.5 -61.5v-330q0 -29 -16.5 -47.5t-42.5 -18.5 q-20 0 -37 13q-9 8 -14.5 19.5t-10.5 38.5q-11 49 -38 101t-63 93q-72 81 -181 107zM491 87v-114q-82 0 -181 47q-37 17 -51 22t-27 5q-20 0 -30 -6.5t-32 -32.5q-18 -22 -39 -22q-56 0 -56 86v364q0 28 16 47.5t40 20.5q22 1 34.5 -12.5t21.5 -47.5q23 -86 66.5 -161 t101.5 -127q59 -54 136 -69zM587 1634l49 78l11 18q10 13 49 13h143q46 0 47 -24q1 -10 -17 -29l-195 -204q-37 -38 -65 -38h-51q-35 0 -72 38l-198 204q-14 16 -17 20t-3 12q0 12 7.5 16.5t27.5 4.5h164q30 0 47 -7t27 -24z" />
<glyph unicode="&#x178;" horiz-adv-x="1223" d="M821 626v-436q0 -39 15 -56q8 -10 15 -12.5t46 -12.5q48 -11 48 -55q0 -29 -27 -44q-16 -10 -62 -10h-34h-446h-33q-45 0 -63 12q-26 16 -26 42q0 44 48 55q39 10 46 12.5t14 12.5q15 17 15 56v338l-283 675q-16 38 -45 55q-27 17 -34.5 27t-7.5 28q0 52 76 52h490 q39 0 54 -9q25 -16 25 -42q0 -32 -29 -50l-29 -18q-17 -11 -17 -33q0 -25 11 -49zM860 721l-56 131l105 235q13 30 13 82q0 58 -64 83q-35 14 -45.5 24.5t-10.5 32.5q0 27 18 41q12 9 27 12t52 3h247q70 0 70 -56q0 -20 -9.5 -31t-36.5 -23q-49 -22 -70 -44q-30 -32 -50 -73 l-23 -51zM419 1745q61 0 104.5 -43.5t43.5 -104.5t-43.5 -104.5t-104.5 -43.5t-104.5 43.5t-43.5 104.5t43.5 104.5t104.5 43.5zM801 1745q61 0 104.5 -43.5t43.5 -104.5t-43.5 -104.5t-104.5 -43.5t-104.5 43.5t-43.5 104.5t43.5 104.5t104.5 43.5z" />
<glyph unicode="&#x192;" d="M947 1502l-109 -618h190l-18 -99h-191l-67 -383l-20 -117q-33 -200 -89 -314t-149 -171q-105 -66 -242 -91l190 1076h-167l18 99h167l37 207q20 117 44 172q43 100 136 163q112 76 270 76zM998 1405l17 94q331 -22 331 -219q0 -72 -44.5 -115.5t-116.5 -43.5 q-68 0 -109 37t-41 99q0 24 24 80q7 16 7 28q0 15 -12.5 22t-55.5 18zM200 -203l-17 -94q-331 22 -331 220q0 72 44.5 115.5t116.5 43.5q68 0 109 -37t41 -99q0 -24 -24 -80q-7 -17 -7 -29q0 -22 48 -35z" />
<glyph unicode="&#x2c6;" horiz-adv-x="1027" d="M504 1557l-49 -78l-11 -18q-10 -13 -49 -13h-143q-46 0 -47 24q-1 10 17 29l195 204q36 38 65 38h51q36 0 72 -38l197 -204l16 -16q5 -6 5 -15q0 -13 -7.5 -17.5t-27.5 -4.5h-164q-30 0 -47 7t-27 24z" />
<glyph unicode="&#x2c7;" horiz-adv-x="1027" d="M523 1634l49 78l11 18q10 13 50 13h143q45 0 46 -24q1 -11 -17 -29l-195 -204q-36 -38 -65 -38h-51q-35 0 -72 38l-197 204q-16 17 -18.5 20.5t-2.5 11.5q0 12 7.5 16.5t27.5 4.5h164q30 0 47 -7t27 -24z" />
<glyph unicode="&#x2c9;" horiz-adv-x="1024" d="M830 1652v-112q0 -20 -9 -28t-32 -8h-553q-23 0 -32 8t-9 28v112q0 20 8.5 28t32.5 8h553q24 0 32.5 -8t8.5 -28z" />
<glyph unicode="&#x2d8;" horiz-adv-x="1024" d="M252 1743q14 0 20.5 -5t14.5 -22q13 -29 43 -45q26 -14 79.5 -23.5t103.5 -9.5q49 0 102.5 9.5t79.5 23.5q29 16 43 45q8 17 14.5 22t20.5 5q39 0 39 -37q0 -32 -16 -73.5t-40 -75.5q-40 -53 -103 -81.5t-140 -28.5q-78 0 -141 28.5t-103 81.5q-25 34 -40.5 75.5 t-15.5 73.5q0 37 39 37z" />
<glyph unicode="&#x2d9;" horiz-adv-x="1021" d="M510 1745q61 0 104.5 -43.5t43.5 -104.5t-43.5 -104.5t-104.5 -43.5t-104.5 43.5t-43.5 104.5t43.5 104.5t104.5 43.5z" />
<glyph unicode="&#x2da;" horiz-adv-x="1024" d="M589 1861q50 -11 79 -27t56 -47q54 -62 54 -143t-54 -143q-27 -31 -56 -47t-79 -27v130q34 17 50 37.5t16 49.5t-16 49.5t-50 36.5v131zM517 1427q-50 11 -79 27t-56 47q-54 62 -54 143t54 143q27 31 56 47t79 27v-131q-34 -16 -50 -36.5t-16 -49.5t16 -49.5t50 -37.5 v-130z" />
<glyph unicode="&#x2db;" horiz-adv-x="999" d="M818 -388q9 -63 74 -84l22 -7q38 -12 38 -45q0 -19 -14.5 -31t-37.5 -12q-54 0 -113 46q-49 38 -76.5 94t-27.5 118q0 82 49.5 137t121.5 55q58 0 101.5 -43t43.5 -100q0 -62 -36.5 -97.5t-99.5 -35.5z" />
<glyph unicode="&#x2dc;" horiz-adv-x="1024" d="M392 1743q32 0 66.5 -12t97.5 -45q93 -48 146 -48q21 0 35 14t22 44q7 22 14 30.5t19 8.5q24 0 34.5 -11.5t10.5 -38.5q0 -66 -40 -137q-56 -101 -164 -101q-32 0 -64 9t-83 33l-67 32q-66 31 -94 31q-41 0 -61 -55q-8 -24 -14.5 -31.5t-18.5 -7.5q-44 0 -44 53 q0 31 15 74t37 75q56 83 153 83z" />
<glyph unicode="&#x2dd;" horiz-adv-x="1025" d="M587 1689l-206 -203l-13 -14q-14 -13 -26 -13h-64q-28 0 -28 18q0 4 2 9l91 220q10 24 18.5 30t34.5 6h176q12 0 21.5 -8t9.5 -18q0 -11 -16 -27zM907 1689l-205 -203l-13 -14q-14 -13 -26 -13h-64q-28 0 -28 18q0 4 2 9l91 220q10 24 18.5 30t34.5 6h175q13 0 22.5 -8 t9.5 -18q0 -11 -17 -27z" />
<glyph unicode="&#x3c0;" horiz-adv-x="1226" d="M1226 980v-184h-235l-12 -32q-15 -40 -20.5 -71.5t-5.5 -78.5v-317q0 -75 5 -110t19 -55q10 -15 27 -23t33 -7q18 1 46 10q15 4 44 11v-44l-339 -101q-23 -6 -30 -6q-17 1 -42 23.5t-44 54.5q-19 31 -26 61.5t-7 82.5v301q0 63 17.5 113t53.5 92q35 41 54.5 59.5 t46.5 36.5h-319l-8 -189q0 -41 -10.5 -144t-22.5 -188q-22 -142 -49 -213q-42 -112 -156 -112q-61 0 -98.5 34.5t-37.5 91.5q0 36 12.5 64t47.5 69q56 67 81.5 117.5t40.5 126.5q13 69 26 180.5t13 161.5q-113 -8 -166 -35.5t-126 -115.5l-39 35l116 197q33 55 84 79.5 t133 24.5h893z" />
<glyph unicode="&#x2013;" d="M1095 748v-135q0 -23 -9 -31.5t-32 -8.5h-931q-23 0 -32 8.5t-9 31.5v135q0 23 9 31.5t32 8.5h931q23 0 32 -8.5t9 -31.5z" />
<glyph unicode="&#x2014;" horiz-adv-x="1534" d="M1534 748v-135q0 -23 -9 -31.5t-32 -8.5h-1452q-23 0 -32 8.5t-9 31.5v135q0 23 9 31.5t32 8.5h1452q23 0 32 -8.5t9 -31.5z" />
<glyph unicode="&#x2018;" horiz-adv-x="684" d="M502 1392q20 0 33 -12.5t13 -31.5q0 -30 -38 -50q-91 -48 -133 -93q-39 -43 -39 -63q0 -19 30 -23l12 -1l16 -2q65 -9 105 -59.5t40 -123.5t-50 -128q-56 -61 -145 -61q-86 0 -146 67q-63 68 -63 171q0 91 63 188.5t164 163.5q88 58 138 58z" />
<glyph unicode="&#x2019;" horiz-adv-x="685" d="M339 1392q86 0 147 -67q29 -31 46 -75.5t17 -89.5q0 -95 -62 -192.5t-166 -165.5q-88 -58 -138 -58q-20 0 -33 12.5t-13 31.5q0 30 38 50q91 47 133 93q40 43 40 63q0 19 -30 23l-13 2l-15 1q-65 10 -105.5 60.5t-40.5 122.5q0 35 13.5 69t36.5 59q57 61 145 61z" />
<glyph unicode="&#x201a;" horiz-adv-x="685" d="M339 359q86 0 147 -67q29 -31 46 -75.5t17 -89.5q0 -95 -62 -192.5t-166 -165.5q-88 -58 -138 -58q-20 0 -33 12t-13 32q0 30 38 50q91 47 133 93q40 43 40 63q0 19 -30 23l-13 2l-15 1q-65 10 -105.5 60.5t-40.5 122.5q0 74 50 128q57 61 145 61z" />
<glyph unicode="&#x201c;" horiz-adv-x="1162" d="M980 1392q20 0 33 -12.5t13 -31.5q0 -30 -38 -50q-91 -48 -133 -93q-39 -43 -39 -63q0 -19 30 -23l12 -1l16 -2q65 -9 105 -59.5t40 -123.5t-50 -128q-56 -61 -145 -61q-86 0 -146 67q-63 68 -63 171q0 91 63 188.5t164 163.5q88 58 138 58zM502 1392q20 0 33 -12.5 t13 -31.5q0 -30 -38 -50q-91 -48 -133 -93q-39 -43 -39 -63q0 -19 30 -23l12 -1l16 -2q65 -9 105 -59.5t40 -123.5t-50 -128q-56 -61 -145 -61q-86 0 -146 67q-63 68 -63 171q0 91 63 188.5t164 163.5q88 58 138 58z" />
<glyph unicode="&#x201d;" horiz-adv-x="1162" d="M339 1392q86 0 147 -67q29 -31 46 -75.5t17 -89.5q0 -95 -62 -192.5t-166 -165.5q-88 -58 -138 -58q-20 0 -33 12.5t-13 31.5q0 30 38 50q91 47 133 93q40 43 40 63q0 19 -30 23l-13 2l-15 1q-65 10 -105.5 60.5t-40.5 122.5q0 35 13.5 69t36.5 59q57 61 145 61z M817 1392q85 0 146 -67q29 -31 46 -75.5t17 -89.5q0 -95 -61.5 -192.5t-165.5 -165.5q-88 -58 -138 -58q-20 0 -33 12.5t-13 31.5q0 30 38 50q92 49 133 93q39 43 39 63q0 19 -30 23l-12 2l-16 1q-65 9 -105 60t-40 123q0 34 13.5 68.5t36.5 59.5q56 61 145 61z" />
<glyph unicode="&#x201e;" horiz-adv-x="1162" d="M339 359q86 0 147 -67q29 -31 46 -75.5t17 -89.5q0 -95 -62 -192.5t-166 -165.5q-88 -58 -138 -58q-20 0 -33 12t-13 32q0 30 38 50q91 47 133 93q40 43 40 63q0 19 -30 23l-13 2l-15 1q-65 10 -105.5 60.5t-40.5 122.5q0 74 50 128q57 61 145 61zM817 359q85 0 146 -67 q29 -31 46 -75.5t17 -89.5q0 -96 -61.5 -193t-165.5 -165q-88 -58 -138 -58q-20 0 -33 12t-13 32q0 30 38 50q92 49 133 93q39 43 39 63q0 19 -30 23l-12 2l-16 1q-65 9 -105 60t-40 123q0 35 13.5 69t36.5 59q56 61 145 61z" />
<glyph unicode="&#x2020;" d="M799 965h83q44 0 60 3.5t24 15.5l16 27q15 25 45 25q29 0 44 -23q11 -16 11 -61v-229q0 -41 -11.5 -57.5t-40.5 -16.5q-33 0 -50 33q-11 23 -15.5 28t-14.5 8q-16 5 -42 5h-109v242zM378 723h-109q-26 0 -42 -5q-10 -3 -14.5 -8.5t-15.5 -27.5q-17 -33 -50 -33 q-29 0 -40.5 16.5t-11.5 57.5v229q0 45 11 61q15 23 44 23q30 0 45 -25l16 -27q8 -12 24 -15.5t60 -3.5h83v-242zM725 1165v-1296q0 -26 9 -41q8 -12 42 -25q38 -15 38 -47q0 -35 -33 -47q-14 -5 -56 -5h-307q-35 0 -51 12q-20 15 -20 37q0 38 38 50l31 10q26 8 26 56v1322 q0 27 -6 43q-4 10 -12 15t-34 14q-41 16 -41 51q0 28 20.5 39.5t72.5 11.5h267q57 0 77 -10q29 -15 29 -45t-31 -45l-34 -16q-15 -7 -20 -24t-5 -60z" />
<glyph unicode="&#x2021;" d="M799 965h83q44 0 60 3.5t24 15.5l16 27q15 25 45 25q29 0 44 -23q11 -16 11 -61v-229q0 -41 -11.5 -57.5t-40.5 -16.5q-33 0 -50 33q-11 23 -15.5 28t-14.5 8q-16 5 -42 5h-109v242zM378 723h-109q-26 0 -42 -5q-10 -3 -14.5 -8.5t-15.5 -27.5q-17 -33 -50 -33 q-29 0 -40.5 16.5t-11.5 57.5v229q0 45 11 61q15 23 44 23q30 0 45 -25l16 -27q8 -12 24 -15.5t60 -3.5h83v-242zM726 1165v-1296q0 -25 9 -41q8 -12 42 -25q38 -15 38 -47q0 -35 -33 -47q-14 -5 -56 -5h-307q-35 0 -51 12q-20 15 -20 37q0 38 38 50l31 10q26 8 26 56v1322 q0 27 -6 43q-4 9 -12 14.5t-34 14.5q-41 16 -41 51q0 28 20.5 39.5t72.5 11.5h267q57 0 77 -10q29 -15 29 -45t-31 -45l-35 -16q-14 -7 -19 -24t-5 -60zM799 347h83q44 0 60 4t24 16l16 27q15 25 45 25q29 0 44 -23q11 -16 11 -62v-229q0 -41 -11.5 -57.5t-40.5 -16.5 q-33 0 -50 33q-11 23 -15.5 28t-14.5 8q-16 5 -42 5h-109v242zM378 105h-109q-26 0 -42 -5q-10 -3 -14.5 -8t-15.5 -28q-17 -33 -50 -33q-29 0 -40.5 16.5t-11.5 57.5v229q0 46 11 62q15 23 44 23q30 0 45 -25l16 -27q8 -12 24 -16t60 -4h83v-242z" />
<glyph unicode="&#x2022;" horiz-adv-x="568" d="M286 978q103 0 182 -68q48 -40 74 -96.5t26 -119.5q0 -62 -26 -118.5t-73 -97.5q-80 -68 -183 -68q-63 0 -119.5 25.5t-97.5 73.5q-69 80 -69 185q0 51 18 99.5t51 86.5q41 47 97.5 72.5t119.5 25.5z" />
<glyph unicode="&#x2026;" horiz-adv-x="1991" d="M331 362q80 0 137 -57t57 -137q0 -81 -57 -138t-137 -57q-81 0 -138 57t-57 138q0 80 57 137t138 57zM995 362q81 0 138 -57t57 -137q0 -81 -57 -138t-138 -57q-80 0 -137 57t-57 138q0 80 57 137t137 57zM1661 362q80 0 137 -57t57 -137q0 -81 -57 -138t-137 -57 q-81 0 -138 57t-57 138q0 80 57 137t138 57z" />
<glyph unicode="&#x2030;" horiz-adv-x="2286" d="M403 1378l22 1q122 0 208 -72q103 -86 103 -231q0 -152 -110 -232q-84 -60 -196 -60q-7 0 -27 1v74q38 9 52.5 35t14.5 85v221q0 44 -20 73q-11 17 -47 31v74zM352 1378v-74q-38 -14 -51 -31q-21 -29 -21 -73v-221q0 -59 15.5 -85t56.5 -35v-74q-21 -1 -29 -1 q-115 0 -198 60q-111 80 -111 232q0 115 66 194q91 109 249 109zM1019 1365h117l-662 -1365h-117zM1141 580l23 1q125 0 211 -72q103 -86 103 -231q0 -152 -110 -232q-85 -60 -198 -60q-5 0 -23 1v74q37 10 51 36t14 84v221q0 44 -21 73q-12 17 -50 31v74zM1089 580v-74 q-38 -14 -51 -31q-21 -29 -21 -73v-221q0 -58 14 -84t51 -36v-74q-18 -1 -22 -1q-114 0 -198 60q-111 80 -111 232q0 115 66 194q91 109 249 109zM1935 580l23 1q126 0 212 -72q103 -86 103 -231q0 -152 -110 -232q-85 -60 -199 -60q-4 0 -22 1v74q37 10 51 36t14 84v221 q0 44 -21 73q-13 17 -51 31v74zM1884 580v-74q-36 -14 -47 -31q-20 -28 -20 -73v-221q0 -58 14 -84t51 -36v-74q-19 -1 -25 -1q-111 0 -195 60q-111 80 -111 232q0 145 103 231q86 72 208 72z" />
<glyph unicode="&#x2039;" horiz-adv-x="699" d="M449 1072l84 -68q26 -22 26 -43q0 -16 -15.5 -39t-53.5 -61q-74 -78 -108 -118.5t-33 -51.5q0 -7 15 -27l53 -64l66 -80q55 -67 67 -84.5t13 -32.5q1 -12 -8 -22t-37 -29l-77 -50q-20 -13 -38 -12q-17 1 -41 36l-189 270q-22 32 -29 48.5t-7 37.5q0 30 14 51l28 39 l183 275l22 34q9 9 26 9q16 0 39 -18z" />
<glyph unicode="&#x203a;" horiz-adv-x="699" d="M339 1047l183 -275l28 -39q14 -22 14 -51q0 -21 -7 -38t-29 -48l-189 -270q-24 -35 -41 -36q-18 -1 -38 12l-77 50q-28 19 -37 29t-8 22q1 15 13 32.5t67 84.5l66 80l53 64q15 20 15 27q1 11 -31.5 50t-109.5 120q-37 39 -52.5 61.5t-15.5 38.5q0 22 25 43l84 68 q23 18 39 18q17 0 26 -9z" />
<glyph unicode="&#x20ac;" horiz-adv-x="1178" d="M1126 963q0 -76 -47 -76q-35 0 -41 18l-42 122q-35 103 -80.5 162t-120.5 81v121q43 -8 111 -38q77 -34 93 -34q26 0 41 37q16 37 41 37q45 0 45 -64v-366zM596 522v-295q0 -40 27 -84t90 -49v-121q-240 0 -392 143.5t-190 405.5h-111l21 101h82q-2 15 -2 47q0 44 2 63 h-103l21 101h92q50 279 224 419t321 140h35v-121q-117 -17 -117 -176v-262h428l-18 -101h-410v-110h428l-18 -101h-410zM795 94q82 10 142 75t87 169q12 41 24 50t33 9q20 0 32.5 -18t12.5 -45q0 -90 -91 -218.5t-240 -142.5v121z" />
<glyph unicode="&#x2122;" horiz-adv-x="1832" d="M533 1365v-705q0 -23 10 -34q7 -7 39 -14t31 -33q-2 -33 -58 -33h-22h-283h-22q-56 0 -58 33q-1 26 31 33q24 5 29 7t10 7q10 11 10 34v705h283zM760 1365v-248q0 -17 -10.5 -28t-27.5 -11q-33 0 -40 38l-6 37q-18 102 -83 139v73h167zM26 1365h167v-73q-65 -37 -83 -139 l-6 -37q-7 -38 -40 -38q-17 0 -27.5 11t-10.5 28v248zM1430 1365h283h17q49 0 49 -31q0 -25 -26 -33q-27 -8 -33.5 -15.5t-6.5 -30.5v-599q0 -23 6.5 -30.5t33.5 -15.5q26 -8 26 -32q0 -32 -49 -32h-17h-283h-22q-56 0 -58 33q-1 26 31 33q24 5 29 7t10 7q10 11 10 34v705z M1186 1365l127 -336l57 182v-200l-150 -465h-34l-253 691q-11 30 -22.5 41.5t-33.5 16.5q-43 8 -43 37q0 33 47 33h305zM933 1090l68 -182v-181q0 -27 2.5 -39t9.5 -27q14 -26 38 -39l25 -14q24 -14 24 -31q0 -31 -49 -31h-162q-49 0 -49 30q0 10 4.5 15t16.5 12 q72 35 72 124v363z" />
<glyph unicode="&#x2126;" horiz-adv-x="1559" d="M1559 336l-78 -336h-617v182q69 45 105.5 80.5t67.5 86.5q47 75 73 186t26 231q0 112 -21 209t-59 165q-94 165 -275 165q-173 0 -266 -152q-43 -69 -66.5 -171.5t-23.5 -219.5q0 -112 24.5 -218t68.5 -183q33 -60 70 -96.5t109 -82.5v-182h-621l-76 336h46 q20 -63 51 -94q53 -54 158 -54l64 -2l230 -16v17q-109 35 -170.5 64.5t-119.5 75.5q-108 86 -165.5 201.5t-57.5 245.5q0 124 56 240t159 205q195 168 531 168q158 0 297 -42q91 -28 158 -68.5t125 -102.5q79 -85 121 -187t42 -210q0 -139 -61.5 -259t-175.5 -203 q-54 -39 -112.5 -66t-163.5 -62v-17l261 18l64 2q71 5 110 37.5t66 108.5h46z" />
<glyph unicode="&#x2202;" horiz-adv-x="938" d="M228 1397l20 38q136 -46 260 -133q94 -65 164.5 -145.5t127.5 -189.5q72 -133 105 -254.5t33 -248.5q0 -255 -183 -403q-62 -49 -130.5 -71.5t-157.5 -22.5q-162 0 -276 86q-93 71 -142 175.5t-49 234.5q0 134 54 244t150 170q52 33 120.5 53.5t127.5 20.5q32 0 71 -7.5 t55 -16.5l30 -17q5 -3 22 -10q-39 100 -79.5 170.5t-96.5 137.5q-42 49 -105.5 102t-120.5 87zM469 890q-75 0 -115 -64q-26 -42 -43 -144.5t-17 -221.5q0 -105 17 -211t40 -147q42 -74 116 -74q38 0 65 17t50 54q27 46 44.5 151t17.5 226q0 112 -16 210t-41 139 q-39 65 -118 65z" />
<glyph unicode="&#x2206;" horiz-adv-x="1440" d="M813 1388l627 -1388h-1440l621 1388h192zM611 1080l-338 -770q-24 -55 -24 -76q0 -26 20 -39q17 -11 86 -11h636z" />
<glyph unicode="&#x220f;" horiz-adv-x="1544" d="M1363 1158v-1430q0 -59 5.5 -85.5t22.5 -43.5q32 -34 103 -34h50v-43h-714v43h45q77 0 108 34q17 17 22.5 43.5t5.5 85.5v1430q0 59 -6 85.5t-22 43.5q-33 34 -111 34h-200q-78 0 -111 -34q-16 -17 -22 -43.5t-6 -85.5v-1430q0 -59 5.5 -85.5t22.5 -43.5q32 -34 103 -34 h50v-43h-714v43h45q77 0 108 34q17 17 22.5 44t5.5 85v1430q0 60 -5.5 86.5t-22.5 43.5q-32 34 -108 34h-45v43h1544v-43h-45q-76 0 -108 -34q-17 -17 -22.5 -43.5t-5.5 -86.5z" />
<glyph unicode="&#x2211;" horiz-adv-x="1242" d="M0 1365h1158v-371h-44q-16 140 -83 215q-42 47 -95.5 67.5t-133.5 20.5h-416l385 -695l-517 -896h530q79 0 118 7q78 15 142.5 64t103.5 123q31 57 50 142h44l-68 -520h-1174l530 916z" />
<glyph unicode="&#x2215;" horiz-adv-x="178" d="M355 1365h131l-662 -1365h-131z" />
<glyph unicode="&#x2219;" horiz-adv-x="661" d="M331 881q80 0 137 -57t57 -137q0 -81 -57 -138t-137 -57q-81 0 -138 57t-57 138q0 80 57 137t138 57z" />
<glyph unicode="&#x221a;" horiz-adv-x="1297" d="M1297 1686v-82h-221l-379 -1604h-303l-172 711h-222v82h468l161 -690l372 1583h296z" />
<glyph unicode="&#x221e;" horiz-adv-x="1413" d="M614 497q-75 -103 -142.5 -147t-149.5 -44q-126 0 -216 87q-106 103 -106 276q0 100 37.5 189.5t103.5 147.5q100 86 242 86q105 0 190.5 -57t160.5 -177q64 127 140.5 182.5t185.5 55.5q68 0 132.5 -27.5t112.5 -76.5q108 -112 108 -302q0 -101 -39.5 -188t-111.5 -144 q-54 -43 -124 -67t-140 -24q-110 0 -210 60t-174 170zM783 789q77 -129 146 -191q114 -102 231 -102q82 0 137 57.5t55 143.5q0 89 -76.5 136.5t-219.5 47.5q-99 0 -176 -27q-55 -19 -82 -47q-16 -17 -15 -18zM552 586l-17 28q-88 147 -159 198t-147 51q-68 0 -112 -42 q-26 -25 -41 -64t-15 -80q0 -62 44 -99q32 -26 90 -41.5t127 -15.5q78 0 136 16q45 12 72 31q23 16 22 18z" />
</font>
</defs>
</svg>
