<?xml version="1.0" standalone="no"?>
<!DOCTYPE svg PUBLIC "-//W3C//DTD SVG 1.1//EN" "http://www.w3.org/Graphics/SVG/1.1/DTD/svg11.dtd" >
<svg xmlns="http://www.w3.org/2000/svg">
<metadata>
This is a custom SVG webfont generated by Font Squirrel.
Copyright   : Copyright 2005 Canada Type All rights reserved
Foundry     : Canada Type
</metadata>
<defs>
<font id="TrumpGothicEastBold" horiz-adv-x="790" >
<font-face units-per-em="2048" ascent="1638" descent="-410" />
<missing-glyph horiz-adv-x="307" />
<glyph unicode=" "  horiz-adv-x="307" />
<glyph unicode="&#x09;" horiz-adv-x="307" />
<glyph unicode="&#xa0;" horiz-adv-x="307" />
<glyph unicode="!" horiz-adv-x="335" d="M33 104q0 63 42 96t97 33q66 0 97.5 -38.5t31.5 -98.5q0 -59 -43 -90t-96 -31q-25 0 -48.5 11.5t-42 30t-28.5 40.5t-10 47zM61 1571h224l-31 -1262h-164z" />
<glyph unicode="&#x22;" horiz-adv-x="518" d="M43 1571h205l-31 -430h-143zM274 1571h205l-30 -430h-144z" />
<glyph unicode="#" horiz-adv-x="718" d="M23 799v114h145l29 131h-125v115h149l35 168h117l-35 -168h113l34 168h117l-35 -168h123v-115h-147l-29 -131h127v-114h-152l-32 -148h-117l33 148h-113l-33 -148h-116l32 148h-120zM285 913h112l29 131h-113z" />
<glyph unicode="$" horiz-adv-x="770" d="M61 301v223h209v-196q0 -66 21.5 -100.5t52.5 -47.5v484q-47 41 -97 84t-91 93t-68 106.5t-27 123.5v197q0 80 22.5 138t60.5 98t90.5 61.5t109.5 27.5v111h82v-111q59 -6 110.5 -26.5t89.5 -60.5t60.5 -98t22.5 -140v-246h-209v219q0 66 -21.5 100.5t-52.5 47.5v-515 q47 -39 97 -77.5t91 -82.5t68 -96.5t27 -117.5v-199q0 -158 -78 -236.5t-205 -89.5v-106h-82v106q-127 10 -205 90t-78 236zM270 1110q0 -47 19.5 -86t54.5 -74v439q-31 -12 -52.5 -47t-21.5 -101v-131zM426 180q31 12 52.5 47t21.5 101v129q0 35 -20.5 66.5t-53.5 66.5 v-410z" />
<glyph unicode="%" horiz-adv-x="1540" d="M61 954v340q0 168 57.5 238t200.5 70q72 0 121 -16.5t80 -52.5t44.5 -94.5t13.5 -144.5v-340q0 -86 -13.5 -144t-44.5 -94t-80 -52.5t-121 -16.5q-143 0 -200.5 69.5t-57.5 237.5zM246 997q0 -86 15 -120.5t58 -34.5t58.5 34.5t15.5 120.5v254q0 86 -15.5 121t-58.5 35 t-58 -35t-15 -121v-254zM489 0l340 1571h213l-340 -1571h-213zM963 287v340q0 168 57 237.5t201 69.5q72 0 121 -16.5t79.5 -52.5t44 -94t13.5 -144v-340q0 -86 -13.5 -144.5t-44 -94.5t-80 -52t-120.5 -16q-143 0 -200.5 69.5t-57.5 237.5zM1147 330q0 -86 15.5 -121 t58.5 -35t58 35t15 121v254q0 86 -15 120.5t-58 34.5t-58.5 -34.5t-15.5 -120.5v-254z" />
<glyph unicode="&#x26;" horiz-adv-x="774" d="M61 281v251q0 104 33 174t139 105q-53 14 -86.5 36.5t-52 54.5t-26 74t-7.5 93v221q0 170 78 238.5t246 68.5t246 -69.5t78 -237.5v-61h-209v35q0 43 -10.5 69.5t-25.5 41t-35.5 19.5t-43.5 5q-20 0 -41.5 -5t-37 -19.5t-26 -41t-10.5 -69.5v-222q0 -43 19.5 -69.5 t47.5 -40.5t58.5 -19.5t50.5 -5.5h54v123h209v-123h63v-192h-63v-434q0 -168 -78 -238t-246 -70t-246 69t-78 239zM270 307q0 -43 10.5 -69.5t26 -41t37 -19.5t41.5 -5q23 0 43.5 5t35.5 19.5t25.5 41t10.5 69.5v408h-54q-20 0 -50.5 -5t-58.5 -19.5t-47.5 -41t-19.5 -69.5 v-273z" />
<glyph unicode="'" horiz-adv-x="286" d="M43 1571h205l-31 -430h-143z" />
<glyph unicode="(" horiz-adv-x="454" d="M86 575q0 51 6 158t22.5 244t49.5 291.5t84 304.5h207q-53 -141 -85 -294t-49.5 -290t-22.5 -242.5t-5 -152.5q0 -39 4 -143.5t21.5 -239.5t49 -283.5t87.5 -277.5h-207q-33 92 -62.5 181t-52 195.5t-35 238.5t-12.5 310z" />
<glyph unicode=")" horiz-adv-x="456" d="M-2 -348q53 141 85 293.5t49.5 290t22.5 244t5 151.5q0 39 -4 143.5t-21.5 239.5t-49.5 283.5t-87 277.5h207q35 -92 63.5 -181t51 -195.5t35 -239t12.5 -310.5q0 -51 -6.5 -157.5t-22.5 -243.5t-48 -292t-85 -304h-207z" />
<glyph unicode="*" horiz-adv-x="604" d="M43 1284v100h170l-84 148l86 51l88 -151l84 149l88 -49l-84 -150h170v-98h-172l86 -149l-88 -50l-84 142l-84 -144l-86 52l86 149h-176z" />
<glyph unicode="+" horiz-adv-x="638" d="M53 664v196h170v170h197v-170h170v-196h-170v-170h-197v170h-170z" />
<glyph unicode="," horiz-adv-x="339" d="M-94 -276l180 446h236l-261 -446h-155z" />
<glyph unicode="-" horiz-adv-x="509" d="M49 500v196h408v-196h-408z" />
<glyph unicode="." horiz-adv-x="366" d="M47 104q0 63 42 96t97 33q66 0 97.5 -38.5t31.5 -98.5q0 -59 -43 -90t-96 -31q-25 0 -48.5 11.5t-41.5 30t-28.5 40.5t-10.5 47z" />
<glyph unicode="/" horiz-adv-x="552" d="M0 0l340 1571h213l-340 -1571h-213z" />
<glyph unicode="0" d="M72 301v967q0 86 25.5 148.5t70.5 102.5t103.5 58t123.5 18q156 0 240 -75.5t84 -251.5v-967q0 -88 -25.5 -150.5t-70.5 -101.5t-103.5 -57.5t-124.5 -18.5t-124 18.5t-103 58.5t-70.5 102.5t-25.5 148.5zM281 328q0 -86 35.5 -121t78.5 -35t79 35t36 121v913 q0 86 -36 121t-79 35t-78.5 -35t-35.5 -121v-913z" />
<glyph unicode="1" horiz-adv-x="532" d="M10 1266v202l260 101h181v-1569h-205v1341z" />
<glyph unicode="2" horiz-adv-x="731" d="M41 0v156q0 74 31.5 155.5t81 166.5t104.5 171t104.5 168t81 157t31.5 136v135q0 86 -36 121t-79 35t-78.5 -35t-35.5 -121v-192h-205v215q0 170 88 248.5t231 78.5t231.5 -79.5t88.5 -247.5v-181q0 -70 -31 -148.5t-78 -159.5t-102 -161.5t-102.5 -155.5t-80 -140.5 t-36.5 -116.5h393v-205h-602z" />
<glyph unicode="3" horiz-adv-x="765" d="M61 281v221h205v-199q0 -43 10.5 -69.5t25.5 -41t36.5 -19.5t42.5 -5q23 0 43 5t35.5 19.5t26 41t10.5 69.5v268q0 43 -19.5 70t-47.5 41t-57.5 19.5t-52.5 5.5q-10 0 -19 -1t-19 -4v218q10 -4 19 -5h19q23 0 52.5 5.5t57.5 19.5t47.5 41t19.5 70v217q0 43 -10.5 69.5 t-26 41t-36 19.5t-42.5 5q-20 0 -42 -5t-37 -19.5t-25.5 -41t-10.5 -69.5v-207h-200q-2 16 -3.5 32.5t-1.5 36.5v160q0 84 24 142.5t66 95.5t100 53t130 16q143 0 231 -68.5t88 -238.5v-211q0 -51 -7 -90t-28.5 -68.5t-58.5 -53t-98 -46.5q61 -25 98 -52.5t58.5 -60 t28.5 -73.5t7 -92v-262q0 -170 -88 -239t-231 -69q-72 0 -130 16.5t-100 53.5t-66 95.5t-24 142.5z" />
<glyph unicode="4" horiz-adv-x="761" d="M20 375v205l269 989h329v-989h123v-205h-123v-375h-204v375h-394zM229 580h185v776z" />
<glyph unicode="5" horiz-adv-x="763" d="M61 301v117h205v-94q0 -86 37 -121t80 -35t79 35t36 121v368q0 86 -36 121t-79 35q-41 0 -76 -31t-39 -104h-207v856h588v-226h-383v-448q14 16 29.5 36.5t36 39t48.5 31t64 12.5q72 0 121 -13.5t80 -46t44 -88t13 -139.5v-426q0 -168 -88 -248t-231 -80t-232.5 79 t-89.5 249z" />
<glyph unicode="6" horiz-adv-x="778" d="M72 301v963q0 168 88 247.5t231 79.5t231.5 -78.5t88.5 -248.5v-117h-205v74q0 86 -36 120.5t-79 34.5t-79 -34.5t-36 -120.5v-347q14 16 30 37t36 39.5t48 30.5t65 12q72 0 121 -13t79.5 -46t44 -88t13.5 -139v-406q0 -168 -88 -248t-232 -80q-143 0 -232 79t-89 249z M276 324q0 -86 37 -121t80 -35t79 35t36 121v348q0 86 -36 120.5t-79 34.5t-78.5 -34.5t-35.5 -120.5z" />
<glyph unicode="7" horiz-adv-x="671" d="M10 0l420 1364h-377v205h609v-115l-435 -1454h-217z" />
<glyph unicode="8" horiz-adv-x="770" d="M66 281v333q0 102 36.5 161t94.5 97q-57 39 -94 96.5t-37 161.5v160q0 84 23.5 142.5t65.5 95.5t100 53t130 16q143 0 231.5 -68.5t88.5 -238.5v-160q0 -104 -37 -162.5t-95 -95.5q57 -39 94.5 -106.5t37.5 -171.5v-313q0 -170 -88.5 -239t-231.5 -69q-72 0 -130 16.5 t-100 53.5t-65.5 95.5t-23.5 142.5zM270 303q0 -43 10.5 -69.5t26 -41t37 -19.5t41.5 -5q23 0 43.5 5t35.5 19.5t25.5 41t10.5 69.5v330q0 43 -10.5 69.5t-25.5 41t-35.5 19.5t-43.5 5q-20 0 -41.5 -5t-37 -19.5t-26 -41t-10.5 -69.5v-330zM270 1092q0 -43 10.5 -68t26 -38 t37 -16t41.5 -3q23 0 43.5 3t35.5 16t25.5 38t10.5 68v176q0 43 -10.5 69.5t-25.5 41t-35.5 19.5t-43.5 5q-20 0 -41.5 -5t-37 -19.5t-26 -41t-10.5 -69.5v-176z" />
<glyph unicode="9" horiz-adv-x="778" d="M66 868v396q0 168 88 247.5t231 79.5t232.5 -78.5t89.5 -248.5v-963q0 -168 -88.5 -248t-231.5 -80t-231 79t-88 249v117h204v-94q0 -86 36 -121t79 -35t79 35t36 121v376q-14 -20 -29.5 -41.5t-36 -39t-48.5 -27.5t-64 -10q-72 0 -121 13t-80 46t-44 88t-13 139z M270 903q0 -86 36 -120.5t79 -34.5t79 34.5t36 120.5l2 338q0 86 -37 121t-80 35t-79 -35t-36 -121v-338z" />
<glyph unicode=":" horiz-adv-x="366" d="M47 104q0 63 42 96t97 33q66 0 97.5 -38.5t31.5 -98.5q0 -59 -43 -90t-96 -31q-25 0 -48.5 11.5t-41.5 30t-28.5 40.5t-10.5 47zM47 772q0 63 42 96t97 33q66 0 97.5 -39t31.5 -98t-43 -90t-96 -31q-25 0 -48.5 11.5t-41.5 29.5t-28.5 40.5t-10.5 47.5z" />
<glyph unicode=";" horiz-adv-x="366" d="M-94 -276l180 446h236l-261 -446h-155zM47 772q0 63 42 96t97 33q66 0 97.5 -39t31.5 -98t-43 -90t-96 -31q-25 0 -48.5 11.5t-41.5 29.5t-28.5 40.5t-10.5 47.5z" />
<glyph unicode="&#x3c;" horiz-adv-x="428" d="M12 608l201 398h211l-199 -396l199 -424h-213z" />
<glyph unicode="=" horiz-adv-x="638" d="M53 438v197h537v-197h-537zM53 766v197h537v-197h-537z" />
<glyph unicode="&#x3e;" horiz-adv-x="428" d="M10 186l199 396l-199 424h213l199 -422l-201 -398h-211z" />
<glyph unicode="?" horiz-adv-x="761" d="M45 1061v229q0 168 78 237.5t246 69.5t245.5 -68.5t77.5 -238.5v-272q0 -63 -10 -116.5t-37 -93.5t-72 -67.5t-116 -40.5v-393h-209v584q10 -4 19 -4h20q23 0 55.5 5t64 19.5t54 41t22.5 69.5v242q0 43 -10 69.5t-25.5 41t-36 19.5t-42.5 5q-20 0 -42 -5t-37.5 -19.5 t-25.5 -41t-10 -69.5v-203h-209zM221 104q0 63 42 96t97 33q66 0 97.5 -38.5t31.5 -98.5q0 -59 -43 -90t-96 -31q-25 0 -48 11.5t-41.5 30t-29 40.5t-10.5 47z" />
<glyph unicode="@" horiz-adv-x="1445" d="M43 360q0 199 46 391.5t140.5 345t236.5 246t335 93.5q160 0 273.5 -60.5t187 -159t107.5 -226.5t34 -263q0 -125 -27.5 -252t-82 -229.5t-135.5 -168t-189 -65.5q-78 0 -138.5 40t-68.5 118q-29 -57 -93.5 -94t-142.5 -37q-53 0 -98 28.5t-45 94.5q0 68 25 184l73 348 q18 86 33.5 145.5t36 96.5t48.5 54.5t69 17.5q84 0 136 -31t75 -70l16 82h184q-41 -201 -69.5 -331t-47 -210.5t-27.5 -119.5t-14.5 -58.5t-6.5 -26.5t-1 -24q0 -29 13.5 -55.5t48.5 -26.5q59 0 102 56.5t71 142.5t41 189.5t13 197.5q0 123 -21.5 218t-68.5 161.5 t-124 101.5t-187 35q-147 0 -254 -72.5t-175.5 -193.5t-100 -277.5t-31.5 -326.5q0 -166 30.5 -277.5t88 -179.5t140.5 -96.5t187 -28.5q100 0 169 23.5t140 68.5l29 -188q-41 -25 -78 -43.5t-77 -31.5t-84 -19.5t-99 -6.5q-154 0 -272.5 54.5t-201.5 154t-126 241.5 t-43 320zM612 295q0 -61 54 -62q29 0 58.5 35t47.5 121l59 287q8 35 9 67q0 63 -56 64q-43 0 -66.5 -35t-39.5 -121l-53 -262q-13 -57 -13 -94z" />
<glyph unicode="A" horiz-adv-x="731" d="M0 0l211 1569h307l213 -1569h-209l-41 348h-231l-41 -348h-209zM276 557h179l-82 690q0 29 -2 56.5t-6 56.5q-6 -55 -7 -113z" />
<glyph unicode="B" horiz-adv-x="804" d="M82 0v1569h358q119 0 199 -79t80 -249v-197q0 -80 -34 -135t-116 -102q96 -35 133 -99.5t37 -152.5v-227q0 -170 -79.5 -249t-198.5 -79h-379zM291 199h125q59 0 86.5 34.5t27.5 120.5v199q0 86 -37.5 121t-97.5 35h-104v-510zM291 903h104q59 0 87 35t28 121v155 q0 86 -27.5 121t-87.5 35h-104v-467z" />
<glyph unicode="C" horiz-adv-x="780" d="M72 301v967q0 86 25.5 148.5t70.5 102.5t103.5 58t123.5 18q66 0 124.5 -18t103.5 -57t70.5 -101.5t25.5 -150.5v-246h-209v219q0 86 -36 121t-79 35t-78.5 -35t-35.5 -121v-913q0 -86 35.5 -121t78.5 -35t79 35t36 121v196h209v-223q0 -88 -25.5 -150.5t-70.5 -101.5 t-103.5 -57.5t-124.5 -18.5t-124 18.5t-103 58.5t-70.5 102.5t-25.5 148.5z" />
<glyph unicode="D" d="M82 0v1569h358q59 0 110.5 -18.5t88.5 -57.5t58.5 -101.5t21.5 -150.5v-913q0 -88 -21.5 -150.5t-58.5 -101.5t-88 -57.5t-111 -18.5h-358zM291 199h104q59 0 87 34.5t28 120.5v860q0 86 -27.5 121t-87.5 35h-104v-1171z" />
<glyph unicode="E" horiz-adv-x="612" d="M82 0v1569h500v-209h-291v-465h276v-209h-276v-477h291v-209h-500z" />
<glyph unicode="F" horiz-adv-x="591" d="M82 0v1569h500v-209h-291v-465h276v-209h-276v-686h-209z" />
<glyph unicode="G" horiz-adv-x="804" d="M72 301v967q0 86 25.5 148.5t69.5 102.5t105.5 58t133.5 18t133 -18t105 -57t69.5 -101.5t25.5 -150.5v-244h-209v217q0 86 -36.5 121t-87.5 35t-88 -35t-37 -121v-913q0 -86 36.5 -121t88.5 -35q47 0 74.5 12.5t49.5 48.5v371h-139v209h348v-682q-12 -25 -35.5 -53.5 t-63.5 -51t-97.5 -38t-136.5 -15.5q-72 0 -133.5 18.5t-105.5 58.5t-69.5 102.5t-25.5 148.5z" />
<glyph unicode="H" horiz-adv-x="811" d="M82 0v1569h209v-664h229v664h209v-1569h-209v696h-229v-696h-209z" />
<glyph unicode="I" horiz-adv-x="372" d="M82 0v1569h209v-1569h-209z" />
<glyph unicode="J" horiz-adv-x="372" d="M-35 -195h2q43 0 79 35t36 121v1608h209v-1635q0 -88 -25.5 -150.5t-70.5 -101t-103.5 -57t-124.5 -18.5h-2v198z" />
<glyph unicode="K" horiz-adv-x="780" d="M82 0v1569h209v-1569h-209zM293 784l250 785h209l-238 -778l277 -791h-209z" />
<glyph unicode="L" horiz-adv-x="509" d="M82 0v1569h209v-1360h209v-209h-418z" />
<glyph unicode="M" horiz-adv-x="1187" d="M82 0v1569h338l164 -1059l10 -141l10 143l164 1057h338v-1569h-209v1188l14 112l-32 -108l-185 -1192h-205l-180 1192l-33 108l15 -112v-1188h-209z" />
<glyph unicode="N" horiz-adv-x="917" d="M82 0v1569h264l264 -1077l41 -115l-24 115v1077h209v-1569h-275l-252 1028l-33 109l15 -113v-1024h-209z" />
<glyph unicode="O" d="M72 301v967q0 86 25.5 148.5t70.5 102.5t103.5 58t123.5 18q156 0 240 -75.5t84 -251.5v-967q0 -88 -25.5 -150.5t-70.5 -101.5t-103.5 -57.5t-124.5 -18.5t-124 18.5t-103 58.5t-70.5 102.5t-25.5 148.5zM281 328q0 -86 35.5 -121t78.5 -35t79 35t36 121v913 q0 86 -36 121t-79 35t-78.5 -35t-35.5 -121v-913z" />
<glyph unicode="P" horiz-adv-x="759" d="M82 0v1569h358q59 0 110.5 -18.5t88.5 -57.5t58.5 -101.5t21.5 -150.5v-252q0 -88 -21.5 -150.5t-58.5 -101.5t-88 -57t-111 -18h-149v-662h-209zM291 844h104q59 0 87 34.5t28 120.5v232q0 86 -27.5 120.5t-87.5 34.5h-104v-542z" />
<glyph unicode="Q" d="M72 301v967q0 86 25.5 148.5t70.5 102.5t103.5 58t123.5 18q66 0 124.5 -18t103.5 -57t70.5 -101.5t25.5 -150.5v-967q0 -109 -36 -174.5t-124 -108.5q29 -59 55.5 -118.5t55.5 -118.5q-41 -16 -83 -35.5t-83 -36.5q-31 66 -60.5 132.5t-58.5 131.5q-59 0 -115.5 18.5 t-100.5 57.5t-70.5 101.5t-26.5 150.5zM281 328q0 -86 35.5 -121t78.5 -35t79 35t36 121v913q0 86 -36 121t-79 35t-78.5 -35t-35.5 -121v-913z" />
<glyph unicode="R" horiz-adv-x="761" d="M82 0v1569h362q119 0 197 -76t78 -252v-252q0 -119 -41 -193.5t-111 -105.5l193 -690h-209l-180 645h-80v-645h-209zM291 844h104q59 0 87 34.5t28 120.5v215q0 86 -27.5 121t-87.5 35h-104v-526z" />
<glyph unicode="S" horiz-adv-x="770" d="M61 301v223h209v-196q0 -86 36 -121t79 -35t79 35t36 121v129q0 43 -33 85t-81 86t-105.5 90t-105.5 100t-81 116.5t-33 136.5v197q0 86 26 148.5t71 102.5t103 58t124 18t124 -18t103 -57t71 -101.5t26 -150.5v-246h-209v219q0 86 -36 121t-79 35t-79 -35t-36 -121v-131 q0 -59 33 -107.5t81 -91.5t105.5 -86t105.5 -90t81 -104.5t33 -130.5v-199q0 -170 -90.5 -249t-233.5 -79t-233.5 80t-90.5 248z" />
<glyph unicode="T" horiz-adv-x="618" d="M10 1360v209h598v-209h-194v-1360h-209v1360h-195z" />
<glyph unicode="U" horiz-adv-x="798" d="M76 301v1268h209v-1274q0 -86 35.5 -121t78.5 -35t79 35t36 121v1274h209v-1268q0 -88 -25.5 -150.5t-70.5 -101.5t-103.5 -57.5t-124.5 -18.5t-124 18.5t-103 58.5t-70.5 102.5t-25.5 148.5z" />
<glyph unicode="V" horiz-adv-x="690" d="M0 1569h209l131 -1227q0 -57 6 -113q6 55 6 113l129 1227h209l-190 -1569h-307z" />
<glyph unicode="W" horiz-adv-x="1216" d="M0 1569h209l110 -1219q0 -57 7 -112q6 55 6 112l129 1219h295l129 -1211q0 -25 2 -50t6 -50q4 25 6 50.5t2 49.5l107 1211h209l-170 -1569h-308l-123 1159q-4 41 -4 73t-4 73q-4 -41 -4 -73t-4 -73l-121 -1159h-307z" />
<glyph unicode="X" horiz-adv-x="782" d="M0 0l274 807l-262 762h211l178 -535l166 535h211l-233 -764l237 -805h-209l-172 588l-192 -588h-209z" />
<glyph unicode="Y" horiz-adv-x="733" d="M0 1571h211l145 -682l166 684h211l-260 -1026v-547h-246v545z" />
<glyph unicode="Z" horiz-adv-x="606" d="M20 0v209l330 1151h-311v209h547v-119l-353 -1241h353v-209h-566z" />
<glyph unicode="[" horiz-adv-x="454" d="M96 -348v1921h361v-189h-160v-1538h160v-194h-361z" />
<glyph unicode="\" horiz-adv-x="598" d="M-117 1573h199l510 -1614h-201z" />
<glyph unicode="]" horiz-adv-x="454" d="M-2 -160h160v1538h-160v195h360v-1921h-360v188z" />
<glyph unicode="^" horiz-adv-x="841" d="M0 969v192h113v117q0 168 64.5 237.5t193.5 69.5q23 0 42 -3t40 -7v-143h-62q-43 0 -58.5 -35t-15.5 -121v-115h205v117q0 168 64.5 237.5t193.5 69.5q23 0 42.5 -3t39.5 -7v-143h-61q-43 0 -58.5 -35t-15.5 -121v-115h133v-192h-133v-969h-205v969h-205v-969h-204v969 h-113z" />
<glyph unicode="_" horiz-adv-x="620" d="M0 -98v196h621v-196h-621z" />
<glyph unicode="`" horiz-adv-x="241" d="M-20 1522h227l94 -207h-192z" />
<glyph unicode="a" horiz-adv-x="684" d="M61 293v80q0 170 54.5 251t165.5 81h133v114q0 86 -15.5 121t-58.5 35t-58.5 -35t-15.5 -121v-28h-205v71q0 170 68 238.5t211 68.5t210.5 -69.5t67.5 -237.5v-862h-178l-26 94q-6 -14 -17.5 -33.5t-28 -36t-37 -27.5t-46.5 -11q-72 0 -116 16t-67.5 52t-32 94.5 t-8.5 144.5zM266 336q0 -86 15.5 -121t58.5 -35t58.5 35t15.5 121v211h-74q-43 0 -58.5 -45t-15.5 -131v-35z" />
<glyph unicode="b" horiz-adv-x="700" d="M82 0v1571h205v-492q8 8 25.5 24.5t39 34t44 30t40.5 12.5q72 0 113 -17.5t60.5 -54.5t24.5 -96.5t5 -145.5v-573q0 -86 -8 -144.5t-32 -94.5t-68 -52t-115 -16q-27 0 -47.5 11t-37 27.5t-27.5 36t-17 33.5l-27 -94h-178zM287 336q0 -86 15 -121t58 -35t58.5 35t15.5 121 v487q0 86 -15.5 121t-58.5 35q-41 0 -57 -30.5t-16 -100.5v-512z" />
<glyph unicode="c" horiz-adv-x="669" d="M61 289v590q0 168 68 237.5t211 69.5t210.5 -68.5t67.5 -238.5v-144h-204v101q0 86 -15.5 120.5t-58.5 34.5t-58.5 -34.5t-15.5 -120.5v-504q0 -86 15.5 -121t58.5 -35t58.5 35t15.5 121v123h204v-166q0 -170 -67.5 -238.5t-210.5 -68.5t-211 69.5t-68 237.5z" />
<glyph unicode="d" horiz-adv-x="700" d="M61 293v573q0 86 5.5 145.5t25 96.5t60.5 54.5t112 17.5q37 0 82 -32t68 -69v492h204v-1571h-178l-26 94q-6 -14 -17.5 -33.5t-28 -36t-37 -27.5t-46.5 -11q-72 0 -116 16t-67.5 52t-32 94.5t-8.5 144.5zM266 336q0 -86 15.5 -121t58.5 -35t58.5 35t15.5 121v512 q0 70 -16.5 100.5t-57.5 30.5q-43 0 -58.5 -35t-15.5 -121v-487z" />
<glyph unicode="e" horiz-adv-x="669" d="M61 289v573q0 168 68 237.5t211 69.5t210.5 -68.5t67.5 -238.5v-368h-352v-162q0 -86 15.5 -121t58.5 -35t58.5 35t15.5 121v51h204v-94q0 -170 -67.5 -238.5t-210.5 -68.5t-211 69.5t-68 237.5zM266 686h148v133q0 86 -15.5 121t-58.5 35t-58.5 -35t-15.5 -121v-133z " />
<glyph unicode="f" horiz-adv-x="432" d="M0 969v192h113v117q0 168 64.5 237.5t193.5 69.5q23 0 42 -3t40 -7v-143h-62q-43 0 -58.5 -35t-15.5 -121v-115h134v-192h-134v-969h-204v969h-113z" />
<glyph unicode="g" horiz-adv-x="675" d="M41 57q0 41 5 70t13.5 51.5t19.5 41t25 36.5q-8 16 -17 30.5t-9 45.5q0 33 14 60.5t49 70.5q-41 35 -60.5 97.5t-19.5 158.5v143q0 168 68 237.5t211 69.5q66 0 101.5 -6t62.5 -20h172v-96h-88q31 -70 30 -185v-143q0 -170 -68.5 -238.5t-217.5 -68.5q-29 0 -42.5 -4.5 t-13.5 -26.5q0 -29 20.5 -34t82.5 -5q74 0 120 -19.5t72.5 -59.5t36.5 -101.5t10 -145.5v-122q0 -170 -77.5 -239t-221.5 -69q-143 0 -210.5 70t-67.5 238v163zM246 35v-98q0 -86 20.5 -121t63.5 -35t63.5 34.5t20.5 121.5v57q0 86 -16.5 131t-67.5 45t-67.5 -24.5 t-16.5 -110.5zM266 762q0 -86 15.5 -121t58.5 -35t58.5 35t15.5 121v57q0 86 -15.5 121t-58.5 35t-58.5 -35t-15.5 -121v-57z" />
<glyph unicode="h" horiz-adv-x="704" d="M82 4v1567h205v-492q8 18 25.5 36t39 32t44 23.5t40.5 9.5q72 0 113 -17.5t60.5 -54.5t24.5 -96.5t5 -145.5v-862h-205v819q0 86 -15.5 121t-58.5 35q-41 0 -57 -30.5t-16 -100.5v-844h-205z" />
<glyph unicode="i" horiz-adv-x="350" d="M43 1417q0 59 43 90t96 31q25 0 48.5 -11t42 -29.5t28.5 -41t10 -47.5q0 -63 -42 -96t-97 -33q-66 0 -97.5 39t-31.5 98zM74 0v1161h205v-1161h-205z" />
<glyph unicode="j" horiz-adv-x="348" d="M31 -408q27 86 34 173.5t7 173.5v1222h204v-1231q0 -86 -7 -169t-33 -169h-205zM43 1417q0 59 43 90t96 31q25 0 48.5 -11t42 -29.5t28.5 -41t10 -47.5q0 -63 -42 -96t-97 -33q-66 0 -97.5 39t-31.5 98z" />
<glyph unicode="k" horiz-adv-x="710" d="M82 0v1569h205v-1569h-205zM289 594l209 567h209l-201 -561l199 -600h-207z" />
<glyph unicode="l" horiz-adv-x="368" d="M82 0v1571h205v-1571h-205z" />
<glyph unicode="m" horiz-adv-x="1046" d="M72 0v1161h178l26 -94q6 16 18.5 34.5t32 35t49.5 28t70 11.5q76 0 114 -31t54 -103q23 49 63 91.5t122 42.5q55 0 91 -16.5t56.5 -52.5t27.5 -94.5t7 -144.5v-868h-205v825q0 86 -15.5 121t-58.5 35t-58 -35t-15 -121v-825h-205v846q0 86 -15.5 110.5t-58.5 24.5 t-58.5 -35t-15.5 -121v-825h-204z" />
<glyph unicode="n" horiz-adv-x="694" d="M72 0v1161h178l26 -94q6 16 18.5 34.5t32 35t49.5 28t70 11.5q55 0 91 -16.5t56.5 -52.5t28 -94.5t7.5 -144.5v-868h-205v825q0 86 -15.5 121t-58.5 35t-58.5 -35t-15.5 -121v-825h-204z" />
<glyph unicode="o" horiz-adv-x="679" d="M61 289v573q0 168 68 237.5t211 69.5t210.5 -68.5t67.5 -238.5v-573q0 -170 -67.5 -238.5t-210.5 -68.5t-211 69.5t-68 237.5zM266 332q0 -86 15.5 -121t58.5 -35t58.5 35t15.5 121v487q0 86 -15.5 121t-58.5 35t-58.5 -35t-15.5 -121v-487z" />
<glyph unicode="p" horiz-adv-x="690" d="M72 -408v1571h178l26 -94q6 16 17.5 34.5t28 35t37 28t47.5 11.5q72 0 115.5 -16.5t67 -52.5t32 -94.5t8.5 -144.5v-573q0 -86 -5.5 -145.5t-24.5 -96.5t-60 -54t-113 -17q-37 0 -84 29.5t-66 70.5v-492h-204zM276 315q0 -70 16.5 -100.5t57.5 -30.5q43 0 58.5 35 t15.5 121v487q0 86 -15.5 121t-58.5 35t-58.5 -35t-15.5 -121v-512z" />
<glyph unicode="q" horiz-adv-x="690" d="M61 297v573q0 86 8.5 144.5t32 94.5t67.5 52.5t116 16.5q27 0 47 -11.5t36.5 -28t28 -35t17.5 -34.5l26 94h178v-1571h-204v492q-27 -41 -70 -70.5t-80 -29.5q-72 0 -112.5 17t-60 54t-25 96.5t-5.5 145.5zM266 340q0 -86 15.5 -121t58.5 -35q41 0 57.5 31t16.5 100v512 q0 86 -15.5 121t-58.5 35t-58.5 -35t-15.5 -121v-487z" />
<glyph unicode="r" horiz-adv-x="534" d="M72 0v1161h178l26 -94q6 16 17.5 34.5t28 35t37 28t47.5 11.5q33 0 53 -4.5t35 -8.5q16 -6 26 -12l-6 -205q-29 2 -57.5 6t-55.5 4t-49 -7t-38.5 -25.5t-27 -52t-10.5 -87.5v-784h-204z" />
<glyph unicode="s" horiz-adv-x="659" d="M41 352v60h205v-78q0 -86 17.5 -121t76.5 -35q43 0 58.5 30t15.5 85q0 47 -28 85t-69 73.5t-90 73.5t-90 85t-68.5 106.5t-27.5 139.5q0 168 69.5 248t229.5 80q143 0 210.5 -78t67.5 -250v-82h-204v60q0 86 -15.5 120.5t-58.5 34.5q-59 0 -76.5 -28.5t-17.5 -81.5 q0 -63 27.5 -108.5t68.5 -83.5t90 -72.5t90 -77.5t68.5 -96.5t27.5 -129.5q0 -172 -67.5 -249.5t-210.5 -77.5q-158 0 -228.5 100t-70.5 268z" />
<glyph unicode="t" horiz-adv-x="442" d="M0 969v192h92v287h205v-287h133v-192h-133v-676q0 -86 15.5 -121t58.5 -35h61v-143q-20 -4 -39.5 -7t-42.5 -3q-143 0 -200.5 69.5t-57.5 237.5v678h-92z" />
<glyph unicode="u" horiz-adv-x="694" d="M66 293v868h204v-825q0 -86 15.5 -121t58.5 -35t58.5 35t15.5 121v825h205v-1161h-179l-26 94q-6 -14 -17.5 -33.5t-28 -36t-37 -27.5t-46.5 -11q-72 0 -116 16t-67.5 52t-31.5 94.5t-8 144.5z" />
<glyph unicode="v" horiz-adv-x="612" d="M0 1161h213l86 -844q0 -57 6 -112q6 55 6 112l88 844h213l-155 -1161h-299z" />
<glyph unicode="w" horiz-adv-x="1017" d="M0 1161h213l86 -844q0 -57 6 -112q6 55 6 112l88 844h219l87 -844q0 -57 6 -112q6 55 6 112l88 844h213l-156 -1161h-254l-90 745q-4 33 -5 65t-5 64q-2 -33 -5 -65.5t-3 -65.5l-88 -743h-254z" />
<glyph unicode="x" horiz-adv-x="636" d="M0 0l182 594l-180 567h203l112 -352l109 352h207l-189 -569l193 -592h-203l-125 367l-108 -367h-201z" />
<glyph unicode="y" horiz-adv-x="632" d="M0 1161h213l98 -844q0 -27 1 -53t3 -51l4 12q2 23 3.5 46.5t1.5 45.5l96 844h213l-238 -1571h-260l64 299z" />
<glyph unicode="z" horiz-adv-x="552" d="M16 0v190l289 766h-250v205h482v-160l-295 -796h270v-205h-496z" />
<glyph unicode="{" horiz-adv-x="794" d="M0 969v192h113v117q0 168 64.5 237.5t193.5 69.5q23 0 42 -3t40 -7v-143h-62q-43 0 -58.5 -35t-15.5 -121v-115h134v-192h-134v-969h-204v969h-113zM487 1417q0 59 43 90t97 31q25 0 48 -11t41.5 -29.5t29 -41t10.5 -47.5q0 -63 -42 -96t-98 -33q-66 0 -97.5 39t-31.5 98 zM518 0v1161h205v-1161h-205z" />
<glyph unicode="|" horiz-adv-x="372" d="M82 -412v1981h209v-1981h-209z" />
<glyph unicode="}" horiz-adv-x="808" d="M0 969v192h113v117q0 168 64.5 237.5t193.5 69.5q23 0 42 -3t40 -7v-143h-62q-43 0 -58.5 -35t-15.5 -121v-115h134v-192h-134v-969h-204v969h-113zM522 0v1571h205v-1571h-205z" />
<glyph unicode="~" horiz-adv-x="1208" d="M0 969v192h113v117q0 168 64.5 237.5t193.5 69.5q23 0 42 -3t40 -7v-143h-62q-43 0 -58.5 -35t-15.5 -121v-115h205v117q0 168 64.5 237.5t193.5 69.5q23 0 42.5 -3t39.5 -7v-143h-61q-43 0 -58.5 -35t-15.5 -121v-115h133v-192h-133v-969h-205v969h-205v-969h-204v969 h-113zM901 1417q0 59 43 90t96 31q25 0 48.5 -11t42 -29.5t28.5 -41t10 -47.5q0 -63 -42 -96t-97 -33q-66 0 -97.5 39t-31.5 98zM932 0v1161h205v-1161h-205z" />
<glyph unicode="&#xa1;" horiz-adv-x="335" d="M35 1067q0 59 43 90t96 31q25 0 48.5 -11.5t42 -30t28.5 -41t10 -46.5q0 -63 -42 -96t-97 -33q-66 0 -97.5 39t-31.5 98zM51 -408l31 1262h164l28 -1262h-223z" />
<glyph unicode="&#xa2;" horiz-adv-x="669" d="M61 506v590q0 135 43 204.5t136 92.5v178h204v-180q90 -23 132 -91.5t42 -203.5v-144h-204v101q0 86 -15.5 120.5t-58.5 34.5t-58.5 -34.5t-15.5 -120.5v-504q0 -86 15.5 -121t58.5 -35t58.5 35t15.5 121v123h204v-166q0 -137 -41.5 -206t-132.5 -91v-209h-204v209 q-92 20 -135.5 91t-43.5 206z" />
<glyph unicode="&#xa3;" horiz-adv-x="841" d="M53 0v209h72v270h-72v197h72v90h-72v197h72v305q0 102 25.5 165.5t70.5 99.5t103.5 49t124.5 13t124 -12t103 -48t70.5 -99.5t25.5 -167.5v-105h-209v78q0 86 -35.5 121t-78.5 35t-79 -35t-36 -121v-278h420v-197h-420v-90h420v-197h-420v-270h434v-209h-715z" />
<glyph unicode="&#xa4;" horiz-adv-x="780" d="M12 520v197h60v90h-60v197h60v264q0 86 25.5 148.5t70.5 102.5t103.5 58t123.5 18q66 0 124.5 -18t103.5 -57t70.5 -101.5t25.5 -150.5v-164h-209v137q0 86 -36 121t-79 35t-78.5 -35t-35.5 -121v-237h350v-197h-350v-90h350v-197h-350v-192q0 -86 35.5 -121t78.5 -35 t79 35t36 121v114h209v-141q0 -88 -25.5 -150.5t-70.5 -101.5t-103.5 -57.5t-124.5 -18.5t-124 18.5t-103 58.5t-70.5 102.5t-25.5 148.5v219h-60z" />
<glyph unicode="&#xa5;" horiz-adv-x="733" d="M0 1571h211l145 -682l166 684h211l-233 -920h129v-196h-156v-90h156v-197h-156v-170h-246v170h-135v197h135v90h-135v196h111z" />
<glyph unicode="&#xa6;" horiz-adv-x="372" d="M82 356h209v-766h-209v766zM82 764v805h209v-805h-209z" />
<glyph unicode="&#xa7;" horiz-adv-x="874" d="M0 969v192h113v117q0 168 64.5 237.5t193.5 69.5q23 0 42 -3t40 -7v-143h-62q-43 0 -58.5 -35t-15.5 -121v-115h207v287h205v-287h133v-192h-133v-676q0 -86 15.5 -121t58.5 -35h61v-143q-20 -4 -39.5 -7t-42.5 -3q-143 0 -200.5 69.5t-57.5 237.5v678h-207v-969h-204 v969h-113z" />
<glyph unicode="&#xa8;" horiz-adv-x="643" d="M29 1380q0 63 42 96t97 33q66 0 97.5 -38.5t31.5 -98.5q0 -59 -43 -90t-96 -31q-25 0 -48.5 11.5t-42 30t-28.5 40.5t-10 47zM348 1380q0 63 42 96t97 33q66 0 97.5 -38.5t31.5 -98.5q0 -59 -43 -90t-96 -31q-25 0 -48 11.5t-41.5 30t-29 40.5t-10.5 47z" />
<glyph unicode="&#xa9;" horiz-adv-x="1517" d="M63 780q0 199 49.5 354.5t140.5 262t220 162t287 55.5t287 -55.5t220 -162t140 -262t49 -354.5t-49 -353.5t-140 -261t-220 -161.5t-287 -55t-287 55t-220 161.5t-140.5 261t-49.5 353.5zM246 782q0 -143 39 -262t108.5 -205t162.5 -134t202 -48t202 48t162.5 134 t108.5 205t39 262t-39 262t-108.5 205t-163 134.5t-201.5 48.5q-109 0 -202 -48.5t-162.5 -134.5t-108.5 -205t-39 -262zM475 561v426q0 168 67.5 237.5t211.5 69.5q143 0 210.5 -68.5t67.5 -238.5v-102h-205v59q0 86 -15 121t-58 35t-58.5 -35t-15.5 -121v-340 q0 -86 15.5 -120.5t58.5 -34.5t58 34.5t15 120.5v82h205v-125q0 -170 -67.5 -238.5t-210.5 -68.5t-211 69.5t-68 237.5z" />
<glyph unicode="&#xaa;" horiz-adv-x="690" d="M61 293v573q0 86 5.5 145.5t25 96.5t60.5 54.5t112 17.5q37 0 82 -32t68 -69v82h204v-1161h-178l-26 94q-6 -14 -17.5 -33.5t-28 -36t-37 -27.5t-46.5 -11q-72 0 -116 16t-67.5 52t-32 94.5t-8.5 144.5zM266 336q0 -86 15.5 -121t58.5 -35t58.5 35t15.5 121v512 q0 70 -16.5 100.5t-57.5 30.5q-43 0 -58.5 -35t-15.5 -121v-487z" />
<glyph unicode="&#xab;" horiz-adv-x="735" d="M12 584l199 422h213l-199 -424l199 -396h-211zM319 584l199 422h213l-199 -424l199 -396h-211z" />
<glyph unicode="&#xac;" horiz-adv-x="804" d="M72 301v967q0 94 26.5 157.5t72.5 101.5t108.5 53t136.5 15t133 -15t101 -52t65.5 -100.5t23.5 -159.5v-246h-209v219q0 86 -35.5 121t-78.5 35q-20 0 -45 -8.5t-44.5 -27t-32.5 -48t-13 -72.5v-913q0 -43 13 -73t32.5 -48.5t44 -26.5t45.5 -8q43 0 78.5 35t35.5 121v358 h-137v209h346v-594q0 -96 -23.5 -159.5t-65.5 -100.5t-101.5 -52.5t-132.5 -15.5q-74 0 -136.5 17.5t-108.5 56.5t-72.5 101.5t-26.5 152.5z" />
<glyph unicode="&#xad;" horiz-adv-x="509" d="M49 500v196h408v-196h-408z" />
<glyph unicode="&#xae;" horiz-adv-x="1517" d="M63 780q0 199 49.5 354.5t140.5 262t220 162t287 55.5t287 -55.5t220 -162t140 -262t49 -354.5t-49 -353.5t-140 -261t-220 -161.5t-287 -55t-287 55t-220 161.5t-140.5 261t-49.5 353.5zM246 782q0 -186 63.5 -328.5t171.5 -226.5v1069h291q68 0 123 -15t96 -52 t63.5 -100.5t22.5 -159.5v-35q0 -121 -36.5 -207t-114.5 -113l110 -385q106 84 170 226.5t64 326.5q0 143 -39 262t-108.5 205t-163 134.5t-201.5 48.5q-109 0 -202 -48.5t-162.5 -134.5t-108.5 -205t-39 -262zM487 223q59 -43 127 -66.5t144 -23.5q74 0 141.5 23.5 t126.5 66.5h-195l-104 357h-37v-357h-203zM690 778h64q59 0 86.5 35t27.5 121v8q0 86 -27.5 121t-86.5 35h-64v-320z" />
<glyph unicode="&#xaf;" horiz-adv-x="1218" d="M0 969v192h113v117q0 168 64.5 237.5t193.5 69.5q23 0 42 -3t40 -7v-143h-62q-43 0 -58.5 -35t-15.5 -121v-115h205v117q0 168 64.5 237.5t193.5 69.5q23 0 42.5 -3t39.5 -7v-143h-61q-43 0 -58.5 -35t-15.5 -121v-115h133v-192h-133v-969h-205v969h-205v-969h-204v969 h-113zM932 0v1571h205v-1571h-205z" />
<glyph unicode="&#xb0;" horiz-adv-x="1527" d="M82 0v1569h264l264 -1077l41 -115l-24 115v1077h209v-1569h-275l-252 1028l-33 109l15 -113v-1024h-209zM950 750v340q0 168 57.5 237.5t200.5 69.5q72 0 121 -16.5t80 -52.5t44 -94t13 -144v-340q0 -86 -13 -144.5t-44 -94.5t-80 -52.5t-121 -16.5q-143 0 -200.5 70 t-57.5 238zM1006 133v197h407v-197h-407zM1135 793q0 -86 15 -121t58 -35t58.5 35t15.5 121v254q0 86 -15.5 120.5t-58.5 34.5t-58 -34.5t-15 -120.5v-254z" />
<glyph unicode="&#xb1;" horiz-adv-x="638" d="M53 340v197h537v-197h-537zM53 809v197h170v170h197v-170h170v-197h-170v-170h-197v170h-170z" />
<glyph unicode="&#xb2;" horiz-adv-x="731" d="M41 0v156q0 74 31.5 155.5t81 166.5t104.5 171t104.5 168t81 157t31.5 136v135q0 86 -36 121t-79 35t-78.5 -35t-35.5 -121v-192h-205v215q0 170 88 248.5t231 78.5t231.5 -79.5t88.5 -247.5v-181q0 -70 -31 -148.5t-78 -159.5t-102 -161.5t-102.5 -155.5t-80 -140.5 t-36.5 -116.5h393v-205h-602z" />
<glyph unicode="&#xb3;" horiz-adv-x="765" d="M61 281v221h205v-199q0 -43 10.5 -69.5t25.5 -41t36.5 -19.5t42.5 -5q23 0 43 5t35.5 19.5t26 41t10.5 69.5v268q0 43 -19.5 70t-47.5 41t-57.5 19.5t-52.5 5.5q-10 0 -19 -1t-19 -4v218q10 -4 19 -5h19q23 0 52.5 5.5t57.5 19.5t47.5 41t19.5 70v217q0 43 -10.5 69.5 t-26 41t-36 19.5t-42.5 5q-20 0 -42 -5t-37 -19.5t-25.5 -41t-10.5 -69.5v-207h-200q-2 16 -3.5 32.5t-1.5 36.5v160q0 84 24 142.5t66 95.5t100 53t130 16q143 0 231 -68.5t88 -238.5v-211q0 -51 -7 -90t-28.5 -68.5t-58.5 -53t-98 -46.5q61 -25 98 -52.5t58.5 -60 t28.5 -73.5t7 -92v-262q0 -170 -88 -239t-231 -69q-72 0 -130 16.5t-100 53.5t-66 95.5t-24 142.5z" />
<glyph unicode="&#xb4;" horiz-adv-x="241" d="M0 1315l90 207h227l-127 -207h-190z" />
<glyph unicode="&#xb5;" horiz-adv-x="1404" d="M104 0v1184h1184v-1184h-1184zM109 1305v53q0 39 13 53t40 14q35 0 46 -16t11 -49v-17h-47v31q0 14 -2 17.5t-6 3.5q-8 0 -8 -23v-84q0 -14 1 -17t7 -3q4 0 6 3t2 19v25h47v-8q0 -35 -11 -52.5t-44 -17.5t-44 15.5t-11 52.5zM225 1241l23 180h67l29 -180h-49l-2 33h-17 l-4 -33h-47zM266 584l207 -160q4 -4 11.5 -17.5t11.5 -29.5q-4 -10 -11.5 -24.5t-35.5 -43.5l206 45q10 -4 18.5 -9t8.5 -9q0 -2 -2 -4v-207h45v207q-2 2 -2 6q0 8 25 16l206 -45q-25 29 -34 45.5t-13 22.5q4 16 11.5 29.5t11.5 17.5l184 160h-22q-6 6 -11.5 12t-13.5 10 l47 139l-115 -24q-8 4 -13 11t-9 13l-23 46l-92 -93q-8 -10 -13 -14t-9 -8q-18 8 -23 22l68 230l-68 -23q-4 -2 -14 -8t-10 -12v-2q-10 6 -13.5 9t-9.5 13l-68 137l-69 -137q-4 -10 -9.5 -13t-13.5 -9q0 6 -9 13t-13 9l-47 23l47 -230l-25 -22q-6 6 -11 9t-11 13l-92 93 l-23 -46l-12 -15q-4 -5 -11 -9l-114 24l45 -139q-10 -8 -23 -22h-45zM276 1305h15q-2 14 -3 32.5t-3 40.5q-4 -25 -6.5 -43t-2.5 -30zM352 1241v180h37l27 -82v82h41v-180h-41l-25 82v-82h-39zM465 1241l22 180h68l29 -180h-49l-3 33h-18l-2 -33h-47zM514 1305h16 q-2 29 -6 77q-4 -27 -6 -46t-4 -31zM590 1241v180h35q27 0 41 -2t21 -8t9 -18.5t2 -34.5v-64q0 -41 -10 -47t-39 -6h-59zM637 1272q10 0 12 3t2 21v72q0 16 -2 19.5t-12 3.5v-119zM707 1241l22 180h68l28 -180h-49l-2 33h-16l-4 -33h-47zM758 1305h14q-2 29 -6 77 q-4 -27 -6 -46t-2 -31zM864 1384v37h103v-37h-27v-143h-47v143h-29zM969 1421h41q10 -49 12 -67q2 14 5 30.5t7 36.5h43l-33 -116v-64h-43v64zM1085 1241v180h48q39 0 47 -10t8 -41v-14q0 -25 -9.5 -33t-33.5 -8h-12v-74h-48zM1133 1343h4q12 0 12 17v16q0 14 -16 15v-48z M1200 1241v180h80v-37h-33v-32h31v-35h-31v-41h35v-35h-82z" />
<glyph unicode="&#xb6;" horiz-adv-x="798" d="M59 831v410q0 104 15.5 168t49.5 99.5t87 48t127 12.5h379v-1747h-127v1626h-101v-1628h-127v684h-24q-74 0 -127 12t-87 48t-49.5 99.5t-15.5 167.5z" />
<glyph unicode="&#xb7;" horiz-adv-x="854" d="M0 969v192h92v287h205v-287h207v287h205v-287h133v-192h-133v-676q0 -86 15 -121t58 -35h62v-143q-20 -4 -40 -7t-42 -3q-143 0 -200.5 69.5t-57.5 237.5v678h-207v-676q0 -86 15.5 -121t58.5 -35h61v-143q-20 -4 -39.5 -7t-42.5 -3q-143 0 -200.5 69.5t-57.5 237.5v678 h-92z" />
<glyph unicode="&#xb8;" horiz-adv-x="333" d="M33 -170l86 215h176l-125 -215h-137z" />
<glyph unicode="&#xb9;" horiz-adv-x="532" d="M10 1266v202l260 101h181v-1569h-205v1341z" />
<glyph unicode="&#xba;" horiz-adv-x="638" d="M61 750v340q0 168 57.5 237.5t200.5 69.5q72 0 121 -16.5t80 -52.5t44.5 -94t13.5 -144v-340q0 -86 -13.5 -144.5t-44.5 -94.5t-80 -52.5t-121 -16.5q-143 0 -200.5 70t-57.5 238zM117 133v197h407v-197h-407zM246 793q0 -86 15 -121t58 -35t58.5 35t15.5 121v254 q0 86 -15.5 120.5t-58.5 34.5t-58 -34.5t-15 -120.5v-254z" />
<glyph unicode="&#xbb;" horiz-adv-x="735" d="M10 186l199 396l-199 424h213l199 -422l-201 -398h-211zM317 186l199 396l-199 424h213l199 -422l-201 -398h-211z" />
<glyph unicode="&#xbf;" horiz-adv-x="761" d="M59 -117v273q0 66 10.5 118t37 92t72.5 67.5t116 39.5v393h209v-583q-10 4 -20 4h-19q-20 0 -54 -5.5t-66 -19.5t-54.5 -40.5t-22.5 -69.5v-242q0 -43 10.5 -69.5t25.5 -41t36.5 -19.5t42.5 -5q23 0 43 5t35.5 19.5t26 41t10.5 69.5v203h209v-230q0 -168 -78 -237.5 t-246 -69.5t-246 68.5t-78 238.5zM262 1077q0 59 43 90t96 31q25 0 48.5 -11t42 -29.5t28.5 -41t10 -47.5q0 -63 -42 -96t-97 -33q-66 0 -97.5 39t-31.5 98z" />
<glyph unicode="&#xc0;" horiz-adv-x="731" d="M0 0l211 1569h307l213 -1569h-209l-41 348h-231l-41 -348h-209zM276 557h179l-82 690q0 29 -2 56.5t-6 56.5q-6 -55 -7 -113zM162 1932h227l94 -207h-192z" />
<glyph unicode="&#xc1;" horiz-adv-x="731" d="M0 0l211 1569h307l213 -1569h-209l-41 348h-231l-41 -348h-209zM276 557h179l-82 690q0 29 -2 56.5t-6 56.5q-6 -55 -7 -113zM274 1725l90 207h227l-127 -207h-190z" />
<glyph unicode="&#xc2;" horiz-adv-x="731" d="M0 0l211 1569h307l213 -1569h-209l-41 348h-231l-41 -348h-209zM276 557h179l-82 690q0 29 -2 56.5t-6 56.5q-6 -55 -7 -113zM135 1647l113 289h225l121 -289h-149l-80 168l-74 -168h-156z" />
<glyph unicode="&#xc3;" horiz-adv-x="731" d="M0 0l211 1569h307l213 -1569h-209l-41 348h-231l-41 -348h-209zM276 557h179l-82 690q0 29 -2 56.5t-6 56.5q-6 -55 -7 -113zM133 1786q2 10 7.5 32t18.5 43.5t37.5 37.5t63.5 16q33 0 55.5 -5t43.5 -10l41 -10q20 -5 51 -5q41 0 54 14t13 16l78 -43q0 -31 -11 -61.5 t-29.5 -55t-42 -39t-50.5 -14.5q-33 0 -53.5 5.5t-38.5 12.5t-38.5 12t-51.5 5q-66 0 -74 -33z" />
<glyph unicode="&#xc4;" horiz-adv-x="731" d="M0 0l211 1569h307l213 -1569h-209l-41 348h-231l-41 -348h-209zM276 557h179l-82 690q0 29 -2 56.5t-6 56.5q-6 -55 -7 -113zM72 1790q0 63 42 96t97 33q66 0 97.5 -38.5t31.5 -98.5q0 -59 -43 -90t-96 -31q-25 0 -48.5 11.5t-42 30t-28.5 40.5t-10 47zM391 1790 q0 63 42 96t97 33q66 0 97.5 -38.5t31.5 -98.5q0 -59 -43 -90t-96 -31q-25 0 -48 11.5t-41.5 30t-29 40.5t-10.5 47z" />
<glyph unicode="&#xc5;" horiz-adv-x="731" d="M0 0l211 1569h307l213 -1569h-209l-41 348h-231l-41 -348h-209zM276 557h179l-82 690q0 29 -2 56.5t-6 56.5q-6 -55 -7 -113zM152 1809q0 35 12.5 72.5t38 68.5t67.5 51.5t99 20.5t97 -20.5t65.5 -53.5t37 -69.5t11.5 -71.5t-12.5 -73t-38 -69.5t-66.5 -52t-98 -20.5 q-106 0 -159.5 65.5t-53.5 151.5zM293 1807q0 -37 23.5 -55.5t52.5 -18.5t51.5 22.5t20.5 53.5q0 29 -22.5 51.5t-53.5 22.5q-31 -2 -51.5 -24.5t-20.5 -51.5z" />
<glyph unicode="&#xc6;" horiz-adv-x="1056" d="M0 0l406 1569h620v-209h-291v-465h277v-209h-277v-477h291v-209h-506l6 348h-231l-88 -348h-207zM344 557h182v717z" />
<glyph unicode="&#xc7;" horiz-adv-x="780" d="M72 301v967q0 86 25.5 148.5t70.5 102.5t103.5 58t123.5 18q66 0 124.5 -18t103.5 -57t70.5 -101.5t25.5 -150.5v-246h-209v219q0 86 -36 121t-79 35t-78.5 -35t-35.5 -121v-913q0 -86 35.5 -121t78.5 -35t79 35t36 121v196h209v-223q0 -147 -68.5 -223t-173.5 -96 l-106 -187h-138l74 189q-100 20 -167.5 96t-67.5 221z" />
<glyph unicode="&#xc8;" horiz-adv-x="612" d="M82 0v1569h500v-209h-291v-465h276v-209h-276v-477h291v-209h-500zM125 1932h227l94 -207h-192z" />
<glyph unicode="&#xc9;" horiz-adv-x="612" d="M82 0v1569h500v-209h-291v-465h276v-209h-276v-477h291v-209h-500zM213 1725l90 207h227l-127 -207h-190z" />
<glyph unicode="&#xca;" horiz-adv-x="612" d="M82 0v1569h500v-209h-291v-465h276v-209h-276v-477h291v-209h-500zM106 1647l113 289h225l121 -289h-149l-80 168l-74 -168h-156z" />
<glyph unicode="&#xcb;" horiz-adv-x="612" d="M82 0v1569h500v-209h-291v-465h276v-209h-276v-477h291v-209h-500zM15 1790q0 63 42 96t97 33q66 0 97.5 -38.5t31.5 -98.5q0 -59 -43 -90t-96 -31q-25 0 -48.5 11.5t-42 30t-28.5 40.5t-10 47zM334 1790q0 63 42 96t97 33q66 0 97.5 -38.5t31.5 -98.5q0 -59 -43 -90 t-96 -31q-25 0 -48 11.5t-41.5 30t-29 40.5t-10.5 47z" />
<glyph unicode="&#xcc;" horiz-adv-x="372" d="M82 0v1569h209v-1569h-209zM-34 1932h227l94 -207h-192z" />
<glyph unicode="&#xcd;" horiz-adv-x="372" d="M82 0v1569h209v-1569h-209zM88 1725l90 207h227l-127 -207h-190z" />
<glyph unicode="&#xce;" horiz-adv-x="372" d="M82 0v1569h209v-1569h-209zM-41 1647l113 289h225l121 -289h-149l-80 168l-74 -168h-156z" />
<glyph unicode="&#xcf;" horiz-adv-x="372" d="M82 0v1569h209v-1569h-209zM-104 1790q0 63 42 96t97 33q66 0 97.5 -38.5t31.5 -98.5q0 -59 -43 -90t-96 -31q-25 0 -48.5 11.5t-42 30t-28.5 40.5t-10 47zM215 1790q0 63 42 96t97 33q66 0 97.5 -38.5t31.5 -98.5q0 -59 -43 -90t-96 -31q-25 0 -48 11.5t-41.5 30 t-29 40.5t-10.5 47z" />
<glyph unicode="&#xd0;" horiz-adv-x="796" d="M0 696v197h88v676h358q59 0 110.5 -18.5t88.5 -57.5t58.5 -101.5t21.5 -150.5v-913q0 -88 -21.5 -150.5t-58.5 -101.5t-88 -57.5t-111 -18.5h-358v696h-88zM297 199h104q59 0 87 34.5t28 120.5v860q0 86 -27.5 121t-87.5 35h-104v-477h111v-197h-111v-497z" />
<glyph unicode="&#xd1;" horiz-adv-x="917" d="M82 0v1569h264l264 -1077l41 -115l-24 115v1077h209v-1569h-275l-252 1028l-33 109l15 -113v-1024h-209zM227 1786q2 10 7.5 32t18.5 43.5t37.5 37.5t63.5 16q33 0 55.5 -5t43.5 -10l41 -10q20 -5 51 -5q41 0 54 14t13 16l78 -43q0 -31 -11 -61.5t-29.5 -55t-42 -39 t-50.5 -14.5q-33 0 -53.5 5.5t-38.5 12.5t-38.5 12t-51.5 5q-66 0 -74 -33z" />
<glyph unicode="&#xd2;" d="M72 301v967q0 86 25.5 148.5t70.5 102.5t103.5 58t123.5 18q156 0 240 -75.5t84 -251.5v-967q0 -88 -25.5 -150.5t-70.5 -101.5t-103.5 -57.5t-124.5 -18.5t-124 18.5t-103 58.5t-70.5 102.5t-25.5 148.5zM281 328q0 -86 35.5 -121t78.5 -35t79 35t36 121v913 q0 86 -36 121t-79 35t-78.5 -35t-35.5 -121v-913zM193 1932h227l94 -207h-192z" />
<glyph unicode="&#xd3;" d="M72 301v967q0 86 25.5 148.5t70.5 102.5t103.5 58t123.5 18q156 0 240 -75.5t84 -251.5v-967q0 -88 -25.5 -150.5t-70.5 -101.5t-103.5 -57.5t-124.5 -18.5t-124 18.5t-103 58.5t-70.5 102.5t-25.5 148.5zM281 328q0 -86 35.5 -121t78.5 -35t79 35t36 121v913 q0 86 -36 121t-79 35t-78.5 -35t-35.5 -121v-913zM297 1725l90 207h227l-127 -207h-190z" />
<glyph unicode="&#xd4;" d="M72 301v967q0 86 25.5 148.5t70.5 102.5t103.5 58t123.5 18q156 0 240 -75.5t84 -251.5v-967q0 -88 -25.5 -150.5t-70.5 -101.5t-103.5 -57.5t-124.5 -18.5t-124 18.5t-103 58.5t-70.5 102.5t-25.5 148.5zM281 328q0 -86 35.5 -121t78.5 -35t79 35t36 121v913 q0 86 -36 121t-79 35t-78.5 -35t-35.5 -121v-913zM165 1647l113 289h225l121 -289h-149l-80 168l-74 -168h-156z" />
<glyph unicode="&#xd5;" d="M72 301v967q0 86 25.5 148.5t70.5 102.5t103.5 58t123.5 18q156 0 240 -75.5t84 -251.5v-967q0 -88 -25.5 -150.5t-70.5 -101.5t-103.5 -57.5t-124.5 -18.5t-124 18.5t-103 58.5t-70.5 102.5t-25.5 148.5zM281 328q0 -86 35.5 -121t78.5 -35t79 35t36 121v913 q0 86 -36 121t-79 35t-78.5 -35t-35.5 -121v-913zM163 1786q2 10 7.5 32t18.5 43.5t37.5 37.5t63.5 16q33 0 55.5 -5t43.5 -10l41 -10q20 -5 51 -5q41 0 54 14t13 16l78 -43q0 -31 -11 -61.5t-29.5 -55t-42 -39t-50.5 -14.5q-33 0 -53.5 5.5t-38.5 12.5t-38.5 12t-51.5 5 q-66 0 -74 -33z" />
<glyph unicode="&#xd6;" d="M72 301v967q0 86 25.5 148.5t70.5 102.5t103.5 58t123.5 18q156 0 240 -75.5t84 -251.5v-967q0 -88 -25.5 -150.5t-70.5 -101.5t-103.5 -57.5t-124.5 -18.5t-124 18.5t-103 58.5t-70.5 102.5t-25.5 148.5zM281 328q0 -86 35.5 -121t78.5 -35t79 35t36 121v913 q0 86 -36 121t-79 35t-78.5 -35t-35.5 -121v-913zM101 1790q0 63 42 96t97 33q66 0 97.5 -38.5t31.5 -98.5q0 -59 -43 -90t-96 -31q-25 0 -48.5 11.5t-42 30t-28.5 40.5t-10 47zM420 1790q0 63 42 96t97 33q66 0 97.5 -38.5t31.5 -98.5q0 -59 -43 -90t-96 -31 q-25 0 -48 11.5t-41.5 30t-29 40.5t-10.5 47z" />
<glyph unicode="&#xd7;" horiz-adv-x="618" d="M45 641l121 121l-121 121l139 139l121 -121l121 121l139 -139l-121 -121l121 -121l-139 -139l-121 121l-121 -121z" />
<glyph unicode="&#xd8;" d="M72 301v967q0 86 25.5 148.5t70.5 102.5t103.5 58t123.5 18q72 0 123 -14l21 94h75l-26 -123q63 -35 97 -104.5t34 -179.5v-967q0 -88 -25.5 -150.5t-70.5 -101.5t-103.5 -57.5t-124.5 -18.5q-74 0 -139 25l-23 -107h-75l30 144q-53 39 -84.5 103.5t-31.5 162.5zM281 467 l190 897q-31 33 -76 33q-43 0 -78.5 -35t-35.5 -121v-774zM303 223q16 -29 41 -40t51 -11q43 0 79 35t36 121v858z" />
<glyph unicode="&#xd9;" horiz-adv-x="798" d="M76 301v1268h209v-1274q0 -86 35.5 -121t78.5 -35t79 35t36 121v1274h209v-1268q0 -88 -25.5 -150.5t-70.5 -101.5t-103.5 -57.5t-124.5 -18.5t-124 18.5t-103 58.5t-70.5 102.5t-25.5 148.5zM197 1932h227l94 -207h-192z" />
<glyph unicode="&#xda;" horiz-adv-x="798" d="M76 301v1268h209v-1274q0 -86 35.5 -121t78.5 -35t79 35t36 121v1274h209v-1268q0 -88 -25.5 -150.5t-70.5 -101.5t-103.5 -57.5t-124.5 -18.5t-124 18.5t-103 58.5t-70.5 102.5t-25.5 148.5zM301 1725l90 207h227l-127 -207h-190z" />
<glyph unicode="&#xdb;" horiz-adv-x="798" d="M76 301v1268h209v-1274q0 -86 35.5 -121t78.5 -35t79 35t36 121v1274h209v-1268q0 -88 -25.5 -150.5t-70.5 -101.5t-103.5 -57.5t-124.5 -18.5t-124 18.5t-103 58.5t-70.5 102.5t-25.5 148.5zM170 1647l113 289h225l121 -289h-149l-80 168l-74 -168h-156z" />
<glyph unicode="&#xdc;" horiz-adv-x="798" d="M76 301v1268h209v-1274q0 -86 35.5 -121t78.5 -35t79 35t36 121v1274h209v-1268q0 -88 -25.5 -150.5t-70.5 -101.5t-103.5 -57.5t-124.5 -18.5t-124 18.5t-103 58.5t-70.5 102.5t-25.5 148.5zM105 1790q0 63 42 96t97 33q66 0 97.5 -38.5t31.5 -98.5q0 -59 -43 -90 t-96 -31q-25 0 -48.5 11.5t-42 30t-28.5 40.5t-10 47zM424 1790q0 63 42 96t97 33q66 0 97.5 -38.5t31.5 -98.5q0 -59 -43 -90t-96 -31q-25 0 -48 11.5t-41.5 30t-29 40.5t-10.5 47z" />
<glyph unicode="&#xdd;" horiz-adv-x="733" d="M0 1571h211l145 -682l166 684h211l-260 -1026v-547h-246v545zM268 1725l90 207h227l-127 -207h-190z" />
<glyph unicode="&#xde;" horiz-adv-x="759" d="M82 0v1569h209v-342h149q68 0 119 -15.5t87 -52.5t54.5 -100.5t18.5 -159.5v-242q0 -96 -18.5 -159.5t-54.5 -100.5t-87 -52t-119 -15h-149v-330h-209zM291 522h104q59 0 87 35t28 121v201q0 86 -27.5 120.5t-87.5 34.5h-104v-512z" />
<glyph unicode="&#xdf;" horiz-adv-x="808" d="M0 965v192h113v133q0 168 81.5 237.5t235.5 69.5q145 0 226 -61t81 -213q0 -96 -28.5 -162.5t-106.5 -89.5q90 -33 115.5 -104.5t25.5 -173.5v-512q0 -86 -17 -144.5t-49 -94.5t-74 -52.5t-91 -16.5h-86v148h4q23 0 43.5 5t35.5 19.5t25.5 41t10.5 69.5v580 q0 35 -13.5 58.5t-34 38.5t-45 24.5t-46.5 11.5v184q23 4 47 11t44.5 22.5t34 40t13.5 59.5v29q0 43 -10.5 69.5t-25.5 41t-35.5 19.5t-43.5 5q-20 0 -40.5 -6t-37 -25.5t-26 -57.5t-9.5 -101v-1260h-204v965h-113z" />
<glyph unicode="&#xe0;" horiz-adv-x="684" d="M61 293v80q0 170 54.5 251t165.5 81h133v114q0 86 -15.5 121t-58.5 35t-58.5 -35t-15.5 -121v-28h-205v71q0 170 68 238.5t211 68.5t210.5 -69.5t67.5 -237.5v-862h-178l-26 94q-6 -14 -17.5 -33.5t-28 -36t-37 -27.5t-46.5 -11q-72 0 -116 16t-67.5 52t-32 94.5 t-8.5 144.5zM266 336q0 -86 15.5 -121t58.5 -35t58.5 35t15.5 121v211h-74q-43 0 -58.5 -45t-15.5 -131v-35zM146 1522h227l94 -207h-192z" />
<glyph unicode="&#xe1;" horiz-adv-x="684" d="M61 293v80q0 170 54.5 251t165.5 81h133v114q0 86 -15.5 121t-58.5 35t-58.5 -35t-15.5 -121v-28h-205v71q0 170 68 238.5t211 68.5t210.5 -69.5t67.5 -237.5v-862h-178l-26 94q-6 -14 -17.5 -33.5t-28 -36t-37 -27.5t-46.5 -11q-72 0 -116 16t-67.5 52t-32 94.5 t-8.5 144.5zM266 336q0 -86 15.5 -121t58.5 -35t58.5 35t15.5 121v211h-74q-43 0 -58.5 -45t-15.5 -131v-35zM242 1315l90 207h227l-127 -207h-190z" />
<glyph unicode="&#xe2;" horiz-adv-x="684" d="M61 293v80q0 170 54.5 251t165.5 81h133v114q0 86 -15.5 121t-58.5 35t-58.5 -35t-15.5 -121v-28h-205v71q0 170 68 238.5t211 68.5t210.5 -69.5t67.5 -237.5v-862h-178l-26 94q-6 -14 -17.5 -33.5t-28 -36t-37 -27.5t-46.5 -11q-72 0 -116 16t-67.5 52t-32 94.5 t-8.5 144.5zM266 336q0 -86 15.5 -121t58.5 -35t58.5 35t15.5 121v211h-74q-43 0 -58.5 -45t-15.5 -131v-35zM112 1237l113 289h225l121 -289h-149l-80 168l-74 -168h-156z" />
<glyph unicode="&#xe3;" horiz-adv-x="684" d="M61 293v80q0 170 54.5 251t165.5 81h133v114q0 86 -15.5 121t-58.5 35t-58.5 -35t-15.5 -121v-28h-205v71q0 170 68 238.5t211 68.5t210.5 -69.5t67.5 -237.5v-862h-178l-26 94q-6 -14 -17.5 -33.5t-28 -36t-37 -27.5t-46.5 -11q-72 0 -116 16t-67.5 52t-32 94.5 t-8.5 144.5zM266 336q0 -86 15.5 -121t58.5 -35t58.5 35t15.5 121v211h-74q-43 0 -58.5 -45t-15.5 -131v-35zM110 1376q2 10 7.5 32t18.5 43.5t37.5 37.5t63.5 16q33 0 55.5 -5t43.5 -10l41 -10q20 -5 51 -5q41 0 54 14t13 16l78 -43q0 -31 -11 -61.5t-29.5 -55t-42 -39 t-50.5 -14.5q-33 0 -53.5 5.5t-38.5 12.5t-38.5 12t-51.5 5q-66 0 -74 -33z" />
<glyph unicode="&#xe4;" horiz-adv-x="684" d="M61 293v80q0 170 54.5 251t165.5 81h133v114q0 86 -15.5 121t-58.5 35t-58.5 -35t-15.5 -121v-28h-205v71q0 170 68 238.5t211 68.5t210.5 -69.5t67.5 -237.5v-862h-178l-26 94q-6 -14 -17.5 -33.5t-28 -36t-37 -27.5t-46.5 -11q-72 0 -116 16t-67.5 52t-32 94.5 t-8.5 144.5zM266 336q0 -86 15.5 -121t58.5 -35t58.5 35t15.5 121v211h-74q-43 0 -58.5 -45t-15.5 -131v-35zM47 1380q0 63 42 96t97 33q66 0 97.5 -38.5t31.5 -98.5q0 -59 -43 -90t-96 -31q-25 0 -48.5 11.5t-42 30t-28.5 40.5t-10 47zM366 1380q0 63 42 96t97 33 q66 0 97.5 -38.5t31.5 -98.5q0 -59 -43 -90t-96 -31q-25 0 -48 11.5t-41.5 30t-29 40.5t-10.5 47z" />
<glyph unicode="&#xe5;" horiz-adv-x="684" d="M61 293v80q0 170 54.5 251t165.5 81h133v114q0 86 -15.5 121t-58.5 35t-58.5 -35t-15.5 -121v-28h-205v71q0 170 68 238.5t211 68.5t210.5 -69.5t67.5 -237.5v-862h-178l-26 94q-6 -14 -17.5 -33.5t-28 -36t-37 -27.5t-46.5 -11q-72 0 -116 16t-67.5 52t-32 94.5 t-8.5 144.5zM266 336q0 -86 15.5 -121t58.5 -35t58.5 35t15.5 121v211h-74q-43 0 -58.5 -45t-15.5 -131v-35zM127 1399q0 35 12.5 72.5t38 68.5t67.5 51.5t99 20.5t97 -20.5t65.5 -53.5t37 -69.5t11.5 -71.5t-12.5 -73t-38 -69.5t-66.5 -52t-98 -20.5q-106 0 -159.5 65.5 t-53.5 151.5zM268 1397q0 -37 23.5 -55.5t52.5 -18.5t51.5 22.5t20.5 53.5q0 29 -22.5 51.5t-53.5 22.5q-31 -2 -51.5 -24.5t-20.5 -51.5z" />
<glyph unicode="&#xe6;" horiz-adv-x="1021" d="M61 293v80q0 170 54.5 251t165.5 81h133v114q0 86 -15.5 121t-58.5 35t-58.5 -35t-15.5 -121v-28h-205v71q0 170 68 238.5t211 68.5q113 0 176 -41q61 41 176 41q143 0 211 -68.5t68 -238.5v-368h-353v-187q0 -72 16.5 -101.5t57.5 -29.5q43 0 58.5 35t15.5 121v51h205 v-94q0 -170 -67.5 -238.5t-211.5 -68.5q-104 0 -168.5 35.5t-91.5 119.5l-18 -43q-6 -14 -17.5 -33.5t-28 -36t-37 -27.5t-46.5 -11q-72 0 -116 16t-67.5 52t-32 94.5t-8.5 144.5zM266 336q0 -86 15.5 -121t58.5 -35t58.5 35t15.5 121v211h-74q-43 0 -58.5 -45t-15.5 -131 v-35zM618 686h148v133q0 86 -15.5 121t-58.5 35q-41 0 -57.5 -30t-16.5 -101v-158z" />
<glyph unicode="&#xe7;" horiz-adv-x="669" d="M61 289v590q0 168 68 237.5t211 69.5t210.5 -68.5t67.5 -238.5v-144h-204v101q0 86 -15.5 120.5t-58.5 34.5t-58.5 -34.5t-15.5 -120.5v-504q0 -86 15.5 -121t58.5 -35t58.5 35t15.5 121v123h204v-166q0 -139 -44 -209t-138 -88l-104 -182h-137l69 178q-104 16 -153.5 86 t-49.5 215z" />
<glyph unicode="&#xe8;" horiz-adv-x="669" d="M61 289v573q0 168 68 237.5t211 69.5t210.5 -68.5t67.5 -238.5v-368h-352v-162q0 -86 15.5 -121t58.5 -35t58.5 35t15.5 121v51h204v-94q0 -170 -67.5 -238.5t-210.5 -68.5t-211 69.5t-68 237.5zM266 686h148v133q0 86 -15.5 121t-58.5 35t-58.5 -35t-15.5 -121v-133z M134 1522h227l94 -207h-192z" />
<glyph unicode="&#xe9;" horiz-adv-x="669" d="M61 289v573q0 168 68 237.5t211 69.5t210.5 -68.5t67.5 -238.5v-368h-352v-162q0 -86 15.5 -121t58.5 -35t58.5 35t15.5 121v51h204v-94q0 -170 -67.5 -238.5t-210.5 -68.5t-211 69.5t-68 237.5zM266 686h148v133q0 86 -15.5 121t-58.5 35t-58.5 -35t-15.5 -121v-133z M231 1315l90 207h227l-127 -207h-190z" />
<glyph unicode="&#xea;" horiz-adv-x="669" d="M61 289v573q0 168 68 237.5t211 69.5t210.5 -68.5t67.5 -238.5v-368h-352v-162q0 -86 15.5 -121t58.5 -35t58.5 35t15.5 121v51h204v-94q0 -170 -67.5 -238.5t-210.5 -68.5t-211 69.5t-68 237.5zM266 686h148v133q0 86 -15.5 121t-58.5 35t-58.5 -35t-15.5 -121v-133z M104 1237l113 289h225l121 -289h-149l-80 168l-74 -168h-156z" />
<glyph unicode="&#xeb;" horiz-adv-x="669" d="M61 289v573q0 168 68 237.5t211 69.5t210.5 -68.5t67.5 -238.5v-368h-352v-162q0 -86 15.5 -121t58.5 -35t58.5 35t15.5 121v51h204v-94q0 -170 -67.5 -238.5t-210.5 -68.5t-211 69.5t-68 237.5zM266 686h148v133q0 86 -15.5 121t-58.5 35t-58.5 -35t-15.5 -121v-133z M41 1380q0 63 42 96t97 33q66 0 97.5 -38.5t31.5 -98.5q0 -59 -43 -90t-96 -31q-25 0 -48.5 11.5t-42 30t-28.5 40.5t-10 47zM360 1380q0 63 42 96t97 33q66 0 97.5 -38.5t31.5 -98.5q0 -59 -43 -90t-96 -31q-25 0 -48 11.5t-41.5 30t-29 40.5t-10.5 47z" />
<glyph unicode="&#xec;" horiz-adv-x="350" d="M74 0v1161h205v-1161h-205zM-45 1522h227l94 -207h-192z" />
<glyph unicode="&#xed;" horiz-adv-x="350" d="M74 0v1161h205v-1161h-205zM78 1315l90 207h227l-127 -207h-190z" />
<glyph unicode="&#xee;" horiz-adv-x="350" d="M74 0v1161h205v-1161h-205zM-52 1237l113 289h225l121 -289h-149l-80 168l-74 -168h-156z" />
<glyph unicode="&#xef;" horiz-adv-x="350" d="M74 0v1161h205v-1161h-205zM-116 1380q0 63 42 96t97 33q66 0 97.5 -38.5t31.5 -98.5q0 -59 -43 -90t-96 -31q-25 0 -48.5 11.5t-42 30t-28.5 40.5t-10 47zM203 1380q0 63 42 96t97 33q66 0 97.5 -38.5t31.5 -98.5q0 -59 -43 -90t-96 -31q-25 0 -48 11.5t-41.5 30 t-29 40.5t-10.5 47z" />
<glyph unicode="&#xf0;" horiz-adv-x="690" d="M61 289v573q0 168 54.5 237.5t183.5 69.5q53 0 75.5 -3t39.5 -7v86h-80v131h78q-4 35 -20.5 45.5t-51.5 10.5h-143v143q41 2 68.5 4t53 3t54 2t69.5 1q68 0 113 -48t57 -161h70v-131l-64 -4v-952q0 -170 -67.5 -238.5t-210.5 -68.5q-86 0 -140.5 16t-85 53t-42 95.5 t-11.5 142.5zM266 332q0 -86 15.5 -121t58.5 -35t58.5 35t15.5 121v512q0 72 -16.5 101.5t-57.5 29.5q-43 0 -58.5 -35t-15.5 -121v-487z" />
<glyph unicode="&#xf1;" horiz-adv-x="694" d="M72 0v1161h178l26 -94q6 16 18.5 34.5t32 35t49.5 28t70 11.5q55 0 91 -16.5t56.5 -52.5t28 -94.5t7.5 -144.5v-868h-205v825q0 86 -15.5 121t-58.5 35t-58.5 -35t-15.5 -121v-825h-204zM114 1376q2 10 7.5 32t18.5 43.5t37.5 37.5t63.5 16q33 0 55.5 -5t43.5 -10l41 -10 q20 -5 51 -5q41 0 54 14t13 16l78 -43q0 -31 -11 -61.5t-29.5 -55t-42 -39t-50.5 -14.5q-33 0 -53.5 5.5t-38.5 12.5t-38.5 12t-51.5 5q-66 0 -74 -33z" />
<glyph unicode="&#xf2;" horiz-adv-x="679" d="M61 289v573q0 168 68 237.5t211 69.5t210.5 -68.5t67.5 -238.5v-573q0 -170 -67.5 -238.5t-210.5 -68.5t-211 69.5t-68 237.5zM266 332q0 -86 15.5 -121t58.5 -35t58.5 35t15.5 121v487q0 86 -15.5 121t-58.5 35t-58.5 -35t-15.5 -121v-487zM138 1522h227l94 -207h-192z " />
<glyph unicode="&#xf3;" horiz-adv-x="679" d="M61 289v573q0 168 68 237.5t211 69.5t210.5 -68.5t67.5 -238.5v-573q0 -170 -67.5 -238.5t-210.5 -68.5t-211 69.5t-68 237.5zM266 332q0 -86 15.5 -121t58.5 -35t58.5 35t15.5 121v487q0 86 -15.5 121t-58.5 35t-58.5 -35t-15.5 -121v-487zM238 1315l90 207h227 l-127 -207h-190z" />
<glyph unicode="&#xf4;" horiz-adv-x="679" d="M61 289v573q0 168 68 237.5t211 69.5t210.5 -68.5t67.5 -238.5v-573q0 -170 -67.5 -238.5t-210.5 -68.5t-211 69.5t-68 237.5zM266 332q0 -86 15.5 -121t58.5 -35t58.5 35t15.5 121v487q0 86 -15.5 121t-58.5 35t-58.5 -35t-15.5 -121v-487zM110 1237l113 289h225 l121 -289h-149l-80 168l-74 -168h-156z" />
<glyph unicode="&#xf5;" horiz-adv-x="679" d="M61 289v573q0 168 68 237.5t211 69.5t210.5 -68.5t67.5 -238.5v-573q0 -170 -67.5 -238.5t-210.5 -68.5t-211 69.5t-68 237.5zM266 332q0 -86 15.5 -121t58.5 -35t58.5 35t15.5 121v487q0 86 -15.5 121t-58.5 35t-58.5 -35t-15.5 -121v-487zM108 1376q2 10 7.5 32 t18.5 43.5t37.5 37.5t63.5 16q33 0 55.5 -5t43.5 -10l41 -10q20 -5 51 -5q41 0 54 14t13 16l78 -43q0 -31 -11 -61.5t-29.5 -55t-42 -39t-50.5 -14.5q-33 0 -53.5 5.5t-38.5 12.5t-38.5 12t-51.5 5q-66 0 -74 -33z" />
<glyph unicode="&#xf6;" horiz-adv-x="679" d="M61 289v573q0 168 68 237.5t211 69.5t210.5 -68.5t67.5 -238.5v-573q0 -170 -67.5 -238.5t-210.5 -68.5t-211 69.5t-68 237.5zM266 332q0 -86 15.5 -121t58.5 -35t58.5 35t15.5 121v487q0 86 -15.5 121t-58.5 35t-58.5 -35t-15.5 -121v-487zM45 1380q0 63 42 96t97 33 q66 0 97.5 -38.5t31.5 -98.5q0 -59 -43 -90t-96 -31q-25 0 -48.5 11.5t-42 30t-28.5 40.5t-10 47zM364 1380q0 63 42 96t97 33q66 0 97.5 -38.5t31.5 -98.5q0 -59 -43 -90t-96 -31q-25 0 -48 11.5t-41.5 30t-29 40.5t-10.5 47z" />
<glyph unicode="&#xf7;" horiz-adv-x="638" d="M53 664v196h537v-196h-537zM188 426q0 63 42 96t98 33q66 0 97.5 -39t31.5 -98t-43 -90t-97 -31q-25 0 -48 11t-41.5 29.5t-29 41t-10.5 47.5zM188 1094q0 63 42 96t98 33q66 0 97.5 -39t31.5 -99q0 -59 -43 -89.5t-97 -30.5q-25 0 -48 11t-41.5 29.5t-29 41t-10.5 47.5z " />
<glyph unicode="&#xf8;" horiz-adv-x="679" d="M61 289v573q0 168 68 237.5t211 69.5q53 0 88 -8l21 94h75l-24 -116q59 -31 88.5 -97.5t29.5 -179.5v-573q0 -170 -67.5 -238.5t-210.5 -68.5q-53 0 -86 8l-21 -99h-75l24 119q-61 31 -91 98.5t-30 180.5zM266 399l119 559q-16 16 -45 17q-43 0 -58.5 -35t-15.5 -121 v-420zM297 188q16 -12 43 -12q43 0 58.5 35t15.5 121v403z" />
<glyph unicode="&#xf9;" horiz-adv-x="694" d="M66 293v868h204v-825q0 -86 15.5 -121t58.5 -35t58.5 35t15.5 121v825h205v-1161h-179l-26 94q-6 -14 -17.5 -33.5t-28 -36t-37 -27.5t-46.5 -11q-72 0 -116 16t-67.5 52t-31.5 94.5t-8 144.5zM146 1522h227l94 -207h-192z" />
<glyph unicode="&#xfa;" horiz-adv-x="694" d="M66 293v868h204v-825q0 -86 15.5 -121t58.5 -35t58.5 35t15.5 121v825h205v-1161h-179l-26 94q-6 -14 -17.5 -33.5t-28 -36t-37 -27.5t-46.5 -11q-72 0 -116 16t-67.5 52t-31.5 94.5t-8 144.5zM250 1315l90 207h227l-127 -207h-190z" />
<glyph unicode="&#xfb;" horiz-adv-x="694" d="M66 293v868h204v-825q0 -86 15.5 -121t58.5 -35t58.5 35t15.5 121v825h205v-1161h-179l-26 94q-6 -14 -17.5 -33.5t-28 -36t-37 -27.5t-46.5 -11q-72 0 -116 16t-67.5 52t-31.5 94.5t-8 144.5zM116 1237l113 289h225l121 -289h-149l-80 168l-74 -168h-156z" />
<glyph unicode="&#xfc;" horiz-adv-x="694" d="M66 293v868h204v-825q0 -86 15.5 -121t58.5 -35t58.5 35t15.5 121v825h205v-1161h-179l-26 94q-6 -14 -17.5 -33.5t-28 -36t-37 -27.5t-46.5 -11q-72 0 -116 16t-67.5 52t-31.5 94.5t-8 144.5zM54 1380q0 63 42 96t97 33q66 0 97.5 -38.5t31.5 -98.5q0 -59 -43 -90 t-96 -31q-25 0 -48.5 11.5t-42 30t-28.5 40.5t-10 47zM373 1380q0 63 42 96t97 33q66 0 97.5 -38.5t31.5 -98.5q0 -59 -43 -90t-96 -31q-25 0 -48 11.5t-41.5 30t-29 40.5t-10.5 47z" />
<glyph unicode="&#xfd;" horiz-adv-x="632" d="M0 1161h213l98 -844q0 -27 1 -53t3 -51l4 12q2 23 3.5 46.5t1.5 45.5l96 844h213l-238 -1571h-260l64 299zM219 1315l90 207h227l-127 -207h-190z" />
<glyph unicode="&#xfe;" horiz-adv-x="700" d="M82 -408v1977h205v-500q6 16 17 34.5t27.5 35t37 28t47.5 11.5q72 0 115.5 -16.5t67.5 -52.5t32 -94.5t8 -144.5v-573q0 -86 -5 -145.5t-24.5 -96.5t-60.5 -54t-113 -17q-37 0 -84 29.5t-65 70.5v-492h-205zM287 315q0 -70 16 -100.5t57 -30.5q43 0 58.5 35t15.5 121v487 q0 86 -15.5 121t-58.5 35t-58 -35t-15 -121v-512z" />
<glyph unicode="&#xff;" horiz-adv-x="632" d="M0 1161h213l98 -844q0 -27 1 -53t3 -51l4 12q2 23 3.5 46.5t1.5 45.5l96 844h213l-238 -1571h-260l64 299zM25 1380q0 63 42 96t97 33q66 0 97.5 -38.5t31.5 -98.5q0 -59 -43 -90t-96 -31q-25 0 -48.5 11.5t-42 30t-28.5 40.5t-10 47zM344 1380q0 63 42 96t97 33 q66 0 97.5 -38.5t31.5 -98.5q0 -59 -43 -90t-96 -31q-25 0 -48 11.5t-41.5 30t-29 40.5t-10.5 47z" />
<glyph unicode="&#x131;" horiz-adv-x="350" d="M74 0v1161h205v-1161h-205z" />
<glyph unicode="&#x152;" horiz-adv-x="1040" d="M72 301v967q0 86 25.5 148.5t70.5 102.5t103.5 58t123.5 18q96 0 162 -26h453v-209h-291v-465h276v-209h-276v-477h291v-209h-467q-66 -27 -148 -27q-66 0 -124 18.5t-103 58.5t-70.5 102.5t-25.5 148.5zM281 328q0 -86 35.5 -121t78.5 -35q41 0 78 32t37 107v946 q0 39 -10.5 66t-26.5 43t-36.5 23.5t-41.5 7.5q-43 0 -78.5 -35t-35.5 -121v-913z" />
<glyph unicode="&#x153;" horiz-adv-x="1021" d="M61 289v573q0 168 68 237.5t211 69.5q115 0 176 -41q63 41 176 41q143 0 211 -68.5t68 -238.5v-368h-353v-162q0 -86 15.5 -121t58.5 -35t58.5 35t15.5 121v51h205v-94q0 -170 -67.5 -238.5t-211.5 -68.5q-111 0 -176 38q-63 -39 -176 -38q-143 0 -211 69.5t-68 237.5z M266 332q0 -86 15.5 -121t58.5 -35t58.5 35t15.5 121v487q0 86 -15.5 121t-58.5 35t-58.5 -35t-15.5 -121v-487zM618 686h148v133q0 86 -15.5 121t-58.5 35q-41 0 -57.5 -30t-16.5 -101v-158z" />
<glyph unicode="&#x178;" horiz-adv-x="733" d="M0 1571h211l145 -682l166 684h211l-260 -1026v-547h-246v545zM72 1790q0 63 42 96t97 33q66 0 97.5 -38.5t31.5 -98.5q0 -59 -43 -90t-96 -31q-25 0 -48.5 11.5t-42 30t-28.5 40.5t-10 47zM391 1790q0 63 42 96t97 33q66 0 97.5 -38.5t31.5 -98.5q0 -59 -43 -90t-96 -31 q-25 0 -48 11.5t-41.5 30t-29 40.5t-10.5 47z" />
<glyph unicode="&#x2c6;" horiz-adv-x="415" d="M-25 1237l113 289h225l121 -289h-149l-80 168l-74 -168h-156z" />
<glyph unicode="&#x2da;" horiz-adv-x="339" d="M-43 1399q0 35 12.5 72.5t38 68.5t67.5 51.5t99 20.5t97 -20.5t65.5 -53.5t37 -69.5t11.5 -71.5t-12.5 -73t-38 -69.5t-66.5 -52t-98 -20.5q-106 0 -159.5 65.5t-53.5 151.5zM98 1397q0 -37 23.5 -55.5t52.5 -18.5t51.5 22.5t20.5 53.5q0 29 -22.5 51.5t-53.5 22.5 q-31 -2 -51.5 -24.5t-20.5 -51.5z" />
<glyph unicode="&#x2dc;" horiz-adv-x="415" d="M-25 1376q2 10 7.5 32t18.5 43.5t37.5 37.5t63.5 16q33 0 55.5 -5t43.5 -10l41 -10q20 -5 51 -5q41 0 54 14t13 16l78 -43q0 -31 -11 -61.5t-29.5 -55t-42 -39t-50.5 -14.5q-33 0 -53.5 5.5t-38.5 12.5t-38.5 12t-51.5 5q-66 0 -74 -33z" />
<glyph unicode="&#x2000;" horiz-adv-x="1009" />
<glyph unicode="&#x2001;" horiz-adv-x="2021" />
<glyph unicode="&#x2002;" horiz-adv-x="1009" />
<glyph unicode="&#x2003;" horiz-adv-x="2021" />
<glyph unicode="&#x2004;" horiz-adv-x="673" />
<glyph unicode="&#x2005;" horiz-adv-x="503" />
<glyph unicode="&#x2006;" horiz-adv-x="335" />
<glyph unicode="&#x2007;" horiz-adv-x="335" />
<glyph unicode="&#x2008;" horiz-adv-x="251" />
<glyph unicode="&#x2009;" horiz-adv-x="403" />
<glyph unicode="&#x200a;" horiz-adv-x="110" />
<glyph unicode="&#x2010;" horiz-adv-x="509" d="M49 500v196h408v-196h-408z" />
<glyph unicode="&#x2011;" horiz-adv-x="509" d="M49 500v196h408v-196h-408z" />
<glyph unicode="&#x2012;" horiz-adv-x="509" d="M49 500v196h408v-196h-408z" />
<glyph unicode="&#x2013;" horiz-adv-x="659" d="M49 500v196h557v-196h-557z" />
<glyph unicode="&#x2014;" horiz-adv-x="935" d="M49 500v196h834v-196h-834z" />
<glyph unicode="&#x2018;" horiz-adv-x="346" d="M-37 1122l260 447h156l-180 -447h-236z" />
<glyph unicode="&#x2019;" horiz-adv-x="348" d="M-35 1122l180 447h236l-260 -447h-156z" />
<glyph unicode="&#x201a;" horiz-adv-x="339" d="M-94 -276l180 446h236l-261 -446h-155z" />
<glyph unicode="&#x201c;" horiz-adv-x="630" d="M-37 1122l260 447h156l-180 -447h-236zM248 1122l260 447h156l-181 -447h-235z" />
<glyph unicode="&#x201d;" horiz-adv-x="632" d="M-35 1122l180 447h236l-260 -447h-156zM250 1122l180 447h236l-260 -447h-156z" />
<glyph unicode="&#x201e;" horiz-adv-x="624" d="M-94 -276l180 446h236l-261 -446h-155zM190 -276l181 446h235l-260 -446h-156z" />
<glyph unicode="&#x2022;" horiz-adv-x="581" d="M45 705q0 51 19.5 96t53.5 78.5t80 54t99 20.5q35 0 77 -11t81 -40t64.5 -77t25.5 -121q0 -59 -21.5 -105.5t-55.5 -79.5t-78 -49t-89 -16q-53 0 -99 18.5t-81 52t-55.5 79t-20.5 100.5z" />
<glyph unicode="&#x2026;" horiz-adv-x="999" d="M47 104q0 63 42 96t97 33q66 0 97.5 -38.5t31.5 -98.5q0 -59 -43 -90t-96 -31q-25 0 -48.5 11.5t-41.5 30t-28.5 40.5t-10.5 47zM362 104q0 63 42 96t98 33q66 0 97.5 -38.5t31.5 -98.5q0 -59 -43 -90t-96 -31q-25 0 -48.5 11.5t-42 30t-29 40.5t-10.5 47zM680 104 q0 63 42 96t97 33q66 0 97.5 -38.5t31.5 -98.5q0 -59 -43 -90t-96 -31q-25 0 -48.5 11.5t-42 30t-28.5 40.5t-10 47z" />
<glyph unicode="&#x202f;" horiz-adv-x="403" />
<glyph unicode="&#x2039;" horiz-adv-x="428" d="M12 608l201 398h211l-199 -396l199 -424h-213z" />
<glyph unicode="&#x203a;" horiz-adv-x="428" d="M10 186l199 396l-199 424h213l199 -422l-201 -398h-211z" />
<glyph unicode="&#x205f;" horiz-adv-x="503" />
<glyph unicode="&#x20ac;" horiz-adv-x="780" d="M12 520v197h60v90h-60v197h60v264q0 86 25.5 148.5t70.5 102.5t103.5 58t123.5 18q66 0 124.5 -18t103.5 -57t70.5 -101.5t25.5 -150.5v-164h-209v137q0 86 -36 121t-79 35t-78.5 -35t-35.5 -121v-237h350v-197h-350v-90h350v-197h-350v-192q0 -86 35.5 -121t78.5 -35 t79 35t36 121v114h209v-141q0 -88 -25.5 -150.5t-70.5 -101.5t-103.5 -57.5t-124.5 -18.5t-124 18.5t-103 58.5t-70.5 102.5t-25.5 148.5v219h-60z" />
<glyph unicode="&#x2122;" horiz-adv-x="1308" d="M35 1421v148h436v-148h-143v-573h-150v573h-143zM520 848v721h246l119 -502l8 -121l8 121l160 502h207v-721h-150v514l12 96l-28 -92l-144 -518h-143l-131 518l-29 92l13 -96v-514h-148z" />
<glyph unicode="&#xe000;" horiz-adv-x="1160" d="M0 1160h1160v-1160h-1160v1160z" />
<glyph unicode="&#xfb01;" horiz-adv-x="794" d="M0 969v192h113v117q0 168 64.5 237.5t193.5 69.5q23 0 42 -3t40 -7v-143h-62q-43 0 -58.5 -35t-15.5 -121v-115h134v-192h-134v-969h-204v969h-113zM487 1417q0 59 43 90t97 31q25 0 48 -11t41.5 -29.5t29 -41t10.5 -47.5q0 -63 -42 -96t-98 -33q-66 0 -97.5 39t-31.5 98 zM518 0v1161h205v-1161h-205z" />
<glyph unicode="&#xfb02;" horiz-adv-x="808" d="M0 969v192h113v117q0 168 64.5 237.5t193.5 69.5q23 0 42 -3t40 -7v-143h-62q-43 0 -58.5 -35t-15.5 -121v-115h134v-192h-134v-969h-204v969h-113zM522 0v1571h205v-1571h-205z" />
<glyph unicode="&#xfb03;" horiz-adv-x="1214" d="M907 1417q0 59 43 90t96 31q25 0 48.5 -11t42 -29.5t28.5 -41t10 -47.5q0 -63 -42 -96t-97 -33q-66 0 -97.5 39t-31.5 98zM938 0v1161h205v-1161h-205zM432 969v192h113v117q0 168 64.5 237.5t193.5 69.5q23 0 42 -3t40 -7v-143h-62q-43 0 -58.5 -35t-15.5 -121v-115h134 v-192h-134v-969h-204v969h-113zM0 969v192h113v117q0 168 64.5 237.5t193.5 69.5q23 0 42 -3t40 -7v-143h-62q-43 0 -58.5 -35t-15.5 -121v-115h134v-192h-134v-969h-204v969h-113z" />
<glyph unicode="&#xfb04;" horiz-adv-x="1232" d="M946 0v1571h205v-1571h-205zM432 969v192h113v117q0 168 64.5 237.5t193.5 69.5q23 0 42 -3t40 -7v-143h-62q-43 0 -58.5 -35t-15.5 -121v-115h134v-192h-134v-969h-204v969h-113zM0 969v192h113v117q0 168 64.5 237.5t193.5 69.5q23 0 42 -3t40 -7v-143h-62 q-43 0 -58.5 -35t-15.5 -121v-115h134v-192h-134v-969h-204v969h-113z" />
</font>
</defs>
</svg>
