<?xml version="1.0" standalone="no"?>
<!DOCTYPE svg PUBLIC "-//W3C//DTD SVG 1.1//EN" "http://www.w3.org/Graphics/SVG/1.1/DTD/svg11.dtd" >
<svg xmlns="http://www.w3.org/2000/svg">
<metadata>
This is a custom SVG webfont generated by Font Squirrel.
Copyright   : Copyright 2005 Canada Type All rights reserved
Foundry     : Canada Type
</metadata>
<defs>
<font id="TrumpGothicEastMediumRegular" horiz-adv-x="708" >
<font-face units-per-em="2048" ascent="1638" descent="-410" />
<missing-glyph horiz-adv-x="309" />
<glyph unicode=" "  horiz-adv-x="309" />
<glyph unicode="&#x09;" horiz-adv-x="309" />
<glyph unicode="&#xa0;" horiz-adv-x="309" />
<glyph unicode="!" horiz-adv-x="294" d="M39 86q0 51 33.5 77.5t79.5 26.5q53 0 78.5 -31.5t25.5 -78.5t-35 -72.5t-78 -25.5q-41 0 -72.5 32.5t-31.5 71.5zM61 1571h183l-31 -1262h-123z" />
<glyph unicode="&#x22;" horiz-adv-x="436" d="M43 1571h164l-31 -430h-102zM233 1571h164l-30 -430h-103z" />
<glyph unicode="#" horiz-adv-x="718" d="M23 799v114h145l29 131h-125v115h149l35 168h117l-35 -168h113l34 168h117l-35 -168h123v-115h-147l-29 -131h127v-114h-152l-32 -148h-117l33 148h-113l-33 -148h-116l32 148h-120zM285 913h112l29 131h-113z" />
<glyph unicode="$" horiz-adv-x="688" d="M61 301v223h168v-237q0 -66 21.5 -100.5t52.5 -47.5v551q-43 39 -86 81t-78 90t-56.5 102.5t-21.5 117.5v187q0 84 20.5 143t54.5 98t78 58.5t89 25.5v111h82v-111q45 -6 89 -24.5t78 -57t54.5 -98t20.5 -145.5v-246h-168v260q0 66 -21.5 100.5t-52.5 47.5v-580 q41 -37 84 -74t78 -80t57.5 -93t22.5 -114v-188q0 -160 -59.5 -237.5t-182.5 -88.5v-106h-82v106q-242 21 -242 326zM229 1110q0 -53 19.5 -97t54.5 -83v500q-31 -12 -52.5 -47t-21.5 -101v-172zM385 139q31 12 52.5 47t21.5 101v170q0 41 -20.5 77.5t-53.5 73.5v-469z" />
<glyph unicode="%" horiz-adv-x="1413" d="M61 958v336q0 168 52.5 238t165.5 70t165 -69t52 -239v-336q0 -170 -52.5 -238.5t-164.5 -68.5q-113 0 -165.5 69.5t-52.5 237.5zM205 961q0 -86 15.5 -121t58.5 -35t58 34.5t15 121.5v331q0 86 -15 121t-58 35t-58.5 -35t-15.5 -121v-331zM473 0l320 1571h174 l-320 -1571h-174zM918 289v336q0 168 52 237.5t165 69.5t165 -68.5t52 -238.5v-336q0 -170 -52.5 -238.5t-164.5 -68.5q-113 0 -165 69.5t-52 237.5zM1061 291q0 -86 15.5 -121t58.5 -35t58 35t15 121v332q0 86 -15 120.5t-58 34.5t-58.5 -34.5t-15.5 -120.5v-332z" />
<glyph unicode="&#x26;" horiz-adv-x="692" d="M61 281v251q0 104 33 174t139 105q-53 14 -86.5 36.5t-52 54.5t-26 74t-7.5 93v221q0 170 73 238.5t210 68.5t210 -69.5t73 -237.5v-61h-168v76q0 43 -10.5 69.5t-25.5 41t-35.5 19.5t-43.5 5q-20 0 -41.5 -5t-37 -19.5t-26 -41t-10.5 -69.5v-283q0 -43 19.5 -69.5 t47.5 -41t58.5 -19.5t51.5 -5h53v123h168v-123h63v-152h-63v-454q0 -168 -73 -238t-210 -70t-210 69t-73 239zM229 266q0 -43 10.5 -69.5t26 -41t37 -19.5t41.5 -5q23 0 43.5 5t35.5 19.5t25.5 41t10.5 69.5v469h-53q-20 0 -51 -5t-59 -19.5t-47.5 -41t-19.5 -69.5v-334z " />
<glyph unicode="'" horiz-adv-x="245" d="M43 1571h164l-31 -430h-102z" />
<glyph unicode="(" horiz-adv-x="413" d="M86 575q0 51 6 158t22.5 244t49.5 291.5t84 304.5h166q-53 -141 -85 -294t-49.5 -290t-22.5 -242.5t-5 -152.5q0 -39 4 -143.5t21.5 -239.5t49 -283.5t87.5 -277.5h-166q-33 92 -62.5 181t-52 195.5t-35 238.5t-12.5 310z" />
<glyph unicode=")" horiz-adv-x="415" d="M-2 -348q53 141 85 293.5t49.5 290t22.5 244t5 151.5q0 39 -4 143.5t-21.5 239.5t-49.5 283.5t-87 277.5h166q35 -92 63.5 -181t51 -195.5t35 -239t12.5 -310.5q0 -51 -6.5 -157.5t-22.5 -243.5t-48 -292t-85 -304h-166z" />
<glyph unicode="*" horiz-adv-x="604" d="M43 1284v100h170l-84 148l86 51l88 -151l84 149l88 -49l-84 -150h170v-98h-172l86 -149l-88 -50l-84 142l-84 -144l-86 52l86 149h-176z" />
<glyph unicode="+" horiz-adv-x="638" d="M53 684v156h191v190h155v-190h191v-156h-191v-190h-155v190h-191z" />
<glyph unicode="," horiz-adv-x="299" d="M-94 -276l180 446h195l-261 -446h-114z" />
<glyph unicode="-" horiz-adv-x="509" d="M49 520v156h408v-156h-408z" />
<glyph unicode="." horiz-adv-x="315" d="M47 86q0 51 34 77.5t79 26.5q53 0 78.5 -31.5t25.5 -78.5t-34.5 -72.5t-77.5 -25.5q-41 0 -73 32.5t-32 71.5z" />
<glyph unicode="/" horiz-adv-x="512" d="M0 0l340 1571h172l-340 -1571h-172z" />
<glyph unicode="0" horiz-adv-x="741" d="M72 301v967q0 84 25.5 145.5t67.5 102t96 60t110 19.5q55 0 109.5 -19.5t96 -59t67.5 -101t26 -147.5v-967q0 -86 -26 -147.5t-67.5 -101.5t-96 -59.5t-109.5 -19.5t-109.5 19.5t-96.5 60.5t-67.5 102.5t-25.5 145.5zM256 303q0 -86 36 -121t79 -35t78.5 35t35.5 121v963 q0 86 -35.5 120.5t-78.5 34.5t-79 -34.5t-36 -120.5v-963z" />
<glyph unicode="1" horiz-adv-x="512" d="M10 1286v182l260 101h160v-1569h-184v1362z" />
<glyph unicode="2" horiz-adv-x="690" d="M41 0v176q0 74 30.5 154t77 162.5t99.5 166.5t99 163t77 153t31 135v156q0 86 -36 120.5t-79 34.5t-79 -34.5t-36 -120.5v-213h-184v215q0 86 25.5 147.5t67.5 101t96.5 59t109.5 19.5t109.5 -19.5t96.5 -60t67.5 -102t25.5 -145.5v-181q0 -70 -29.5 -149.5t-73.5 -163.5 t-96.5 -168t-98.5 -160.5t-77 -143t-35 -118.5h373v-184h-561z" />
<glyph unicode="3" horiz-adv-x="724" d="M61 281v221h185v-219q0 -43 10 -70t25.5 -41t37 -19.5t41.5 -5.5q23 0 43.5 5.5t36 19.5t25.5 41t10 70v309q0 43 -19.5 69.5t-47 41t-57 19.5t-52.5 5q-10 0 -19.5 -1t-19.5 -3v176q10 -4 20 -4h19q23 0 52.5 5t57 19.5t47 41t19.5 69.5v258q0 43 -10 69.5t-25.5 41 t-36 19.5t-43.5 5q-20 0 -41.5 -5t-37 -19.5t-25.5 -41t-10 -69.5v-227h-180q-2 16 -3.5 32.5t-1.5 36.5v160q0 84 26 142.5t68 95.5t96 53t109 16t109.5 -16t96.5 -52t67.5 -94.5t25.5 -144.5v-211q0 -51 -7 -90t-28.5 -68.5t-58.5 -53t-98 -46.5q61 -25 98 -52.5t58.5 -60 t28.5 -73.5t7 -92v-262q0 -86 -25.5 -144.5t-67.5 -94.5t-96 -52.5t-110 -16.5q-55 0 -109 16.5t-96 53.5t-68 95.5t-26 142.5z" />
<glyph unicode="4" horiz-adv-x="720" d="M20 406v184l269 979h289v-979h122v-184h-122v-406h-185v406h-373zM209 590h184v786z" />
<glyph unicode="5" horiz-adv-x="722" d="M61 301v117h185v-115q0 -86 36.5 -121t79.5 -35t79 35t36 121v410q0 86 -35.5 120.5t-79.5 34.5q-41 0 -75.5 -30.5t-38.5 -104.5h-187v836h547v-185h-362v-489q14 16 29.5 36.5t36 39t48 31t64.5 12.5q55 0 99 -13.5t75 -46t47.5 -88t16.5 -139.5v-426q0 -84 -26 -145.5 t-68 -102.5t-96 -60.5t-110 -19.5q-55 0 -109 19.5t-97 59.5t-69 101.5t-26 147.5z" />
<glyph unicode="6" horiz-adv-x="737" d="M72 301v963q0 84 25.5 145t67.5 102t96 60.5t110 19.5q55 0 109.5 -19.5t96 -59t67.5 -101t26 -147.5v-117h-185v115q0 86 -35.5 120.5t-78.5 34.5t-79 -34.5t-36 -120.5v-388q14 16 29.5 37t36 39.5t48 30.5t64.5 12q55 0 99.5 -13t75 -46t47 -88t16.5 -139v-406 q0 -84 -25.5 -145.5t-67.5 -102.5t-96.5 -60.5t-109.5 -19.5t-109.5 19.5t-97.5 59.5t-68.5 101.5t-25.5 147.5zM256 303q0 -86 37 -121t80 -35t78.5 35t35.5 121v389q0 86 -35.5 121t-78.5 35t-79 -35t-36 -121z" />
<glyph unicode="7" horiz-adv-x="651" d="M10 0l420 1384h-377v185h588v-94l-434 -1475h-197z" />
<glyph unicode="8" horiz-adv-x="729" d="M66 281v333q0 102 36.5 161t94.5 97q-57 39 -94 96.5t-37 161.5v160q0 84 25.5 142.5t67.5 95.5t96 53t110 16q55 0 109 -16t96 -52t68 -94.5t26 -144.5v-160q0 -104 -37 -162.5t-95 -95.5q57 -39 94.5 -106.5t37.5 -171.5v-313q0 -86 -26 -144.5t-68 -94.5t-96 -52.5 t-109 -16.5t-109.5 16.5t-96.5 53.5t-67.5 95.5t-25.5 142.5zM250 283q0 -43 10 -70t25.5 -41t37 -19.5t42.5 -5.5q23 0 43 5.5t35.5 19.5t25.5 41t10 70v360q0 43 -10 69.5t-25.5 41t-36 19.5t-42.5 5q-20 0 -42 -5t-37.5 -19.5t-25.5 -41t-10 -69.5v-360zM250 1081 q0 -43 10 -69.5t25.5 -41t37 -19.5t42.5 -5q23 0 43 5t35.5 19.5t25.5 41t10 69.5v207q0 43 -10 69.5t-25.5 41t-36 19.5t-42.5 5q-20 0 -42 -5t-37.5 -19.5t-25.5 -41t-10 -69.5v-207z" />
<glyph unicode="9" horiz-adv-x="737" d="M66 858v406q0 84 25.5 145t67.5 102t96 60.5t110 19.5q55 0 109 -19.5t97 -59t69 -101t26 -147.5v-963q0 -84 -26 -145.5t-68 -102.5t-96 -60.5t-109 -19.5t-109.5 19.5t-96.5 59.5t-67.5 101.5t-25.5 147.5v117h184v-115q0 -86 36 -121t79 -35t78.5 35t35.5 121v387 q-14 -16 -29.5 -36.5t-36 -39t-48 -31t-64.5 -12.5q-55 0 -99 13.5t-75 46.5t-47 88t-16 139zM250 872q0 -86 36 -120.5t79 -34.5t78.5 34.5t35.5 120.5l2 390q0 86 -36.5 120.5t-79.5 34.5t-79 -34.5t-36 -120.5v-390z" />
<glyph unicode=":" horiz-adv-x="319" d="M47 88q0 51 34 78t79 27q53 0 78.5 -32t25.5 -79t-34.5 -72.5t-77.5 -25.5q-41 0 -73 32.5t-32 71.5zM51 793q0 51 34 77.5t79 26.5q53 0 78.5 -31.5t25.5 -79.5q0 -47 -34.5 -72.5t-77.5 -25.5q-41 0 -73 33t-32 72z" />
<glyph unicode=";" horiz-adv-x="319" d="M-94 -276l180 446h195l-261 -446h-114zM51 793q0 51 34 77.5t79 26.5q53 0 78.5 -31.5t25.5 -79.5q0 -47 -34.5 -72.5t-77.5 -25.5q-41 0 -73 33t-32 72z" />
<glyph unicode="&#x3c;" horiz-adv-x="387" d="M12 608l201 398h170l-199 -396l199 -424h-172z" />
<glyph unicode="=" horiz-adv-x="638" d="M53 479v156h537v-156h-537zM53 766v156h537v-156h-537z" />
<glyph unicode="&#x3e;" horiz-adv-x="387" d="M10 186l199 396l-199 424h172l199 -422l-201 -398h-170z" />
<glyph unicode="?" horiz-adv-x="679" d="M45 1061v229q0 168 72.5 237.5t210.5 69.5q137 0 209.5 -68.5t72.5 -238.5v-231q0 -63 -10 -116.5t-36.5 -93.5t-72 -67.5t-116.5 -40.5v-434h-168v584q10 -4 19 -4h20q23 0 55.5 5t64 19.5t54 41t22.5 69.5v283q0 43 -10 69.5t-25.5 41t-36 19.5t-42.5 5q-20 0 -42 -5 t-37.5 -19.5t-25.5 -41t-10 -69.5v-244h-168zM186 86q0 51 34 77.5t79 26.5q53 0 78.5 -31.5t25.5 -78.5t-34.5 -72.5t-77.5 -25.5q-41 0 -73 32.5t-32 71.5z" />
<glyph unicode="@" horiz-adv-x="1363" d="M43 360q0 199 45 391.5t135 345t224.5 246t312.5 93.5q145 0 250.5 -60.5t174 -159t102.5 -226.5t34 -263q0 -125 -27.5 -252t-82 -229.5t-135.5 -168t-189 -65.5q-78 0 -118 40t-48 118q-29 -57 -93.5 -94t-142.5 -37q-53 0 -77.5 28.5t-24.5 94.5q0 68 25 184l73 348 q18 86 33.5 145.5t36 96.5t48.5 54.5t69 17.5t68.5 -8.5t47 -22.5t31.5 -32.5t23 -37.5l16 82h143q-41 -201 -69.5 -331t-47 -210.5t-27.5 -119.5t-14 -58.5t-6.5 -26.5t-1.5 -24q0 -29 13.5 -55.5t48.5 -26.5q76 0 127 56.5t83 142.5t45 189.5t13 197.5q0 123 -21.5 225.5 t-68.5 176t-124 114.5t-187 41q-147 0 -254 -79t-175.5 -208t-100 -291.5t-31.5 -332.5q0 -166 30.5 -284t88 -193.5t140.5 -110.5t187 -35q100 0 169 23.5t140 68.5l29 -147q-41 -25 -78 -43.5t-77 -31.5t-84 -19.5t-99 -6.5q-137 0 -248.5 54.5t-189.5 154t-121 241.5 t-43 320zM561 254q0 -61 53 -61q29 0 58.5 34.5t48.5 120.5l80 369q8 35 8 67q0 63 -55 64q-43 0 -65.5 -35t-41.5 -121l-74 -344q-12 -57 -12 -94z" />
<glyph unicode="A" horiz-adv-x="649" d="M0 0l211 1569h225l213 -1569h-168l-43 369h-227l-43 -369h-168zM233 537h183l-84 751q0 29 -2 56.5t-6 56.5q-6 -55 -7 -113z" />
<glyph unicode="B" horiz-adv-x="722" d="M82 0v1569h276q135 0 207 -78t72 -250v-197q0 -80 -34 -135t-116 -102q96 -35 133 -99.5t37 -152.5v-227q0 -172 -71.5 -250t-206.5 -78h-297zM250 158h125q59 0 86.5 34.5t27.5 120.5v260q0 86 -37.5 121t-97.5 35h-104v-571zM250 883h104q59 0 87 34.5t28 120.5v217 q0 86 -27.5 121t-87.5 35h-104v-528z" />
<glyph unicode="C" horiz-adv-x="698" d="M72 301v967q0 94 25.5 157.5t65.5 101.5t91 53t100 15t100.5 -15t91.5 -52t65.5 -100.5t25.5 -159.5v-246h-168v260q0 86 -36 121t-79 35t-78.5 -35t-35.5 -121v-995q0 -86 35.5 -121t78.5 -35t79 35t36 121v237h168v-223q0 -96 -25.5 -159.5t-65.5 -100.5t-91.5 -52.5 t-100.5 -15.5t-100 15.5t-91 53.5t-65.5 101.5t-25.5 157.5z" />
<glyph unicode="D" d="M82 0v1569h276q68 0 119 -15.5t87 -52.5t54.5 -100.5t18.5 -159.5v-913q0 -96 -18.5 -160t-54.5 -100.5t-87 -52t-119 -15.5h-276zM250 158h104q59 0 87 34.5t28 120.5v942q0 86 -27.5 121t-87.5 35h-104v-1253z" />
<glyph unicode="E" horiz-adv-x="571" d="M82 0v1569h459v-168h-291v-527h276v-167h-276v-539h291v-168h-459z" />
<glyph unicode="F" horiz-adv-x="550" d="M82 0v1569h459v-168h-291v-527h276v-167h-276v-707h-168z" />
<glyph unicode="G" horiz-adv-x="722" d="M72 301v967q0 94 21.5 157.5t60.5 101.5t93 53t118 15q63 0 117.5 -15t93 -52t60 -100.5t21.5 -159.5v-244h-168v258q0 86 -36.5 121t-87.5 35t-88 -35t-37 -121v-995q0 -86 36.5 -121t88.5 -35q47 0 74.5 12.5t49.5 49.5v432h-139v168h307v-662q-12 -25 -32.5 -53.5 t-54 -51t-84 -38t-121.5 -15.5q-63 0 -117.5 15.5t-93.5 53.5t-60.5 101.5t-21.5 157.5z" />
<glyph unicode="H" horiz-adv-x="729" d="M82 0v1569h168v-684h229v684h168v-1569h-168v717h-229v-717h-168z" />
<glyph unicode="I" horiz-adv-x="331" d="M82 0v1569h168v-1569h-168z" />
<glyph unicode="J" horiz-adv-x="331" d="M-35 -236h2q43 0 79 35t36 121v1649h168v-1635q0 -96 -25.5 -159.5t-65.5 -100t-91.5 -52t-100.5 -15.5h-2v157z" />
<glyph unicode="K" horiz-adv-x="698" d="M82 0v1569h168v-1569h-168zM252 784l250 785h168l-238 -778l277 -791h-168z" />
<glyph unicode="L" horiz-adv-x="468" d="M82 0v1569h168v-1401h209v-168h-377z" />
<glyph unicode="M" horiz-adv-x="1044" d="M82 0v1569h266l164 -1080l10 -141l10 144l164 1077h267v-1569h-168v1208l14 113l-33 -109l-194 -1212h-133l-181 1212l-32 109l14 -113v-1208h-168z" />
<glyph unicode="N" horiz-adv-x="804" d="M82 0v1569h192l265 -1098l41 -115l-25 115v1098h168v-1569h-203l-252 1049l-32 108l14 -113v-1044h-168z" />
<glyph unicode="O" d="M72 301v967q0 94 25.5 157.5t65.5 101.5t91 53t100 15q55 0 105.5 -15t90.5 -52t63.5 -100.5t23.5 -159.5v-967q0 -96 -25.5 -159.5t-65.5 -100.5t-91.5 -52.5t-100.5 -15.5t-100 15.5t-91 53.5t-65.5 101.5t-25.5 157.5zM240 287q0 -86 35.5 -121t78.5 -35t79 35t36 121 v995q0 86 -36 121t-79 35t-78.5 -35t-35.5 -121v-995z" />
<glyph unicode="P" horiz-adv-x="677" d="M82 0v1569h276q68 0 119 -15.5t87 -52.5t54.5 -100.5t18.5 -159.5v-242q0 -96 -18.5 -159.5t-54.5 -100.5t-87 -52t-119 -15h-108v-672h-168zM250 823h104q59 0 87 35t28 121v283q0 86 -27.5 120.5t-87.5 34.5h-104v-594z" />
<glyph unicode="Q" d="M72 301v967q0 94 25.5 157.5t65.5 101.5t91 53t100 15t100.5 -15t91.5 -52t65.5 -100.5t25.5 -159.5v-967q0 -117 -35 -183.5t-100 -103.5q29 -59 55.5 -116.5t52.5 -116.5l-129 -62l-57 127l-57 127q-47 0 -99.5 13.5t-95.5 49.5t-71.5 100.5t-28.5 164.5zM240 287 q0 -86 35.5 -121t78.5 -35t79 35t36 121v995q0 86 -36 121t-79 35t-78.5 -35t-35.5 -121v-995z" />
<glyph unicode="R" horiz-adv-x="679" d="M82 0v1569h291q68 0 117 -15.5t81.5 -52.5t49 -100.5t16.5 -159.5v-242q0 -121 -37 -196.5t-115 -102.5l193 -700h-168l-182 666h-78v-666h-168zM250 823h104q59 0 87 35t28 121v276q0 86 -27.5 121t-87.5 35h-104v-588z" />
<glyph unicode="S" horiz-adv-x="688" d="M61 301v223h168v-237q0 -86 36 -121t79 -35t79 35t36 121v170q0 49 -30 93t-74 89t-95 92t-95 100.5t-74 115t-30 134.5v187q0 94 26 157.5t66 101.5t91 53t100 15t100.5 -15t91 -52t65.5 -100.5t26 -159.5v-246h-168v260q0 86 -36 121t-79 35t-79 -35t-36 -121v-172 q0 -63 30 -114.5t74 -96.5t95 -87t95 -89t74 -103.5t30 -130.5v-188q0 -172 -70 -250t-213 -78t-213 80t-70 248z" />
<glyph unicode="T" horiz-adv-x="577" d="M10 1401v168h557v-168h-194v-1401h-168v1401h-195z" />
<glyph unicode="U" horiz-adv-x="716" d="M76 301v1268h168v-1295q0 -86 35.5 -120.5t78.5 -34.5t79 34.5t36 120.5v1295h168v-1268q0 -96 -25.5 -159.5t-65.5 -100.5t-91 -52.5t-101 -15.5q-49 0 -100 15.5t-91 53.5t-65.5 101.5t-25.5 157.5z" />
<glyph unicode="V" horiz-adv-x="608" d="M0 1569h168l131 -1268q0 -57 6 -113q6 55 6 113l129 1268h168l-190 -1569h-225z" />
<glyph unicode="W" horiz-adv-x="1052" d="M0 1569h168l111 -1239q0 -57 6 -113q6 55 6 113l129 1239h213l129 -1231q0 -25 2 -50.5t6 -49.5q4 25 5 50t3 50l107 1231h168l-170 -1569h-226l-122 1159q-4 41 -4.5 73t-4.5 73q-4 -41 -4 -73t-4 -73l-121 -1159h-225z" />
<glyph unicode="X" horiz-adv-x="700" d="M0 0l274 807l-262 762h170l178 -555l166 555h170l-233 -764l237 -805h-168l-172 608l-192 -608h-168z" />
<glyph unicode="Y" horiz-adv-x="651" d="M0 1571h170l145 -692l166 694h170l-250 -1006v-567h-184v565z" />
<glyph unicode="Z" horiz-adv-x="565" d="M20 0v168l330 1233h-311v168h506v-78l-352 -1323h352v-168h-525z" />
<glyph unicode="[" horiz-adv-x="413" d="M96 -348v1921h320v-148h-160v-1620h160v-153h-320z" />
<glyph unicode="\" horiz-adv-x="557" d="M-117 1573h158l510 -1614h-160z" />
<glyph unicode="]" horiz-adv-x="413" d="M-2 -195h160v1620h-160v148h319v-1921h-319v153z" />
<glyph unicode="^" horiz-adv-x="755" d="M0 1010v151h113v117q0 168 52 237.5t165 69.5q23 0 42 -3t40 -7v-143h-62q-43 0 -58.5 -35t-15.5 -121v-115h201v117q0 168 52.5 237.5t164.5 69.5q23 0 42.5 -3t39.5 -7v-143h-61q-43 0 -58.5 -35t-15.5 -121v-115h133v-151h-133v-1006h-164v1006h-201v-1006h-163v1006 h-113z" />
<glyph unicode="_" horiz-adv-x="538" d="M0 -78v156h539v-156h-539z" />
<glyph unicode="`" horiz-adv-x="241" d="M-20 1522h186l94 -207h-151z" />
<glyph unicode="a" horiz-adv-x="602" d="M61 293v80q0 170 50.5 240.5t128.5 70.5h133v176q0 86 -15.5 121t-58.5 35t-58.5 -35t-15.5 -121v-69h-164v71q0 170 62.5 238.5t175.5 68.5t175.5 -69.5t62.5 -237.5v-862h-138l-26 94q-6 -14 -17.5 -33.5t-28 -36t-37 -27.5t-46.5 -11q-55 0 -91 16t-56.5 52t-28 94.5 t-7.5 144.5zM225 295q0 -86 15.5 -121t58.5 -35t58.5 35t15.5 121v272h-74q-43 0 -58.5 -55t-15.5 -141v-76z" />
<glyph unicode="b" horiz-adv-x="618" d="M82 0v1571h164v-492q8 8 25.5 24.5t39 34t44 30t40.5 12.5q55 0 88 -17.5t49.5 -54.5t20.5 -96.5t4 -145.5v-573q0 -86 -7 -144.5t-27.5 -94.5t-56.5 -52t-91 -16q-27 0 -47.5 11t-37 27.5t-27.5 36t-17 33.5l-27 -94h-137zM246 295q0 -86 15 -121t58 -35t58.5 35 t15.5 121v569q0 86 -15.5 121t-58.5 35q-41 0 -57 -31t-16 -100v-594z" />
<glyph unicode="c" horiz-adv-x="587" d="M61 289v590q0 168 62.5 237.5t175.5 69.5t175.5 -68.5t62.5 -238.5v-144h-164v142q0 86 -15.5 120.5t-58.5 34.5t-58.5 -34.5t-15.5 -120.5v-586q0 -86 15.5 -121t58.5 -35t58.5 35t15.5 121v164h164v-166q0 -170 -62.5 -238.5t-175.5 -68.5t-175.5 69.5t-62.5 237.5z " />
<glyph unicode="d" horiz-adv-x="618" d="M61 293v573q0 86 4.5 145.5t20.5 96.5t49 54.5t88 17.5q37 0 79 -31t71 -70v492h164v-1571h-138l-26 94q-6 -14 -17.5 -33.5t-28 -36t-37 -27.5t-46.5 -11q-55 0 -91 16t-56.5 52t-28 94.5t-7.5 144.5zM225 295q0 -86 15.5 -121t58.5 -35t58.5 35t15.5 121v594 q0 70 -16.5 100.5t-57.5 30.5q-43 0 -58.5 -35t-15.5 -121v-569z" />
<glyph unicode="e" horiz-adv-x="587" d="M61 289v573q0 168 62.5 237.5t175.5 69.5t175.5 -68.5t62.5 -238.5v-348h-312v-223q0 -86 15.5 -121t58.5 -35t58.5 35t15.5 121v92h164v-94q0 -170 -62.5 -238.5t-175.5 -68.5t-175.5 69.5t-62.5 237.5zM225 666h148v194q0 86 -15.5 121t-58.5 35t-58.5 -35t-15.5 -121 v-194z" />
<glyph unicode="f" horiz-adv-x="391" d="M0 1010v151h113v117q0 168 52 237.5t165 69.5q23 0 42 -3t40 -7v-143h-62q-43 0 -58.5 -35t-15.5 -121v-115h134v-151h-134v-1006h-163v1006h-113z" />
<glyph unicode="g" horiz-adv-x="593" d="M41 37q0 41 5 69.5t13.5 51t19.5 41t25 37.5q-8 16 -17 40.5t-9 55.5q0 33 14 70.5t49 80.5q-41 35 -60.5 97.5t-19.5 158.5v123q0 168 62.5 237.5t175.5 69.5q72 0 123 -26h172v-96h-88q31 -70 31 -185v-123q0 -170 -63.5 -238.5t-182.5 -68.5q-29 0 -42 -17.5 t-13 -33.5t20 -37.5t82 -21.5q115 0 157 -79t42 -247v-102q0 -170 -73 -239t-185 -69q-113 0 -175.5 70t-62.5 238v143zM205 55v-159q0 -86 20.5 -121t63.5 -35t63.5 35t20.5 121v118q0 86 -16.5 131t-67.5 45t-67.5 -24.5t-16.5 -110.5zM225 741q0 -86 15.5 -120.5 t58.5 -34.5t58.5 34.5t15.5 120.5v119q0 86 -15.5 121t-58.5 35t-58.5 -35t-15.5 -121v-119z" />
<glyph unicode="h" horiz-adv-x="622" d="M82 4v1567h164v-492q45 61 78.5 81t70.5 20q55 0 88 -17.5t49.5 -54.5t20.5 -96.5t4 -145.5v-862h-164v860q0 86 -15.5 121t-58.5 35q-41 0 -57 -31t-16 -100v-885h-164z" />
<glyph unicode="i" horiz-adv-x="305" d="M49 1391q0 47 35 72.5t78 25.5q41 0 72.5 -33t31.5 -72q0 -51 -33.5 -77.5t-78.5 -26.5q-53 0 -79 32t-26 79zM70 0v1161h163v-1161h-163z" />
<glyph unicode="j" horiz-adv-x="301" d="M31 -408q27 86 34 173.5t7 173.5v1222h164v-1231q0 -86 -7.5 -169t-33.5 -169h-164zM47 1391q0 47 35 72.5t78 25.5q41 0 72.5 -33t31.5 -72q0 -51 -33.5 -77.5t-78.5 -26.5q-53 0 -79 32t-26 79z" />
<glyph unicode="k" horiz-adv-x="628" d="M82 0v1569h164v-1569h-164zM248 594l209 567h168l-201 -561l199 -600h-166z" />
<glyph unicode="l" horiz-adv-x="327" d="M82 0v1571h164v-1571h-164z" />
<glyph unicode="m" horiz-adv-x="923" d="M72 0v1161h137l27 -94q6 16 17 34.5t27.5 35t37 28t47.5 11.5q76 0 113.5 -31t53.5 -103q23 49 57 91.5t87 42.5q55 0 91 -16.5t56.5 -52.5t27.5 -94.5t7 -144.5v-868h-164v866q0 86 -15 121t-58 35t-58.5 -35t-15.5 -121v-866h-164v887q0 86 -15.5 110.5t-58.5 24.5 t-58 -35t-15 -121v-866h-164z" />
<glyph unicode="n" horiz-adv-x="612" d="M72 0v1161h137l27 -94q6 16 17 34.5t27.5 35t37 28t47.5 11.5q55 0 91 -16.5t56 -52.5t27.5 -94.5t7.5 -144.5v-868h-164v866q0 86 -15.5 121t-58.5 35t-58 -35t-15 -121v-866h-164z" />
<glyph unicode="o" horiz-adv-x="598" d="M61 289v573q0 168 62.5 237.5t175.5 69.5t175.5 -68.5t62.5 -238.5v-573q0 -170 -62.5 -238.5t-175.5 -68.5t-175.5 69.5t-62.5 237.5zM225 291q0 -86 15.5 -121t58.5 -35t58.5 35t15.5 121v569q0 86 -15.5 121t-58.5 35t-58.5 -35t-15.5 -121v-569z" />
<glyph unicode="p" horiz-adv-x="608" d="M72 -408v1571h137l27 -94q6 16 17 34.5t27.5 35t37 28t47.5 11.5q55 0 91 -16.5t56 -52.5t27.5 -94.5t7.5 -144.5v-573q0 -86 -4 -145.5t-20.5 -96.5t-49.5 -54t-88 -17q-18 0 -40.5 13t-44 29.5t-39 33t-25.5 24.5v-492h-164zM236 274q0 -70 16 -100.5t57 -30.5 q43 0 58.5 35t15.5 121v569q0 86 -15.5 121t-58.5 35t-58 -35t-15 -121v-594z" />
<glyph unicode="q" horiz-adv-x="608" d="M61 297v573q0 86 7.5 144.5t28 94.5t56 52.5t91.5 16.5q27 0 47 -11.5t36.5 -28t28 -35t17.5 -34.5l26 94h138v-1571h-164v492q-8 -8 -25.5 -24.5t-39 -33t-44 -29.5t-41.5 -13q-55 0 -88 17t-49 54t-20.5 96.5t-4.5 145.5zM225 299q0 -86 15.5 -121t58.5 -35 q41 0 57.5 31t16.5 100v594q0 86 -15.5 121t-58.5 35t-58.5 -35t-15.5 -121v-569z" />
<glyph unicode="r" horiz-adv-x="452" d="M72 0v1161h137l27 -94q6 16 17 34.5t27.5 35t37 28t47.5 11.5q16 0 29.5 -4.5t23.5 -8.5l20 -12l-6 -156q-43 -4 -79 -4t-61.5 -12t-40.5 -46t-15 -108v-825h-164z" />
<glyph unicode="s" horiz-adv-x="577" d="M41 311v101h164v-119q0 -86 17.5 -121t76.5 -35q43 0 58.5 35t15.5 121q0 47 -24.5 87t-61.5 80t-80 81t-80 88t-61.5 102t-24.5 125q0 168 64.5 248t193.5 80q113 0 175.5 -78t62.5 -250v-82h-164v100q0 86 -15.5 121t-58.5 35q-59 0 -76.5 -33.5t-17.5 -117.5 q0 -61 24.5 -108.5t61.5 -87.5t80 -77t79.5 -79t61.5 -94t25 -122q0 -172 -62.5 -249.5t-175.5 -77.5q-129 0 -193.5 79.5t-64.5 247.5z" />
<glyph unicode="t" horiz-adv-x="401" d="M0 1010v151h92v287h164v-287h133v-151h-133v-717q0 -86 15.5 -121t58.5 -35h61v-143q-20 -4 -39.5 -7t-42.5 -3q-113 0 -165 69.5t-52 237.5v719h-92z" />
<glyph unicode="u" horiz-adv-x="612" d="M66 293v868h163v-866q0 -86 15.5 -121t58.5 -35t58.5 35t15.5 121v866h164v-1161h-138l-26 94q-6 -14 -17.5 -33.5t-28 -36t-37 -27.5t-46.5 -11q-55 0 -91 16t-56.5 52t-27.5 94.5t-7 144.5z" />
<glyph unicode="v" horiz-adv-x="530" d="M0 1161h172l86 -864q0 -57 6 -113q6 55 6 113l88 864h172l-155 -1161h-217z" />
<glyph unicode="w" horiz-adv-x="894" d="M0 1161h172l86 -864q0 -57 6 -113q6 55 6 113l88 864h179l86 -864q0 -57 6 -113q6 55 6 113l88 864h172l-156 -1161h-192l-90 745q-4 33 -5 65t-6 64q-2 -33 -5 -65.5t-3 -65.5l-88 -743h-192z" />
<glyph unicode="x" horiz-adv-x="555" d="M0 0l182 594l-180 567h162l112 -373l109 373h166l-189 -569l193 -592h-162l-125 387l-108 -387h-160z" />
<glyph unicode="y" horiz-adv-x="550" d="M0 1161h172l98 -864q0 -27 1 -53.5t3 -50.5l5 12q2 23 3 46t1 46l96 864h172l-238 -1571h-178l62 320z" />
<glyph unicode="z" horiz-adv-x="512" d="M16 0v150l289 847h-250v164h441v-119l-295 -878h270v-164h-455z" />
<glyph unicode="{" horiz-adv-x="712" d="M0 1010v151h113v117q0 168 52 237.5t165 69.5q23 0 42 -3t40 -7v-143h-62q-43 0 -58.5 -35t-15.5 -121v-115h134v-151h-134v-1006h-163v1006h-113zM457 1391q0 47 34.5 72.5t77.5 25.5q41 0 73 -33t32 -72q0 -51 -34 -77.5t-79 -26.5q-53 0 -78.5 32t-25.5 79zM477 0 v1161h164v-1161h-164z" />
<glyph unicode="|" horiz-adv-x="348" d="M82 -410v2063h184v-2063h-184z" />
<glyph unicode="}" horiz-adv-x="727" d="M0 1010v151h113v117q0 168 52 237.5t165 69.5q23 0 42 -3t40 -7v-143h-62q-43 0 -58.5 -35t-15.5 -121v-115h134v-151h-134v-1006h-163v1006h-113zM481 0v1571h164v-1571h-164z" />
<glyph unicode="~" horiz-adv-x="1077" d="M0 1010v151h113v117q0 168 52 237.5t165 69.5q23 0 42 -3t40 -7v-143h-62q-43 0 -58.5 -35t-15.5 -121v-115h201v117q0 168 52.5 237.5t164.5 69.5q23 0 42.5 -3t39.5 -7v-143h-61q-43 0 -58.5 -35t-15.5 -121v-115h133v-151h-133v-1006h-164v1006h-201v-1006h-163v1006 h-113zM821 1391q0 47 35 72.5t78 25.5q41 0 72.5 -33t31.5 -72q0 -51 -33.5 -77.5t-78.5 -26.5q-53 0 -79 32t-26 79zM842 0v1161h164v-1161h-164z" />
<glyph unicode="&#xa1;" horiz-adv-x="294" d="M39 1083q0 47 35 73t78 26q41 0 72.5 -33t31.5 -72q0 -51 -34 -77.5t-79 -26.5q-53 0 -78.5 31.5t-25.5 78.5zM51 -408l31 1262h123l28 -1262h-182z" />
<glyph unicode="&#xa2;" horiz-adv-x="587" d="M61 508v590q0 135 41 204.5t117 92.5v176h164v-178q72 -23 113 -91.5t41 -203.5v-144h-164v142q0 86 -15.5 120.5t-58.5 34.5t-58.5 -34.5t-15.5 -120.5v-586q0 -86 15.5 -121t58.5 -35t58.5 35t15.5 121v164h164v-166q0 -135 -41 -205t-113 -92v-211h-164v211 q-76 20 -117 91t-41 206z" />
<glyph unicode="&#xa3;" horiz-adv-x="759" d="M53 0v168h72v332h-72v155h72v111h-72v156h72v346q0 102 25.5 165.5t65.5 99.5t91 49t101 13q49 0 100 -12t91 -48t65.5 -99.5t25.5 -167.5v-105h-168v119q0 86 -35.5 121t-78.5 35t-79 -35t-36 -121v-360h379v-156h-379v-111h379v-155h-379v-332h393v-168h-633z" />
<glyph unicode="&#xa4;" horiz-adv-x="735" d="M27 526v185h49v125h-49v184h49v248q0 84 25.5 145.5t67.5 102t96 60t110 19.5q55 0 109.5 -19.5t96.5 -59t67.5 -101t25.5 -147.5v-107h-185v105q0 86 -35.5 120.5t-78.5 34.5t-79 -34.5t-36 -120.5v-246h358v-184h-358v-125h358v-185h-358v-223q0 -86 36 -121t79 -35 t78.5 35t35.5 121v98h185v-100q0 -86 -25.5 -147.5t-67.5 -101.5t-96.5 -59.5t-109.5 -19.5t-109.5 19.5t-96.5 60.5t-67.5 102.5t-25.5 145.5v225h-49z" />
<glyph unicode="&#xa5;" horiz-adv-x="651" d="M0 1571h170l145 -692l166 694h170l-227 -909h166v-156h-189v-131h189v-156h-189v-221h-184v221h-164v156h164v131h-164v156h142z" />
<glyph unicode="&#xa6;" horiz-adv-x="331" d="M82 356h168v-766h-168v766zM82 764v805h168v-805h-168z" />
<glyph unicode="&#xa7;" horiz-adv-x="788" d="M0 1010v151h113v117q0 168 52 237.5t165 69.5q23 0 42 -3t40 -7v-143h-62q-43 0 -58.5 -35t-15.5 -121v-115h203v287h164v-287h133v-151h-133v-717q0 -86 15.5 -121t58.5 -35h61v-143q-20 -4 -39.5 -7t-42.5 -3q-113 0 -165 69.5t-52 237.5v719h-203v-1006h-163v1006 h-113z" />
<glyph unicode="&#xa8;" horiz-adv-x="585" d="M47 1382q0 51 34 78t79 27q53 0 78.5 -32t25.5 -79t-34.5 -72.5t-77.5 -25.5q-41 0 -73 32.5t-32 71.5zM317 1382q0 51 34 78t79 27q53 0 79 -32t26 -79t-35 -72.5t-78 -25.5q-41 0 -73 32.5t-32 71.5z" />
<glyph unicode="&#xa9;" horiz-adv-x="1435" d="M63 780q0 184 49.5 334t136.5 256.5t206.5 164.5t263.5 58q143 0 263 -58t207 -164.5t136 -256t49 -334.5q0 -184 -49 -333.5t-136 -255t-207 -164t-263 -58.5t-263 58.5t-207 164t-136.5 255t-49.5 333.5zM205 782q0 -143 39 -265t108.5 -212t162.5 -141t202 -51t202 51 t162.5 141t108.5 212t39 265t-39 265t-108.5 212.5t-163 141.5t-201.5 51q-109 0 -202 -51t-162.5 -141.5t-108.5 -212.5t-39 -265zM475 541v467q0 168 62.5 237.5t175.5 69.5t175 -68.5t62 -238.5v-123h-164v121q0 86 -15 120.5t-58 34.5t-58.5 -34.5t-15.5 -120.5v-463 q0 -86 15.5 -121t58.5 -35t58 35t15 121v143h164v-145q0 -170 -62.5 -239t-174.5 -69q-113 0 -175.5 70t-62.5 238z" />
<glyph unicode="&#xaa;" horiz-adv-x="608" d="M61 293v573q0 86 4.5 145.5t20.5 96.5t49 54.5t88 17.5q18 0 41 -12.5t44.5 -30t39 -34t25.5 -24.5v82h164v-1161h-138l-26 94q-6 -14 -17.5 -33.5t-28 -36t-37 -27.5t-46.5 -11q-55 0 -91 16t-56.5 52t-28 94.5t-7.5 144.5zM225 295q0 -86 15.5 -121t58.5 -35t58.5 35 t15.5 121v594q0 70 -16.5 100.5t-57.5 30.5q-43 0 -58.5 -35t-15.5 -121v-569z" />
<glyph unicode="&#xab;" horiz-adv-x="655" d="M29 590l149 346h168l-151 -346l151 -342h-168zM295 590l151 346h166l-151 -346l149 -342h-161z" />
<glyph unicode="&#xac;" horiz-adv-x="722" d="M72 301v967q0 94 21.5 157.5t60.5 101.5t93 53t118 15q63 0 117.5 -15t93 -52t60 -100.5t21.5 -159.5v-244h-168v258q0 86 -36.5 121t-87.5 35t-88 -35t-37 -121v-995q0 -86 36.5 -121t88.5 -35q47 0 74.5 12.5t49.5 49.5v512h-139v167h307v-741q-12 -25 -32.5 -53.5 t-54 -51t-84 -38t-121.5 -15.5q-63 0 -117.5 15.5t-93.5 53.5t-60.5 101.5t-21.5 157.5z" />
<glyph unicode="&#xad;" horiz-adv-x="509" d="M49 520v156h408v-156h-408z" />
<glyph unicode="&#xae;" horiz-adv-x="1435" d="M63 780q0 184 49.5 334t136.5 256.5t206.5 164.5t263.5 58q143 0 263 -58t207 -164.5t136 -256t49 -334.5q0 -184 -49 -333.5t-136 -255t-207 -164t-263 -58.5t-263 58.5t-207 164t-136.5 255t-49.5 333.5zM205 782q0 -143 39 -265t108.5 -212t162.5 -141t202 -51t202 51 t162.5 141t108.5 212t39 265t-39 265t-108.5 212.5t-163 141.5t-201.5 51q-109 0 -202 -51t-162.5 -141.5t-108.5 -212.5t-39 -265zM492 213v1094h249q68 0 117 -15.5t82 -52.5t49.5 -100.5t16.5 -159.5v-55q0 -121 -37 -197t-115 -102l113 -412h-166l-105 377h-37v-377 h-167zM659 748h64q59 0 87 34.5t28 120.5v90q0 86 -28 121t-87 35h-64v-401z" />
<glyph unicode="&#xaf;" horiz-adv-x="1089" d="M0 1010v151h113v117q0 168 52 237.5t165 69.5q23 0 42 -3t40 -7v-143h-62q-43 0 -58.5 -35t-15.5 -121v-115h201v117q0 168 52.5 237.5t164.5 69.5q23 0 42.5 -3t39.5 -7v-143h-61q-43 0 -58.5 -35t-15.5 -121v-115h133v-151h-133v-1006h-164v1006h-201v-1006h-163v1006 h-113zM844 0v1571h164v-1571h-164z" />
<glyph unicode="&#xb0;" horiz-adv-x="1376" d="M82 0v1569h192l265 -1098l41 -115l-25 115v1098h168v-1569h-203l-252 1049l-32 108l14 -113v-1044h-168zM840 745v349q0 84 10 142t36.5 95t73 53.5t117.5 16.5q72 0 118 -16.5t72.5 -52.5t37 -94t10.5 -144v-349q0 -86 -10.5 -144t-37 -94t-72.5 -52.5t-118 -16.5 t-118 16.5t-72.5 53.5t-36.5 95t-10 142zM907 154v155h348v-155h-348zM1004 707q0 -86 15 -121t58 -35t58.5 35t15.5 121v426q0 86 -15.5 120.5t-58.5 34.5t-58 -34.5t-15 -120.5v-426z" />
<glyph unicode="&#xb1;" horiz-adv-x="638" d="M49 362v156h537v-156h-537zM53 827v156h191v191h155v-191h191v-156h-191v-190h-155v190h-191z" />
<glyph unicode="&#xb2;" horiz-adv-x="690" d="M41 0v176q0 74 30.5 154t77 162.5t99.5 166.5t99 163t77 153t31 135v156q0 86 -36 120.5t-79 34.5t-79 -34.5t-36 -120.5v-213h-184v215q0 86 25.5 147.5t67.5 101t96.5 59t109.5 19.5t109.5 -19.5t96.5 -60t67.5 -102t25.5 -145.5v-181q0 -70 -29.5 -149.5t-73.5 -163.5 t-96.5 -168t-98.5 -160.5t-77 -143t-35 -118.5h373v-184h-561z" />
<glyph unicode="&#xb3;" horiz-adv-x="724" d="M61 281v221h185v-219q0 -43 10 -70t25.5 -41t37 -19.5t41.5 -5.5q23 0 43.5 5.5t36 19.5t25.5 41t10 70v309q0 43 -19.5 69.5t-47 41t-57 19.5t-52.5 5q-10 0 -19.5 -1t-19.5 -3v176q10 -4 20 -4h19q23 0 52.5 5t57 19.5t47 41t19.5 69.5v258q0 43 -10 69.5t-25.5 41 t-36 19.5t-43.5 5q-20 0 -41.5 -5t-37 -19.5t-25.5 -41t-10 -69.5v-227h-180q-2 16 -3.5 32.5t-1.5 36.5v160q0 84 26 142.5t68 95.5t96 53t109 16t109.5 -16t96.5 -52t67.5 -94.5t25.5 -144.5v-211q0 -51 -7 -90t-28.5 -68.5t-58.5 -53t-98 -46.5q61 -25 98 -52.5t58.5 -60 t28.5 -73.5t7 -92v-262q0 -86 -25.5 -144.5t-67.5 -94.5t-96 -52.5t-110 -16.5q-55 0 -109 16.5t-96 53.5t-68 95.5t-26 142.5z" />
<glyph unicode="&#xb4;" horiz-adv-x="241" d="M0 1315l90 207h186l-126 -207h-150z" />
<glyph unicode="&#xb5;" horiz-adv-x="1404" d="M104 0v1184h1184v-1184h-1184zM109 1305v53q0 39 13 53t40 14q35 0 46 -16t11 -49v-17h-47v31q0 14 -2 17.5t-6 3.5q-8 0 -8 -23v-84q0 -14 1 -17t7 -3q4 0 6 3t2 19v25h47v-8q0 -35 -11 -52.5t-44 -17.5t-44 15.5t-11 52.5zM225 1241l23 180h67l29 -180h-49l-2 33h-17 l-4 -33h-47zM266 584l207 -160q4 -4 11.5 -17.5t11.5 -29.5q-4 -10 -11.5 -24.5t-35.5 -43.5l206 45q10 -4 18.5 -9t8.5 -9q0 -2 -2 -4v-207h45v207q-2 2 -2 6q0 8 25 16l206 -45q-25 29 -34 45.5t-13 22.5q4 16 11.5 29.5t11.5 17.5l184 160h-22q-6 6 -11.5 12t-13.5 10 l47 139l-115 -24q-8 4 -13 11t-9 13l-23 46l-92 -93q-8 -10 -13 -14t-9 -8q-18 8 -23 22l68 230l-68 -23q-4 -2 -14 -8t-10 -12v-2q-10 6 -13.5 9t-9.5 13l-68 137l-69 -137q-4 -10 -9.5 -13t-13.5 -9q0 6 -9 13t-13 9l-47 23l47 -230l-25 -22q-6 6 -11 9t-11 13l-92 93 l-23 -46l-12 -15q-4 -5 -11 -9l-114 24l45 -139q-10 -8 -23 -22h-45zM276 1305h15q-2 14 -3 32.5t-3 40.5q-4 -25 -6.5 -43t-2.5 -30zM352 1241v180h37l27 -82v82h41v-180h-41l-25 82v-82h-39zM465 1241l22 180h68l29 -180h-49l-3 33h-18l-2 -33h-47zM514 1305h16 q-2 29 -6 77q-4 -27 -6 -46t-4 -31zM590 1241v180h35q27 0 41 -2t21 -8t9 -18.5t2 -34.5v-64q0 -41 -10 -47t-39 -6h-59zM637 1272q10 0 12 3t2 21v72q0 16 -2 19.5t-12 3.5v-119zM707 1241l22 180h68l28 -180h-49l-2 33h-16l-4 -33h-47zM758 1305h14q-2 29 -6 77 q-4 -27 -6 -46t-2 -31zM864 1384v37h103v-37h-27v-143h-47v143h-29zM969 1421h41q10 -49 12 -67q2 14 5 30.5t7 36.5h43l-33 -116v-64h-43v64zM1085 1241v180h48q39 0 47 -10t8 -41v-14q0 -25 -9.5 -33t-33.5 -8h-12v-74h-48zM1133 1343h4q12 0 12 17v16q0 14 -16 15v-48z M1200 1241v180h80v-37h-33v-32h31v-35h-31v-41h35v-35h-82z" />
<glyph unicode="&#xb6;" horiz-adv-x="798" d="M59 831v410q0 104 15.5 168t49.5 99.5t87 48t127 12.5h379v-1747h-127v1626h-101v-1628h-127v684h-24q-74 0 -127 12t-87 48t-49.5 99.5t-15.5 167.5z" />
<glyph unicode="&#xb7;" horiz-adv-x="790" d="M0 1010v151h92v287h164v-287h225v287h164v-287h133v-151h-133v-717q0 -86 15.5 -121t58.5 -35h61v-143q-20 -4 -39.5 -7t-42.5 -3q-113 0 -165 69.5t-52 237.5v719h-225v-717q0 -86 15.5 -121t58.5 -35h61v-143q-20 -4 -39.5 -7t-42.5 -3q-113 0 -165 69.5t-52 237.5v719 h-92z" />
<glyph unicode="&#xb8;" horiz-adv-x="333" d="M53 -170l86 215h135l-124 -215h-97z" />
<glyph unicode="&#xb9;" horiz-adv-x="512" d="M10 1286v182l260 101h160v-1569h-184v1362z" />
<glyph unicode="&#xba;" horiz-adv-x="598" d="M61 821v348q0 84 10.5 142.5t37 95.5t72.5 53.5t118 16.5t118 -16.5t72.5 -52.5t37 -94.5t10.5 -144.5v-348q0 -86 -10.5 -144.5t-37 -94t-72.5 -52t-118 -16.5t-118 16.5t-72.5 53.5t-37 95t-10.5 142zM129 229v156h348v-156h-348zM225 782q0 -86 15.5 -120.5 t58.5 -34.5t58.5 34.5t15.5 120.5v426q0 86 -15.5 121t-58.5 35t-58.5 -35t-15.5 -121v-426z" />
<glyph unicode="&#xbb;" horiz-adv-x="657" d="M41 936h166l151 -346l-153 -342h-162l150 342zM307 248l152 342l-152 346h168l150 -346l-150 -342h-168z" />
<glyph unicode="&#xbf;" horiz-adv-x="679" d="M59 -115v232q0 66 10.5 118t37 92t72.5 67.5t116 39.5v434h168v-583q-10 4 -20 4h-19q-20 0 -54 -5t-66 -19.5t-54.5 -41t-22.5 -69.5v-283q0 -43 10.5 -69.5t26 -41t37 -19.5t41.5 -5q23 0 43.5 5t35.5 19.5t25.5 41t10.5 69.5v244h168v-230q0 -168 -73 -237.5 t-210 -69.5t-210 68.5t-73 238.5zM266 1096q0 47 35 72.5t78 25.5q41 0 72.5 -33t31.5 -71q0 -51 -33.5 -78t-78.5 -27q-53 0 -79 32t-26 79z" />
<glyph unicode="&#xc0;" horiz-adv-x="649" d="M0 0l211 1569h225l213 -1569h-168l-43 369h-227l-43 -369h-168zM233 537h183l-84 751q0 29 -2 56.5t-6 56.5q-6 -55 -7 -113zM123 1932h186l94 -207h-151z" />
<glyph unicode="&#xc1;" horiz-adv-x="649" d="M0 0l211 1569h225l213 -1569h-168l-43 369h-227l-43 -369h-168zM233 537h183l-84 751q0 29 -2 56.5t-6 56.5q-6 -55 -7 -113zM268 1725l90 207h186l-126 -207h-150z" />
<glyph unicode="&#xc2;" horiz-adv-x="649" d="M0 0l211 1569h225l213 -1569h-168l-43 369h-227l-43 -369h-168zM233 537h183l-84 751q0 29 -2 56.5t-6 56.5q-6 -55 -7 -113zM94 1688l113 248h225l121 -248h-149l-80 168l-74 -168h-156z" />
<glyph unicode="&#xc3;" horiz-adv-x="649" d="M0 0l211 1569h225l213 -1569h-168l-43 369h-227l-43 -369h-168zM233 537h183l-84 751q0 29 -2 56.5t-6 56.5q-6 -55 -7 -113zM113 1766q2 10 7 31.5t18.5 43t38 38t63.5 16.5q35 0 78 -15.5t71 -15.5q41 0 54.5 14.5t13.5 16.5l78 -2q0 -31 -11.5 -61.5t-30 -55.5 t-42 -39t-49.5 -14q-35 0 -73 17.5t-69 17.5q-66 0 -73 -33z" />
<glyph unicode="&#xc4;" horiz-adv-x="649" d="M0 0l211 1569h225l213 -1569h-168l-43 369h-227l-43 -369h-168zM233 537h183l-84 751q0 29 -2 56.5t-6 56.5q-6 -55 -7 -113zM80 1792q0 51 34 78t79 27q53 0 78.5 -32t25.5 -79t-34.5 -72.5t-77.5 -25.5q-41 0 -73 32.5t-32 71.5zM350 1792q0 51 34 78t79 27 q53 0 79 -32t26 -79t-35 -72.5t-78 -25.5q-41 0 -73 32.5t-32 71.5z" />
<glyph unicode="&#xc5;" horiz-adv-x="649" d="M0 0l211 1569h225l213 -1569h-168l-43 369h-227l-43 -369h-168zM233 537h183l-84 751q0 29 -2 56.5t-6 56.5q-6 -55 -7 -113zM152 1809q0 29 11 58.5t34 55t55.5 42t75.5 16.5t75 -17.5t53.5 -43t31.5 -56.5t10 -57q0 -27 -11 -57.5t-34 -57.5t-54.5 -43t-74.5 -16 q-78 0 -125 52t-47 124zM252 1807q0 -37 23.5 -55.5t52.5 -18.5t51.5 22.5t20.5 53.5q0 29 -22.5 51.5t-53.5 22.5q-31 -2 -51.5 -24.5t-20.5 -51.5z" />
<glyph unicode="&#xc6;" horiz-adv-x="974" d="M0 0l406 1569h538v-168h-291v-527h277v-167h-277v-539h291v-168h-465l6 369h-225l-94 -369h-166zM299 537h186v778z" />
<glyph unicode="&#xc7;" horiz-adv-x="698" d="M72 301v967q0 94 25.5 157.5t65.5 101.5t91 53t100 15t100.5 -15t91.5 -52t65.5 -100.5t25.5 -159.5v-246h-168v260q0 86 -36 121t-79 35t-78.5 -35t-35.5 -121v-995q0 -86 35.5 -121t78.5 -35t79 35t36 121v237h168v-223q0 -82 -18.5 -139.5t-50 -95t-71.5 -58 t-83 -28.5l-101 -177h-96l70 177q-41 8 -80 29.5t-68.5 60.5t-48 95t-18.5 136z" />
<glyph unicode="&#xc8;" horiz-adv-x="571" d="M82 0v1569h459v-168h-291v-527h276v-167h-276v-539h291v-168h-459zM125 1932h186l94 -207h-151z" />
<glyph unicode="&#xc9;" horiz-adv-x="571" d="M82 0v1569h459v-168h-291v-527h276v-167h-276v-539h291v-168h-459zM229 1725l90 207h186l-126 -207h-150z" />
<glyph unicode="&#xca;" horiz-adv-x="571" d="M82 0v1569h459v-168h-291v-527h276v-167h-276v-539h291v-168h-459zM84 1688l113 248h225l121 -248h-149l-80 168l-74 -168h-156z" />
<glyph unicode="&#xcb;" horiz-adv-x="571" d="M82 0v1569h459v-168h-291v-527h276v-167h-276v-539h291v-168h-459zM65 1792q0 51 34 78t79 27q53 0 78.5 -32t25.5 -79t-34.5 -72.5t-77.5 -25.5q-41 0 -73 32.5t-32 71.5zM335 1792q0 51 34 78t79 27q53 0 79 -32t26 -79t-35 -72.5t-78 -25.5q-41 0 -73 32.5t-32 71.5z " />
<glyph unicode="&#xcc;" horiz-adv-x="331" d="M82 0v1569h168v-1569h-168zM-16 1932h186l94 -207h-151z" />
<glyph unicode="&#xcd;" horiz-adv-x="331" d="M82 0v1569h168v-1569h-168zM88 1725l90 207h186l-126 -207h-150z" />
<glyph unicode="&#xce;" horiz-adv-x="331" d="M82 0v1569h168v-1569h-168zM-60 1688l113 248h225l121 -248h-149l-80 168l-74 -168h-156z" />
<glyph unicode="&#xcf;" horiz-adv-x="331" d="M82 0v1569h168v-1569h-168zM-74 1792q0 51 34 78t79 27q53 0 78.5 -32t25.5 -79t-34.5 -72.5t-77.5 -25.5q-41 0 -73 32.5t-32 71.5zM196 1792q0 51 34 78t79 27q53 0 79 -32t26 -79t-35 -72.5t-78 -25.5q-41 0 -73 32.5t-32 71.5z" />
<glyph unicode="&#xd0;" d="M0 719v155h82v695h276q68 0 119 -15.5t87 -52.5t54.5 -100.5t18.5 -159.5v-913q0 -96 -18.5 -160t-54.5 -100.5t-87 -52t-119 -15.5h-276v719h-82zM250 158h104q59 0 87 34.5t28 120.5v942q0 86 -27.5 121t-87.5 35h-104v-537h117v-155h-117v-561z" />
<glyph unicode="&#xd1;" horiz-adv-x="804" d="M82 0v1569h192l265 -1098l41 -115l-25 115v1098h168v-1569h-203l-252 1049l-32 108l14 -113v-1044h-168zM190 1765q2 10 7.5 32t18.5 43.5t38 37.5t63 16q35 0 78 -15t72 -15q41 0 54.5 14t13.5 16l77 -2q0 -31 -11 -61.5t-29.5 -55t-42 -39t-50.5 -14.5 q-35 0 -72.5 17.5t-68.5 17.5q-66 0 -74 -33z" />
<glyph unicode="&#xd2;" d="M72 301v967q0 94 25.5 157.5t65.5 101.5t91 53t100 15q55 0 105.5 -15t90.5 -52t63.5 -100.5t23.5 -159.5v-967q0 -96 -25.5 -159.5t-65.5 -100.5t-91.5 -52.5t-100.5 -15.5t-100 15.5t-91 53.5t-65.5 101.5t-25.5 157.5zM240 287q0 -86 35.5 -121t78.5 -35t79 35t36 121 v995q0 86 -36 121t-79 35t-78.5 -35t-35.5 -121v-995zM173 1932h186l94 -207h-151z" />
<glyph unicode="&#xd3;" d="M72 301v967q0 94 25.5 157.5t65.5 101.5t91 53t100 15q55 0 105.5 -15t90.5 -52t63.5 -100.5t23.5 -159.5v-967q0 -96 -25.5 -159.5t-65.5 -100.5t-91.5 -52.5t-100.5 -15.5t-100 15.5t-91 53.5t-65.5 101.5t-25.5 157.5zM240 287q0 -86 35.5 -121t78.5 -35t79 35t36 121 v995q0 86 -36 121t-79 35t-78.5 -35t-35.5 -121v-995zM274 1725l90 207h186l-126 -207h-150z" />
<glyph unicode="&#xd4;" d="M72 301v967q0 94 25.5 157.5t65.5 101.5t91 53t100 15q55 0 105.5 -15t90.5 -52t63.5 -100.5t23.5 -159.5v-967q0 -96 -25.5 -159.5t-65.5 -100.5t-91.5 -52.5t-100.5 -15.5t-100 15.5t-91 53.5t-65.5 101.5t-25.5 157.5zM240 287q0 -86 35.5 -121t78.5 -35t79 35t36 121 v995q0 86 -36 121t-79 35t-78.5 -35t-35.5 -121v-995zM125 1688l113 248h225l121 -248h-149l-80 168l-74 -168h-156z" />
<glyph unicode="&#xd5;" d="M72 301v967q0 94 25.5 157.5t65.5 101.5t91 53t100 15q55 0 105.5 -15t90.5 -52t63.5 -100.5t23.5 -159.5v-967q0 -96 -25.5 -159.5t-65.5 -100.5t-91.5 -52.5t-100.5 -15.5t-100 15.5t-91 53.5t-65.5 101.5t-25.5 157.5zM240 287q0 -86 35.5 -121t78.5 -35t79 35t36 121 v995q0 86 -36 121t-79 35t-78.5 -35t-35.5 -121v-995zM143 1766q2 10 7 31.5t18.5 43t38 38t63.5 16.5q35 0 78 -15.5t71 -15.5q41 0 54.5 14.5t13.5 16.5l78 -2q0 -31 -11.5 -61.5t-30 -55.5t-42 -39t-49.5 -14q-35 0 -73 17.5t-69 17.5q-66 0 -73 -33z" />
<glyph unicode="&#xd6;" d="M72 301v967q0 94 25.5 157.5t65.5 101.5t91 53t100 15q55 0 105.5 -15t90.5 -52t63.5 -100.5t23.5 -159.5v-967q0 -96 -25.5 -159.5t-65.5 -100.5t-91.5 -52.5t-100.5 -15.5t-100 15.5t-91 53.5t-65.5 101.5t-25.5 157.5zM240 287q0 -86 35.5 -121t78.5 -35t79 35t36 121 v995q0 86 -36 121t-79 35t-78.5 -35t-35.5 -121v-995zM110 1792q0 51 34 78t79 27q53 0 78.5 -32t25.5 -79t-34.5 -72.5t-77.5 -25.5q-41 0 -73 32.5t-32 71.5zM380 1792q0 51 34 78t79 27q53 0 79 -32t26 -79t-35 -72.5t-78 -25.5q-41 0 -73 32.5t-32 71.5z" />
<glyph unicode="&#xd7;" horiz-adv-x="593" d="M45 891l107 113l139 -132l131 138l113 -107l-132 -139l138 -131l-107 -113l-139 131l-131 -137l-113 107l131 139z" />
<glyph unicode="&#xd8;" d="M72 301v967q0 94 25.5 157.5t65.5 101.5t91 53t100 15q33 0 64 -5t59 -17l23 102h75l-30 -143q41 -37 66.5 -101.5t25.5 -162.5v-967q0 -96 -25.5 -159.5t-65.5 -100.5t-91.5 -52.5t-100.5 -15.5q-35 0 -69.5 7.5t-67.5 23.5l-22 -113h-76l33 160q-35 39 -57.5 99.5 t-22.5 150.5zM240 459l198 936q-16 23 -38.5 33t-45.5 10q-43 0 -78.5 -35t-35.5 -121v-823zM258 190q16 -33 42 -46t54 -13q43 0 79 35t36 121v891z" />
<glyph unicode="&#xd9;" horiz-adv-x="716" d="M76 301v1268h168v-1295q0 -86 35.5 -120.5t78.5 -34.5t79 34.5t36 120.5v1295h168v-1268q0 -96 -25.5 -159.5t-65.5 -100.5t-91 -52.5t-101 -15.5q-49 0 -100 15.5t-91 53.5t-65.5 101.5t-25.5 157.5zM162 1932h186l94 -207h-151z" />
<glyph unicode="&#xda;" horiz-adv-x="716" d="M76 301v1268h168v-1295q0 -86 35.5 -120.5t78.5 -34.5t79 34.5t36 120.5v1295h168v-1268q0 -96 -25.5 -159.5t-65.5 -100.5t-91 -52.5t-101 -15.5q-49 0 -100 15.5t-91 53.5t-65.5 101.5t-25.5 157.5zM281 1725l90 207h186l-126 -207h-150z" />
<glyph unicode="&#xdb;" horiz-adv-x="716" d="M76 301v1268h168v-1295q0 -86 35.5 -120.5t78.5 -34.5t79 34.5t36 120.5v1295h168v-1268q0 -96 -25.5 -159.5t-65.5 -100.5t-91 -52.5t-101 -15.5q-49 0 -100 15.5t-91 53.5t-65.5 101.5t-25.5 157.5zM129 1688l113 248h225l121 -248h-149l-80 168l-74 -168h-156z" />
<glyph unicode="&#xdc;" horiz-adv-x="716" d="M76 301v1268h168v-1295q0 -86 35.5 -120.5t78.5 -34.5t79 34.5t36 120.5v1295h168v-1268q0 -96 -25.5 -159.5t-65.5 -100.5t-91 -52.5t-101 -15.5q-49 0 -100 15.5t-91 53.5t-65.5 101.5t-25.5 157.5zM115 1792q0 51 34 78t79 27q53 0 78.5 -32t25.5 -79t-34.5 -72.5 t-77.5 -25.5q-41 0 -73 32.5t-32 71.5zM385 1792q0 51 34 78t79 27q53 0 79 -32t26 -79t-35 -72.5t-78 -25.5q-41 0 -73 32.5t-32 71.5z" />
<glyph unicode="&#xdd;" horiz-adv-x="651" d="M0 1571h170l145 -692l166 694h170l-250 -1006v-567h-184v565zM266 1724l90 207h187l-127 -207h-150z" />
<glyph unicode="&#xde;" horiz-adv-x="677" d="M82 0v1569h168v-342h108q68 0 119 -15.5t87 -52.5t54.5 -100.5t18.5 -159.5v-242q0 -96 -18.5 -159.5t-54.5 -100.5t-87 -52t-119 -15h-108v-330h-168zM250 481h104q59 0 87 35t28 121v283q0 86 -27.5 120.5t-87.5 34.5h-104v-594z" />
<glyph unicode="&#xdf;" horiz-adv-x="727" d="M0 1006v151h113v133q0 168 69.5 237.5t206.5 69.5q129 0 197.5 -61t68.5 -213q0 -80 -28.5 -144.5t-106.5 -86.5q90 -33 116 -105t26 -174v-532q0 -86 -17.5 -144.5t-49.5 -94.5t-74 -52.5t-91 -16.5h-45v148h4q23 0 43.5 5t35.5 19.5t25.5 41t10.5 69.5v621 q0 35 -13.5 58t-34 38.5t-45 25t-46.5 11.5v143q23 4 47 11t44.5 22.5t34 40t13.5 59.5v29q0 43 -10.5 69.5t-25.5 41t-35.5 19.5t-43.5 5q-20 0 -40.5 -6t-37 -25.5t-26 -57.5t-9.5 -101v-1260h-163v1006h-113z" />
<glyph unicode="&#xe0;" horiz-adv-x="602" d="M61 293v80q0 170 50.5 240.5t128.5 70.5h133v176q0 86 -15.5 121t-58.5 35t-58.5 -35t-15.5 -121v-69h-164v71q0 170 62.5 238.5t175.5 68.5t175.5 -69.5t62.5 -237.5v-862h-138l-26 94q-6 -14 -17.5 -33.5t-28 -36t-37 -27.5t-46.5 -11q-55 0 -91 16t-56.5 52t-28 94.5 t-7.5 144.5zM225 295q0 -86 15.5 -121t58.5 -35t58.5 35t15.5 121v272h-74q-43 0 -58.5 -55t-15.5 -141v-76zM119 1522h186l94 -207h-151z" />
<glyph unicode="&#xe1;" horiz-adv-x="602" d="M61 293v80q0 170 50.5 240.5t128.5 70.5h133v176q0 86 -15.5 121t-58.5 35t-58.5 -35t-15.5 -121v-69h-164v71q0 170 62.5 238.5t175.5 68.5t175.5 -69.5t62.5 -237.5v-862h-138l-26 94q-6 -14 -17.5 -33.5t-28 -36t-37 -27.5t-46.5 -11q-55 0 -91 16t-56.5 52t-28 94.5 t-7.5 144.5zM225 295q0 -86 15.5 -121t58.5 -35t58.5 35t15.5 121v272h-74q-43 0 -58.5 -55t-15.5 -141v-76zM221 1315l90 207h186l-126 -207h-150z" />
<glyph unicode="&#xe2;" horiz-adv-x="602" d="M61 293v80q0 170 50.5 240.5t128.5 70.5h133v176q0 86 -15.5 121t-58.5 35t-58.5 -35t-15.5 -121v-69h-164v71q0 170 62.5 238.5t175.5 68.5t175.5 -69.5t62.5 -237.5v-862h-138l-26 94q-6 -14 -17.5 -33.5t-28 -36t-37 -27.5t-46.5 -11q-55 0 -91 16t-56.5 52t-28 94.5 t-7.5 144.5zM225 295q0 -86 15.5 -121t58.5 -35t58.5 35t15.5 121v272h-74q-43 0 -58.5 -55t-15.5 -141v-76zM71 1278l113 248h225l121 -248h-149l-80 168l-74 -168h-156z" />
<glyph unicode="&#xe3;" horiz-adv-x="602" d="M61 293v80q0 170 50.5 240.5t128.5 70.5h133v176q0 86 -15.5 121t-58.5 35t-58.5 -35t-15.5 -121v-69h-164v71q0 170 62.5 238.5t175.5 68.5t175.5 -69.5t62.5 -237.5v-862h-138l-26 94q-6 -14 -17.5 -33.5t-28 -36t-37 -27.5t-46.5 -11q-55 0 -91 16t-56.5 52t-28 94.5 t-7.5 144.5zM225 295q0 -86 15.5 -121t58.5 -35t58.5 35t15.5 121v272h-74q-43 0 -58.5 -55t-15.5 -141v-76zM90 1356q2 10 7 31.5t18.5 43t38 38t63.5 16.5q35 0 78 -15.5t71 -15.5q41 0 54.5 14.5t13.5 16.5l78 -2q0 -31 -11.5 -61.5t-30 -55.5t-42 -39t-49.5 -14 q-35 0 -73 17.5t-69 17.5q-66 0 -73 -33z" />
<glyph unicode="&#xe4;" horiz-adv-x="602" d="M61 293v80q0 170 50.5 240.5t128.5 70.5h133v176q0 86 -15.5 121t-58.5 35t-58.5 -35t-15.5 -121v-69h-164v71q0 170 62.5 238.5t175.5 68.5t175.5 -69.5t62.5 -237.5v-862h-138l-26 94q-6 -14 -17.5 -33.5t-28 -36t-37 -27.5t-46.5 -11q-55 0 -91 16t-56.5 52t-28 94.5 t-7.5 144.5zM225 295q0 -86 15.5 -121t58.5 -35t58.5 35t15.5 121v272h-74q-43 0 -58.5 -55t-15.5 -141v-76zM57 1382q0 51 34 78t79 27q53 0 78.5 -32t25.5 -79t-34.5 -72.5t-77.5 -25.5q-41 0 -73 32.5t-32 71.5zM327 1382q0 51 34 78t79 27q53 0 79 -32t26 -79t-35 -72.5 t-78 -25.5q-41 0 -73 32.5t-32 71.5z" />
<glyph unicode="&#xe5;" horiz-adv-x="602" d="M61 293v80q0 170 50.5 240.5t128.5 70.5h133v176q0 86 -15.5 121t-58.5 35t-58.5 -35t-15.5 -121v-69h-164v71q0 170 62.5 238.5t175.5 68.5t175.5 -69.5t62.5 -237.5v-862h-138l-26 94q-6 -14 -17.5 -33.5t-28 -36t-37 -27.5t-46.5 -11q-55 0 -91 16t-56.5 52t-28 94.5 t-7.5 144.5zM225 295q0 -86 15.5 -121t58.5 -35t58.5 35t15.5 121v272h-74q-43 0 -58.5 -55t-15.5 -141v-76zM127 1399q0 29 11 58.5t34 55t55.5 42t75.5 16.5t75 -17.5t53.5 -43t31.5 -56.5t10 -57q0 -27 -11 -57.5t-34 -57.5t-54.5 -43t-74.5 -16q-78 0 -125 52t-47 124z M227 1397q0 -37 23.5 -55.5t52.5 -18.5t51.5 22.5t20.5 53.5q0 29 -22.5 51.5t-53.5 22.5q-31 -2 -51.5 -24.5t-20.5 -51.5z" />
<glyph unicode="&#xe6;" horiz-adv-x="901" d="M61 293v80q0 170 50.5 240.5t128.5 70.5h133v176q0 86 -15.5 121t-58.5 35t-58.5 -35t-15.5 -121v-69h-164v71q0 170 62.5 238.5t175.5 68.5q98 0 156 -51q57 51 157 51q113 0 175.5 -68.5t62.5 -238.5v-348h-311v-223q0 -86 15 -121t58 -35t58.5 35t15.5 121v92h164v-94 q0 -170 -62.5 -238.5t-175.5 -68.5q-86 0 -142 33.5t-79 125.5q-27 -66 -60.5 -110.5t-86.5 -44.5q-55 0 -91 16t-56.5 52t-28 94.5t-7.5 144.5zM225 295q0 -86 15.5 -121t58.5 -35t58.5 35t15.5 121v272h-74q-43 0 -58.5 -55t-15.5 -141v-76zM539 666h147v194 q0 86 -15.5 121t-58.5 35t-58 -35t-15 -121v-194z" />
<glyph unicode="&#xe7;" horiz-adv-x="587" d="M61 289v590q0 168 62.5 237.5t175.5 69.5t175.5 -68.5t62.5 -238.5v-144h-164v142q0 86 -15.5 120.5t-58.5 34.5t-58.5 -34.5t-15.5 -120.5v-586q0 -86 15.5 -121t58.5 -35t58.5 35t15.5 121v164h164v-166q0 -141 -44 -212t-124 -87l-105 -183h-96l72 181 q-86 16 -132.5 86t-46.5 215z" />
<glyph unicode="&#xe8;" horiz-adv-x="587" d="M61 289v573q0 168 62.5 237.5t175.5 69.5t175.5 -68.5t62.5 -238.5v-348h-312v-223q0 -86 15.5 -121t58.5 -35t58.5 35t15.5 121v92h164v-94q0 -170 -62.5 -238.5t-175.5 -68.5t-175.5 69.5t-62.5 237.5zM225 666h148v194q0 86 -15.5 121t-58.5 35t-58.5 -35t-15.5 -121 v-194zM113 1522h186l94 -207h-151z" />
<glyph unicode="&#xe9;" horiz-adv-x="587" d="M61 289v573q0 168 62.5 237.5t175.5 69.5t175.5 -68.5t62.5 -238.5v-348h-312v-223q0 -86 15.5 -121t58.5 -35t58.5 35t15.5 121v92h164v-94q0 -170 -62.5 -238.5t-175.5 -68.5t-175.5 69.5t-62.5 237.5zM225 666h148v194q0 86 -15.5 121t-58.5 35t-58.5 -35t-15.5 -121 v-194zM217 1315l90 207h186l-126 -207h-150z" />
<glyph unicode="&#xea;" horiz-adv-x="587" d="M61 289v573q0 168 62.5 237.5t175.5 69.5t175.5 -68.5t62.5 -238.5v-348h-312v-223q0 -86 15.5 -121t58.5 -35t58.5 35t15.5 121v92h164v-94q0 -170 -62.5 -238.5t-175.5 -68.5t-175.5 69.5t-62.5 237.5zM225 666h148v194q0 86 -15.5 121t-58.5 35t-58.5 -35t-15.5 -121 v-194zM63 1278l113 248h225l121 -248h-149l-80 168l-74 -168h-156z" />
<glyph unicode="&#xeb;" horiz-adv-x="587" d="M61 289v573q0 168 62.5 237.5t175.5 69.5t175.5 -68.5t62.5 -238.5v-348h-312v-223q0 -86 15.5 -121t58.5 -35t58.5 35t15.5 121v92h164v-94q0 -170 -62.5 -238.5t-175.5 -68.5t-175.5 69.5t-62.5 237.5zM225 666h148v194q0 86 -15.5 121t-58.5 35t-58.5 -35t-15.5 -121 v-194zM49 1382q0 51 34 78t79 27q53 0 78.5 -32t25.5 -79t-34.5 -72.5t-77.5 -25.5q-41 0 -73 32.5t-32 71.5zM319 1382q0 51 34 78t79 27q53 0 79 -32t26 -79t-35 -72.5t-78 -25.5q-41 0 -73 32.5t-32 71.5z" />
<glyph unicode="&#xec;" horiz-adv-x="305" d="M70 0v1161h163v-1161h-163zM-45 1522h186l94 -207h-151z" />
<glyph unicode="&#xed;" horiz-adv-x="305" d="M70 0v1161h163v-1161h-163zM76 1315l90 207h186l-126 -207h-150z" />
<glyph unicode="&#xee;" horiz-adv-x="305" d="M70 0v1161h163v-1161h-163zM-72 1278l113 248h225l121 -248h-149l-80 168l-74 -168h-156z" />
<glyph unicode="&#xef;" horiz-adv-x="305" d="M70 0v1161h163v-1161h-163zM-86 1382q0 51 34 78t79 27q53 0 78.5 -32t25.5 -79t-34.5 -72.5t-77.5 -25.5q-41 0 -73 32.5t-32 71.5zM184 1382q0 51 34 78t79 27q53 0 79 -32t26 -79t-35 -72.5t-78 -25.5q-41 0 -73 32.5t-32 71.5z" />
<glyph unicode="&#xf0;" horiz-adv-x="608" d="M61 289v573q0 168 42 237.5t155 69.5q53 0 75.5 -3t39.5 -7v127h-80v111h78q-4 37 -20.5 56.5t-51.5 19.5h-102v102q25 2 44 4t36.5 3t37 2t45.5 1q68 0 113 -45t57 -143h70v-111h-63v-8v-989q0 -86 -10.5 -144.5t-37 -94.5t-72.5 -52t-118 -16t-118 16t-72.5 53 t-37 95.5t-10.5 142.5zM225 291q0 -86 15.5 -121t58.5 -35t58.5 35t15.5 121v594q0 72 -16.5 101.5t-57.5 29.5q-43 0 -58.5 -35t-15.5 -121v-569z" />
<glyph unicode="&#xf1;" horiz-adv-x="612" d="M72 0v1161h137l27 -94q6 16 17 34.5t27.5 35t37 28t47.5 11.5q55 0 91 -16.5t56 -52.5t27.5 -94.5t7.5 -144.5v-868h-164v866q0 86 -15.5 121t-58.5 35t-58 -35t-15 -121v-866h-164zM94 1356q2 10 7 31.5t18.5 43t38 38t63.5 16.5q35 0 78 -15.5t72 -15.5q41 0 54 14.5 t13 16.5l78 -2q0 -31 -11 -61.5t-29.5 -55.5t-42 -39t-50.5 -14q-35 0 -73 17.5t-68 17.5q-66 0 -74 -33z" />
<glyph unicode="&#xf2;" horiz-adv-x="598" d="M61 289v573q0 168 62.5 237.5t175.5 69.5t175.5 -68.5t62.5 -238.5v-573q0 -170 -62.5 -238.5t-175.5 -68.5t-175.5 69.5t-62.5 237.5zM225 291q0 -86 15.5 -121t58.5 -35t58.5 35t15.5 121v569q0 86 -15.5 121t-58.5 35t-58.5 -35t-15.5 -121v-569zM117 1522h186 l94 -207h-151z" />
<glyph unicode="&#xf3;" horiz-adv-x="598" d="M61 289v573q0 168 62.5 237.5t175.5 69.5t175.5 -68.5t62.5 -238.5v-573q0 -170 -62.5 -238.5t-175.5 -68.5t-175.5 69.5t-62.5 237.5zM225 291q0 -86 15.5 -121t58.5 -35t58.5 35t15.5 121v569q0 86 -15.5 121t-58.5 35t-58.5 -35t-15.5 -121v-569zM215 1315l90 207h186 l-126 -207h-150z" />
<glyph unicode="&#xf4;" horiz-adv-x="598" d="M61 289v573q0 168 62.5 237.5t175.5 69.5t175.5 -68.5t62.5 -238.5v-573q0 -170 -62.5 -238.5t-175.5 -68.5t-175.5 69.5t-62.5 237.5zM225 291q0 -86 15.5 -121t58.5 -35t58.5 35t15.5 121v569q0 86 -15.5 121t-58.5 35t-58.5 -35t-15.5 -121v-569zM69 1278l113 248h225 l121 -248h-149l-80 168l-74 -168h-156z" />
<glyph unicode="&#xf5;" horiz-adv-x="598" d="M61 289v573q0 168 62.5 237.5t175.5 69.5t175.5 -68.5t62.5 -238.5v-573q0 -170 -62.5 -238.5t-175.5 -68.5t-175.5 69.5t-62.5 237.5zM225 291q0 -86 15.5 -121t58.5 -35t58.5 35t15.5 121v569q0 86 -15.5 121t-58.5 35t-58.5 -35t-15.5 -121v-569zM88 1356q2 10 7 31.5 t18.5 43t38 38t63.5 16.5q35 0 78 -15.5t71 -15.5q41 0 54.5 14.5t13.5 16.5l78 -2q0 -31 -11.5 -61.5t-30 -55.5t-42 -39t-49.5 -14q-35 0 -73 17.5t-69 17.5q-66 0 -73 -33z" />
<glyph unicode="&#xf6;" horiz-adv-x="598" d="M61 289v573q0 168 62.5 237.5t175.5 69.5t175.5 -68.5t62.5 -238.5v-573q0 -170 -62.5 -238.5t-175.5 -68.5t-175.5 69.5t-62.5 237.5zM225 291q0 -86 15.5 -121t58.5 -35t58.5 35t15.5 121v569q0 86 -15.5 121t-58.5 35t-58.5 -35t-15.5 -121v-569zM55 1382q0 51 34 78 t79 27q53 0 78.5 -32t25.5 -79t-34.5 -72.5t-77.5 -25.5q-41 0 -73 32.5t-32 71.5zM325 1382q0 51 34 78t79 27q53 0 79 -32t26 -79t-35 -72.5t-78 -25.5q-41 0 -73 32.5t-32 71.5z" />
<glyph unicode="&#xf7;" horiz-adv-x="638" d="M53 684v156h537v-156h-537zM211 438q0 51 34 78t79 27q53 0 78.5 -32t25.5 -79t-35 -72.5t-78 -25.5q-41 0 -72.5 32.5t-31.5 71.5zM215 1075q0 51 34 78t79 27q53 0 78.5 -32t25.5 -79t-35 -72.5t-78 -25.5q-41 0 -72.5 32.5t-31.5 71.5z" />
<glyph unicode="&#xf8;" horiz-adv-x="598" d="M61 289v573q0 168 62.5 237.5t175.5 69.5q25 0 47.5 -4t42.5 -10l21 100h75l-28 -137q39 -35 59.5 -96t20.5 -160v-573q0 -170 -62.5 -238.5t-175.5 -68.5q-43 0 -84 10l-20 -101h-76l28 136q-43 35 -64.5 98.5t-21.5 163.5zM225 391l127 598q-14 27 -53 27 q-43 0 -58.5 -35t-15.5 -121v-469zM250 154q16 -18 49 -19q43 0 58.5 35t15.5 121v434z" />
<glyph unicode="&#xf9;" horiz-adv-x="612" d="M66 293v868h163v-866q0 -86 15.5 -121t58.5 -35t58.5 35t15.5 121v866h164v-1161h-138l-26 94q-6 -14 -17.5 -33.5t-28 -36t-37 -27.5t-46.5 -11q-55 0 -91 16t-56.5 52t-27.5 94.5t-7 144.5zM115 1522h186l94 -207h-151z" />
<glyph unicode="&#xfa;" horiz-adv-x="612" d="M66 293v868h163v-866q0 -86 15.5 -121t58.5 -35t58.5 35t15.5 121v866h164v-1161h-138l-26 94q-6 -14 -17.5 -33.5t-28 -36t-37 -27.5t-46.5 -11q-55 0 -91 16t-56.5 52t-27.5 94.5t-7 144.5zM225 1315l90 207h186l-126 -207h-150z" />
<glyph unicode="&#xfb;" horiz-adv-x="612" d="M66 293v868h163v-866q0 -86 15.5 -121t58.5 -35t58.5 35t15.5 121v866h164v-1161h-138l-26 94q-6 -14 -17.5 -33.5t-28 -36t-37 -27.5t-46.5 -11q-55 0 -91 16t-56.5 52t-27.5 94.5t-7 144.5zM75 1278l113 248h225l121 -248h-149l-80 168l-74 -168h-156z" />
<glyph unicode="&#xfc;" horiz-adv-x="612" d="M66 293v868h163v-866q0 -86 15.5 -121t58.5 -35t58.5 35t15.5 121v866h164v-1161h-138l-26 94q-6 -14 -17.5 -33.5t-28 -36t-37 -27.5t-46.5 -11q-55 0 -91 16t-56.5 52t-27.5 94.5t-7 144.5zM61 1382q0 51 34 78t79 27q53 0 78.5 -32t25.5 -79t-34.5 -72.5t-77.5 -25.5 q-41 0 -73 32.5t-32 71.5zM331 1382q0 51 34 78t79 27q53 0 79 -32t26 -79t-35 -72.5t-78 -25.5q-41 0 -73 32.5t-32 71.5z" />
<glyph unicode="&#xfd;" horiz-adv-x="550" d="M0 1161h172l98 -864q0 -27 1 -53.5t3 -50.5l5 12q2 23 3 46t1 46l96 864h172l-238 -1571h-178l62 320zM199 1315l90 207h186l-127 -207h-149z" />
<glyph unicode="&#xfe;" horiz-adv-x="608" d="M72 -408v1979h164v-502q6 16 17 34.5t27.5 35t37 28t47.5 11.5q55 0 91 -16.5t56 -52.5t27.5 -94.5t7.5 -144.5v-573q0 -86 -4 -145.5t-20.5 -96.5t-49.5 -54t-88 -17q-18 0 -40.5 13t-44 29.5t-39 33t-25.5 24.5v-492h-164zM236 274q0 -70 16 -100.5t57 -30.5 q43 0 58.5 35t15.5 121v569q0 86 -15.5 121t-58.5 35t-58 -35t-15 -121v-594z" />
<glyph unicode="&#xff;" horiz-adv-x="550" d="M0 1161h172l98 -864q0 -27 1 -53.5t3 -50.5l5 12q2 23 3 46t1 46l96 864h172l-238 -1571h-178l62 320zM33 1382q0 51 33.5 78t78.5 27q53 0 79 -32t26 -79t-35 -72.5t-78 -25.5q-41 0 -72.5 32.5t-31.5 71.5zM303 1382q0 51 34 78t79 27q53 0 78.5 -32t25.5 -79 t-34.5 -72.5t-77.5 -25.5q-41 0 -73 32.5t-32 71.5z" />
<glyph unicode="&#x131;" horiz-adv-x="305" d="M70 0v1161h163v-1161h-163z" />
<glyph unicode="&#x152;" horiz-adv-x="958" d="M72 301v967q0 94 25.5 157.5t65.5 101.5t91 53t100 15q76 0 135 -26h439v-168h-291v-527h276v-167h-276v-539h291v-168h-445q-59 -27 -129 -27q-49 0 -100 15.5t-91 53.5t-65.5 101.5t-25.5 157.5zM240 287q0 -86 35.5 -121t78.5 -35q41 0 78 32t37 107v1012 q0 86 -36 121t-79 35t-78.5 -35t-35.5 -121v-995z" />
<glyph unicode="&#x153;" horiz-adv-x="901" d="M61 289v573q0 168 62.5 237.5t175.5 69.5q47 0 87 -11t71 -40q57 51 155 51q113 0 175.5 -68.5t62.5 -238.5v-348h-311v-223q0 -86 15 -121t58 -35t58.5 35t15.5 121v92h164v-94q0 -170 -62.5 -238.5t-175.5 -68.5q-96 0 -155 49q-57 -49 -158 -49q-113 0 -175.5 69.5 t-62.5 237.5zM225 291q0 -86 15.5 -121t58.5 -35t58.5 35t15.5 121v569q0 86 -15.5 121t-58.5 35t-58.5 -35t-15.5 -121v-569zM539 666h147v194q0 86 -15.5 121t-58.5 35t-58 -35t-15 -121v-194z" />
<glyph unicode="&#x178;" horiz-adv-x="651" d="M0 1571h170l145 -692l166 694h170l-250 -1006v-567h-184v565zM82 1792q0 51 34 77.5t79 26.5q53 0 78.5 -31.5t25.5 -78.5t-35 -72.5t-78 -25.5q-41 0 -72.5 32.5t-31.5 71.5zM352 1792q0 51 34 77.5t79 26.5q53 0 78.5 -31.5t25.5 -78.5t-34.5 -72.5t-77.5 -25.5 q-41 0 -73 32.5t-32 71.5z" />
<glyph unicode="&#x2c6;" horiz-adv-x="415" d="M-25 1278l113 248h225l121 -248h-149l-80 168l-74 -168h-156z" />
<glyph unicode="&#x2da;" horiz-adv-x="339" d="M-2 1399q0 29 11 58.5t34 55t55.5 42t75.5 16.5t75 -17.5t53.5 -43t31.5 -56.5t10 -57q0 -27 -11 -57.5t-34 -57.5t-54.5 -43t-74.5 -16q-78 0 -125 52t-47 124zM98 1397q0 -37 23.5 -55.5t52.5 -18.5t51.5 22.5t20.5 53.5q0 29 -22.5 51.5t-53.5 22.5 q-31 -2 -51.5 -24.5t-20.5 -51.5z" />
<glyph unicode="&#x2dc;" horiz-adv-x="415" d="M-4 1356q2 10 7 31.5t18.5 43t38 38t63.5 16.5q35 0 78 -15.5t71 -15.5q41 0 54.5 14.5t13.5 16.5l78 -2q0 -31 -11.5 -61.5t-30 -55.5t-42 -39t-49.5 -14q-35 0 -73 17.5t-69 17.5q-66 0 -73 -33z" />
<glyph unicode="&#x2000;" horiz-adv-x="989" />
<glyph unicode="&#x2001;" horiz-adv-x="1980" />
<glyph unicode="&#x2002;" horiz-adv-x="989" />
<glyph unicode="&#x2003;" horiz-adv-x="1980" />
<glyph unicode="&#x2004;" horiz-adv-x="659" />
<glyph unicode="&#x2005;" horiz-adv-x="493" />
<glyph unicode="&#x2006;" horiz-adv-x="329" />
<glyph unicode="&#x2007;" horiz-adv-x="329" />
<glyph unicode="&#x2008;" horiz-adv-x="245" />
<glyph unicode="&#x2009;" horiz-adv-x="395" />
<glyph unicode="&#x200a;" horiz-adv-x="108" />
<glyph unicode="&#x2010;" horiz-adv-x="509" d="M49 520v156h408v-156h-408z" />
<glyph unicode="&#x2011;" horiz-adv-x="509" d="M49 520v156h408v-156h-408z" />
<glyph unicode="&#x2012;" horiz-adv-x="509" d="M49 520v156h408v-156h-408z" />
<glyph unicode="&#x2013;" horiz-adv-x="577" d="M49 520v156h475v-156h-475z" />
<glyph unicode="&#x2014;" horiz-adv-x="854" d="M49 520v156h752v-156h-752z" />
<glyph unicode="&#x2018;" horiz-adv-x="305" d="M-37 1124l260 447h115l-180 -447h-195z" />
<glyph unicode="&#x2019;" horiz-adv-x="307" d="M-35 1124l180 447h195l-260 -447h-115z" />
<glyph unicode="&#x201a;" horiz-adv-x="299" d="M-94 -276l180 446h195l-261 -446h-114z" />
<glyph unicode="&#x201c;" horiz-adv-x="565" d="M-37 1124l260 447h115l-180 -447h-195zM223 1124l260 447h115l-180 -447h-195z" />
<glyph unicode="&#x201d;" horiz-adv-x="567" d="M-35 1124l180 447h195l-260 -447h-115zM225 1124l181 447h194l-260 -447h-115z" />
<glyph unicode="&#x201e;" horiz-adv-x="559" d="M-94 -276l180 446h195l-261 -446h-114zM166 -276l180 446h195l-260 -446h-115z" />
<glyph unicode="&#x2022;" horiz-adv-x="581" d="M45 705q0 51 19.5 96t53.5 78.5t80 54t99 20.5q35 0 77 -11t81 -40t64.5 -77t25.5 -121q0 -59 -21.5 -105.5t-55.5 -79.5t-78 -49t-89 -16q-53 0 -99 18.5t-81 52t-55.5 79t-20.5 100.5z" />
<glyph unicode="&#x2026;" horiz-adv-x="849" d="M47 86q0 51 34 77.5t79 26.5q53 0 78.5 -31.5t25.5 -78.5t-34.5 -72.5t-77.5 -25.5q-41 0 -73 32.5t-32 71.5zM315 86q0 51 34 77.5t79 26.5q53 0 78.5 -31.5t25.5 -78.5t-34.5 -72.5t-77.5 -25.5q-41 0 -73 32.5t-32 71.5zM582 86q0 51 33.5 77.5t78.5 26.5 q53 0 79 -31.5t26 -78.5t-35 -72.5t-78 -25.5q-41 0 -72.5 32.5t-31.5 71.5z" />
<glyph unicode="&#x202f;" horiz-adv-x="395" />
<glyph unicode="&#x2039;" horiz-adv-x="389" d="M29 590l149 346h168l-151 -346l151 -342h-168z" />
<glyph unicode="&#x203a;" horiz-adv-x="391" d="M41 248l152 342l-152 346h168l149 -346l-149 -342h-168z" />
<glyph unicode="&#x205f;" horiz-adv-x="493" />
<glyph unicode="&#x20ac;" horiz-adv-x="735" d="M27 526v185h49v125h-49v184h49v248q0 84 25.5 145.5t67.5 102t96 60t110 19.5q55 0 109.5 -19.5t96.5 -59t67.5 -101t25.5 -147.5v-107h-185v105q0 86 -35.5 120.5t-78.5 34.5t-79 -34.5t-36 -120.5v-246h358v-184h-358v-125h358v-185h-358v-223q0 -86 36 -121t79 -35 t78.5 35t35.5 121v98h185v-100q0 -86 -25.5 -147.5t-67.5 -101.5t-96.5 -59.5t-109.5 -19.5t-109.5 19.5t-96.5 60.5t-67.5 102.5t-25.5 145.5v225h-49z" />
<glyph unicode="&#x2122;" horiz-adv-x="1179" d="M10 1462v107h436v-107h-163v-614h-109v614h-164zM496 848v721h163l140 -502l8 -121l8 121l139 502h166v-721h-108v514l12 96l-29 -92l-164 -518h-61l-152 518l-28 92l12 -96v-514h-106z" />
<glyph unicode="&#xe000;" horiz-adv-x="1160" d="M0 1160h1160v-1160h-1160v1160z" />
<glyph unicode="&#xfb01;" horiz-adv-x="712" d="M0 1010v151h113v117q0 168 52 237.5t165 69.5q23 0 42 -3t40 -7v-143h-62q-43 0 -58.5 -35t-15.5 -121v-115h134v-151h-134v-1006h-163v1006h-113zM457 1391q0 47 34.5 72.5t77.5 25.5q41 0 73 -33t32 -72q0 -51 -34 -77.5t-79 -26.5q-53 0 -78.5 32t-25.5 79zM477 0 v1161h164v-1161h-164z" />
<glyph unicode="&#xfb02;" horiz-adv-x="727" d="M0 1010v151h113v117q0 168 52 237.5t165 69.5q23 0 42 -3t40 -7v-143h-62q-43 0 -58.5 -35t-15.5 -121v-115h134v-151h-134v-1006h-163v1006h-113zM481 0v1571h164v-1571h-164z" />
<glyph unicode="&#xfb03;" horiz-adv-x="1087" d="M831 1391q0 47 35 72.5t78 25.5q41 0 72.5 -33t31.5 -72q0 -51 -33.5 -77.5t-78.5 -26.5q-53 0 -79 32t-26 79zM852 0v1161h163v-1161h-163zM391 1010v151h113v117q0 168 52 237.5t165 69.5q23 0 42 -3t40 -7v-143h-62q-43 0 -58.5 -35t-15.5 -121v-115h134v-151h-134 v-1006h-163v1006h-113zM0 1010v151h113v117q0 168 52 237.5t165 69.5q23 0 42 -3t40 -7v-143h-62q-43 0 -58.5 -35t-15.5 -121v-115h134v-151h-134v-1006h-163v1006h-113z" />
<glyph unicode="&#xfb04;" horiz-adv-x="1110" d="M864 0v1571h164v-1571h-164zM391 1010v151h113v117q0 168 52 237.5t165 69.5q23 0 42 -3t40 -7v-143h-62q-43 0 -58.5 -35t-15.5 -121v-115h134v-151h-134v-1006h-163v1006h-113zM0 1010v151h113v117q0 168 52 237.5t165 69.5q23 0 42 -3t40 -7v-143h-62q-43 0 -58.5 -35 t-15.5 -121v-115h134v-151h-134v-1006h-163v1006h-113z" />
</font>
</defs>
</svg>
