<?xml version="1.0" standalone="no"?>
<!DOCTYPE svg PUBLIC "-//W3C//DTD SVG 1.1//EN" "http://www.w3.org/Graphics/SVG/1.1/DTD/svg11.dtd" >
<svg xmlns="http://www.w3.org/2000/svg">
<metadata></metadata>
<defs>
<font id="yellow_peas_demoregular" horiz-adv-x="1024" >
<font-face units-per-em="2048" ascent="1536" descent="-512" />
<missing-glyph horiz-adv-x="500" />
<glyph horiz-adv-x="2048" />
<glyph horiz-adv-x="2048" />
<glyph unicode="&#xd;" horiz-adv-x="2048" />
<glyph unicode=" " />
<glyph unicode="!" horiz-adv-x="456" d="M172 66q0 23 15.5 38t37.5 15q23 0 38.5 -15t15.5 -38t-15.5 -38.5t-38.5 -15.5t-38 15.5t-15 38.5zM205 244v1190h37v-1190h-37z" />
<glyph unicode="," horiz-adv-x="387" d="M104 -137l76 200h66l-92 -200h-50z" />
<glyph unicode="." horiz-adv-x="405" d="M135 66q0 23 15.5 38t37.5 15q23 0 38.5 -15t15.5 -38t-15.5 -38.5t-38.5 -15.5t-38 15.5t-15 38.5z" />
<glyph unicode="0" horiz-adv-x="1169" d="M166 719q0 147 32.5 277t89 226.5t132.5 153t162 56.5t160.5 -56.5t131 -153t89 -226.5t32.5 -277t-32.5 -277.5t-89 -226.5t-131 -152.5t-160.5 -56.5t-162 56.5t-132.5 152.5t-89 226t-32.5 278zM201 719q0 -141 29.5 -265t82 -216.5t121 -145.5t148.5 -53 q78 0 147.5 53t121.5 145.5t82 216.5t30 265t-30 265t-82 216t-121.5 145.5t-147.5 53.5q-80 0 -148.5 -53.5t-121 -145.5t-82 -216t-29.5 -265z" />
<glyph unicode="1" horiz-adv-x="704" d="M147 1040v56l254 338h31v-1434h-33v1374z" />
<glyph unicode="2" d="M131 0l588 793q29 47 45 104t16 119q0 80 -25.5 149.5t-70.5 121.5t-105.5 82t-127.5 30q-88 0 -161 -47t-120 -125v55q49 68 122 109t159 41q76 0 142 -33t115.5 -89.5t78 -132t28.5 -161.5q0 -78 -24.5 -148.5t-67.5 -126.5l-522 -708h590v-33h-660z" />
<glyph unicode="3" d="M180 109v45q53 -53 124 -85t151 -32t148.5 29.5t120.5 82t82 121t30 148.5q0 74 -26 140.5t-72 118.5t-107.5 87t-132.5 43h-27v33h12q104 25 172 100.5t68 173.5q0 57 -25.5 109.5t-69.5 90.5t-102.5 60.5t-126.5 22.5q-63 0 -119.5 -19.5t-99.5 -54.5v41 q47 31 102.5 48.5t116.5 17.5q74 0 138.5 -25t113.5 -68t77 -100t28 -123q0 -94 -55.5 -170t-145.5 -113q68 -18 125 -57t98 -93t64.5 -120.5t23.5 -140.5q0 -86 -31.5 -162t-88 -132t-131 -89t-160.5 -33q-78 0 -148.5 27.5t-126.5 77.5z" />
<glyph unicode="4" horiz-adv-x="962" d="M129 483l451 951h34l-434 -918h588v-516h-35v483h-604z" />
<glyph unicode="5" horiz-adv-x="1091" d="M154 211l20 29q53 -92 134 -147.5t177 -55.5q80 0 150 38t122 104.5t81.5 154.5t29.5 188q0 98 -29.5 186.5t-81.5 153t-122 102t-150 37.5h-313v433h612v-33h-579v-367h280q86 0 162 -40t132.5 -109.5t89 -163t32.5 -199.5t-32.5 -200.5t-89 -165t-132.5 -111.5 t-162 -41q-102 0 -188 56.5t-143 150.5z" />
<glyph unicode="6" horiz-adv-x="1153" d="M162 418q0 57 14 110.5t39 100.5l467 805h39l-404 -693q53 43 119.5 66.5t138.5 23.5q86 0 162 -32.5t132.5 -88t89 -131t32.5 -161.5t-32.5 -162t-89 -131t-132 -88t-162.5 -33q-86 0 -160.5 33t-131 88t-89 131t-32.5 162zM195 418q0 -80 29.5 -148.5t81.5 -121 t121.5 -82t147.5 -29.5q80 0 150 29.5t122 82t81.5 121t29.5 148.5t-29.5 148.5t-81.5 120.5t-122 82t-150 30q-78 0 -147.5 -30t-121.5 -82t-81.5 -120.5t-29.5 -148.5z" />
<glyph unicode="7" horiz-adv-x="944" d="M158 1401v33h624l-12 -25q-2 -2 -30.5 -66.5t-72.5 -172t-95.5 -249t-95.5 -298t-72.5 -317.5t-28.5 -306h-35q0 133 24.5 279.5t62.5 291t83 278.5t89 245.5t79 191.5t51 115h-571z" />
<glyph unicode="8" horiz-adv-x="1191" d="M172 465q0 80 23.5 152.5t64.5 132t97.5 101.5t121.5 62q-86 29 -140 95.5t-54 152.5q0 55 23.5 103.5t64.5 85t96 57t117 20.5q61 0 116.5 -20.5t96.5 -57t64.5 -84.5t23.5 -104q0 -86 -54.5 -152.5t-140.5 -95.5q68 -20 124 -62t97 -101.5t64.5 -132t23.5 -152.5 q0 -96 -32.5 -180t-89 -147.5t-132 -99.5t-161.5 -36t-161 36t-131 99.5t-89 147.5t-33 180zM205 465q0 -90 29.5 -168t82 -136.5t122 -92t147.5 -33.5q80 0 148.5 33.5t120.5 92t82 136.5t30 168q0 88 -30 167t-82 138t-120.5 93t-148.5 34q-78 0 -147.5 -34t-122 -93 t-82 -138t-29.5 -167zM319 1161q0 -47 20.5 -89t57.5 -73.5t85 -50t104 -18.5q55 0 104 18.5t85 50t57.5 73.5t21.5 89q0 49 -21.5 91t-57.5 74t-85 50.5t-104 18.5t-103.5 -18.5t-85.5 -50.5t-57.5 -74t-20.5 -91z" />
<glyph unicode="9" horiz-adv-x="1153" d="M162 1020q0 86 32.5 161.5t89 131t132.5 88.5t162 33t160.5 -33t131 -88.5t89 -131t32.5 -161.5q0 -57 -14 -110.5t-39 -100.5l-471 -809h-39l408 696q-53 -43 -119.5 -66.5t-138.5 -23.5q-86 0 -162 33t-132.5 88t-89 131t-32.5 162zM195 1020q0 -80 29.5 -148.5 t81.5 -121t122 -82t150 -29.5q78 0 147.5 29.5t121.5 82t81.5 121t29.5 148.5t-29.5 148.5t-81.5 120.5t-121.5 82t-147.5 30q-80 0 -150 -30t-122 -82t-81.5 -120.5t-29.5 -148.5z" />
<glyph unicode=":" horiz-adv-x="399" d="M135 66q0 23 15.5 38t37.5 15q23 0 38.5 -15t15.5 -38t-15.5 -38.5t-38.5 -15.5t-38 15.5t-15 38.5zM135 385q0 23 15.5 38t37.5 15q23 0 38.5 -15t15.5 -38t-15.5 -38t-38.5 -15t-38 15t-15 38z" />
<glyph unicode=";" horiz-adv-x="409" d="M98 -137l76 200h66l-93 -200h-49zM147 385q0 23 15.5 38t38.5 15t38 -15t15 -38t-15.5 -38t-37.5 -15q-23 0 -38.5 15t-15.5 38z" />
<glyph unicode="?" horiz-adv-x="921" d="M154 1225v55q49 68 121.5 109t158.5 41q76 0 142.5 -33t115.5 -89.5t78 -132t29 -161.5q0 -78 -24.5 -148.5t-67.5 -126.5l-273 -366h-37l305 418q29 47 45.5 104t16.5 119q0 80 -25.5 149.5t-70.5 121.5t-105.5 82t-128.5 30q-88 0 -160.5 -47t-119.5 -125zM324 55 q0 23 15 38.5t38 15.5t38 -15.5t15 -38.5t-15.5 -38t-37.5 -15q-23 0 -38 15.5t-15 37.5z" />
<glyph unicode="A" horiz-adv-x="1345" d="M111 0l530 1432h25l522 -1432h-35l-211 582h-582l-210 -582h-39zM379 616h547l-273 754z" />
<glyph unicode="B" horiz-adv-x="1095" d="M170 18v1366q12 8 33 15q88 33 182 33q86 0 161 -25t131 -68t89 -100t33 -123q0 -96 -66.5 -172t-175.5 -115q94 -10 174 -45.5t139.5 -91t93 -125t33.5 -147.5q0 -86 -39.5 -162t-109.5 -133t-164 -90t-201 -33q-78 0 -149.5 17.5t-130.5 50.5v-52h-33zM203 106 q59 -35 130.5 -53t149.5 -18q100 0 187.5 30.5t153 83t103.5 122t38 149.5q0 78 -41 148.5t-105.5 123.5t-145.5 84t-161 31h-309v-701zM203 840h258q66 10 121 34.5t96 61.5t64.5 83t23.5 97q0 57 -29.5 109.5t-82 90.5t-121 60.5t-148.5 22.5q-49 0 -95 -9.5t-87 -25.5 v-524z" />
<glyph unicode="C" horiz-adv-x="1304" d="M131 717q0 147 52.5 277t142.5 228.5t210.5 155t258.5 56.5q123 0 233.5 -48.5t198.5 -128.5v-47q-86 86 -195.5 137.5t-236.5 51.5q-129 0 -244 -54.5t-201 -146.5t-135 -216t-49 -265t49 -265t135 -216.5t201 -145.5t244 -53q127 0 236.5 49t195.5 135v-47 q-88 -80 -198.5 -125t-233.5 -45q-137 0 -258 56.5t-211 152.5t-142.5 226t-52.5 278z" />
<glyph unicode="D" horiz-adv-x="1333" d="M172 72v1362h33v-64q137 57 282 57q147 0 278.5 -56t228 -152.5t152.5 -227.5t56 -278t-56 -278.5t-152.5 -227.5t-228 -152.5t-278.5 -56.5t-282 59zM205 92q66 -29 136.5 -45t145.5 -16q141 0 265.5 53t217.5 146.5t146 217t53 265.5q0 141 -53 265t-146 217 t-217.5 146.5t-265.5 53.5q-76 0 -146.5 -16.5t-135.5 -45.5v-1241z" />
<glyph unicode="E" horiz-adv-x="1028" d="M172 0v1434h713v-33h-680v-752h680v-33h-680v-583h680v-33h-713z" />
<glyph unicode="F" horiz-adv-x="993" d="M172 0v1434h713v-33h-680v-752h680v-33h-680v-616h-33z" />
<glyph unicode="G" horiz-adv-x="1380" d="M127 713q0 147 52 277t142.5 226.5t211 152.5t258.5 56q123 0 233.5 -46t198.5 -126v-47q-86 86 -195.5 136.5t-236.5 50.5q-129 0 -244 -53.5t-201 -145.5t-135 -216t-49 -265t49 -265t135 -216.5t201 -145.5t244 -53q127 0 236.5 49t195.5 135v479h-383v33h415v-526 q-8 -8 -16 -15.5t-16 -17.5q-88 -80 -199 -125t-233 -45q-137 0 -258 56.5t-211.5 152.5t-142.5 226t-52 278z" />
<glyph unicode="H" horiz-adv-x="1226" d="M176 0v1434h33v-818h817v818h35v-1434h-35v584h-817v-584h-33z" />
<glyph unicode="I" horiz-adv-x="364" d="M170 0v1434h33v-1434h-33z" />
<glyph unicode="J" horiz-adv-x="407" d="M-227 -328h16q90 0 152.5 24.5t105.5 62.5t67.5 84t37 88t16.5 75t4 43v1385h33v-1381q0 -2 -2 -32.5t-14.5 -76.5t-38 -99.5t-71.5 -98.5t-117 -75.5t-173 -30.5h-16v32z" />
<glyph unicode="K" horiz-adv-x="1128" d="M174 0v1434h33v-789l756 789h47l-598 -631l596 -803h-43l-578 778l-180 -180v-598h-33z" />
<glyph unicode="L" horiz-adv-x="1132" d="M154 0v1434h34v-1401h805v-33h-839z" />
<glyph unicode="M" horiz-adv-x="1386" d="M170 0v1434h35l479 -1248l479 1248h35v-1434h-33v1343l-460 -1198h-41l-461 1198v-1343h-33z" />
<glyph unicode="N" horiz-adv-x="1222" d="M170 0v1434h37l858 -1373v1373h35v-1434h-37l-858 1362v-1362h-35z" />
<glyph unicode="O" horiz-adv-x="1470" d="M115 713q0 147 48 277t130 227.5t192.5 155t237.5 57.5q125 0 236.5 -57.5t194.5 -155t131 -227.5t48 -277q0 -145 -48 -275.5t-131 -226.5t-194.5 -152.5t-236.5 -56.5q-127 0 -237.5 56.5t-192.5 152.5t-130 226t-48 276zM147 713q0 -139 45.5 -262t124 -215.5 t183 -146.5t223.5 -54t223.5 54t183 146.5t123.5 215t45 262.5q0 139 -45 264t-123.5 218t-183 147.5t-223.5 54.5t-223.5 -54.5t-183 -147.5t-124 -218t-45.5 -264z" />
<glyph unicode="P" horiz-adv-x="1146" d="M172 0v1374q8 4 16.5 7t16.5 8q110 41 231 41q115 0 217.5 -36t178 -99.5t119.5 -147.5t44 -178q0 -96 -44 -179t-119.5 -146.5t-178 -99.5t-217.5 -36q-121 0 -231 41v-549h-33zM205 584q104 -43 231 -43q109 0 205 33.5t168 92t113 136.5t41 166t-41 165.5t-113 136 t-168 92.5t-205 34q-63 0 -120.5 -11.5t-110.5 -31.5v-770z" />
<glyph unicode="Q" horiz-adv-x="1574" d="M156 719q0 147 48 278t132 227.5t195.5 153t240.5 56.5q127 0 238.5 -56.5t195.5 -153t132 -227.5t48 -278q0 -154 -50 -286t-140 -230l178 -187h-47l-156 162q-80 -82 -181 -128t-218 -46q-129 0 -240.5 56.5t-195.5 152.5t-132 227t-48 279zM188 719q0 -141 46.5 -265 t125 -217.5t185 -146.5t227.5 -53q109 0 205 44t172 122l-191 198h46l167 -174q86 92 133.5 218t47.5 274q0 141 -46 265t-124 216t-184.5 146.5t-225.5 54.5q-121 0 -227.5 -54.5t-185 -146.5t-125 -216t-46.5 -265z" />
<glyph unicode="R" horiz-adv-x="1167" d="M172 0v1374q8 4 16.5 7t16.5 8q106 41 231 41q115 0 217.5 -36t178 -99.5t119.5 -147.5t44 -178q0 -127 -73.5 -230.5t-196.5 -165.5l264 -573h-37l-258 561q-119 -53 -258 -53q-125 0 -231 41v-549h-33zM205 584q104 -43 231 -43q66 0 128.5 13t115.5 36q8 4 15 7t16 7 q113 55 182.5 151.5t69.5 213.5q0 88 -42 165.5t-114 136t-167 92.5t-204 34q-63 0 -120.5 -11.5t-110.5 -31.5v-770z" />
<glyph unicode="S" horiz-adv-x="1126" d="M96 233l23 31q4 -10 8 -17t8 -16q55 -88 154.5 -142t222.5 -54q88 0 166 31.5t136 85t92 125t34 149.5q0 76 -33 144.5t-89 118.5t-132 81t-162 33l-41 2q-47 2 -94 18q-104 33 -171.5 112t-67.5 181q0 63 28.5 120.5t77.5 100.5t114.5 68t141.5 25q96 0 176 -40 t129 -106l-20 -29q-43 63 -118 102.5t-167 39.5q-68 0 -128 -22.5t-105.5 -60.5t-71 -89t-25.5 -109q0 -57 25.5 -107.5t70 -88t102.5 -60t126 -22.5l6 -2q47 -2 72.5 -5.5t48.5 -9.5q74 -18 135 -55t107.5 -89t72 -116.5t25.5 -134.5q0 -86 -36 -163t-99.5 -135t-147.5 -92 t-178 -34q-127 0 -231.5 54.5t-165.5 146.5z" />
<glyph unicode="T" horiz-adv-x="868" d="M23 1401v33h823v-33h-395v-1401h-33v1401h-395z" />
<glyph unicode="U" horiz-adv-x="1392" d="M172 571v863h33v-863q0 -111 46 -208t125 -170.5t185.5 -115.5t226.5 -42q111 0 209.5 35.5t176.5 97.5v1266h32v-1414h-32v107q-109 -76 -236 -107q-76 -16 -150 -16q-72 0 -147 16q-154 35 -269.5 133.5t-166.5 233.5q-33 84 -33 184z" />
<glyph unicode="V" horiz-adv-x="1234" d="M125 1434h35l514 -1385l514 1385h35l-531 -1434h-37z" />
<glyph unicode="W" horiz-adv-x="1835" d="M109 1434h34l514 -1385l283 793l-227 592h37l208 -543l213 543h35l-231 -592l282 -793l515 1385h36l-532 -1434h-35l-283 791l-282 -791h-37z" />
<glyph unicode="X" horiz-adv-x="1386" d="M125 1434h41l510 -705l512 705h41l-533 -734l502 -700h-41l-481 672l-479 -672h-41l499 700z" />
<glyph unicode="Y" horiz-adv-x="1146" d="M98 1434h37l481 -676l480 676h39l-502 -711v-719h-35v719z" />
<glyph unicode="Z" horiz-adv-x="1245" d="M127 0l907 1401h-893v33h955l-908 -1401h895v-33h-956z" />
<glyph unicode="`" horiz-adv-x="1038" />
<glyph unicode="a" horiz-adv-x="1087" d="M150 446q0 92 34.5 173t96 142.5t142.5 96.5t173 35q88 0 166 -32t137 -89v102h37v-768q12 -57 70 -69v-37q-37 6 -72 37q-16 16 -25.5 37.5t-9.5 44.5q-59 -55 -137 -86t-166 -31q-92 0 -173 35t-142.5 95.5t-96 141t-34.5 172.5zM184 446q0 -86 33 -160.5t88 -130 t130 -87t161 -31.5q90 0 168 36t135 97v553q-57 61 -135 99t-168 38q-86 0 -161 -32.5t-130 -89t-88 -132.5t-33 -160z" />
<glyph unicode="b" horiz-adv-x="1069" d="M166 2v1516h37v-746q59 57 137 89t166 32q92 0 173 -35t142.5 -96.5t96 -142t34.5 -173.5q0 -92 -34.5 -172.5t-96 -142t-142.5 -96.5t-173 -35q-88 0 -166 31.5t-137 87.5v-117h-37zM203 170q55 -61 133 -98t170 -37q86 0 160.5 32.5t130 88t88.5 130t33 160.5 q0 84 -32 159t-87.5 130.5t-130 88t-160.5 32.5q-92 0 -171 -36t-134 -97v-553z" />
<glyph unicode="c" horiz-adv-x="1038" d="M158 449q0 92 34.5 172.5t96 142t142.5 96.5t173 35q88 0 166 -32t137 -87l-26 -24q-53 49 -125 78.5t-152 29.5q-86 0 -160.5 -32.5t-130 -89t-88 -131.5t-32.5 -158q0 -86 32.5 -161t88 -130.5t130 -88t160.5 -32.5q80 0 152 28.5t125 79.5l26 -24q-59 -55 -137 -87 t-166 -32q-92 0 -173 35t-142.5 96.5t-96 142t-34.5 173.5z" />
<glyph unicode="d" horiz-adv-x="1093" d="M162 449q0 92 34.5 172.5t96 142t142.5 96.5t173 35q88 0 166 -32t137 -89v746h37v-1520h-37v121q-59 -55 -137 -87t-166 -32q-92 0 -173 35t-142.5 96.5t-96 142t-34.5 173.5zM197 449q0 -86 32.5 -161t88 -130.5t130 -88t160.5 -32.5q92 0 170 37t133 98v553 q-55 61 -133 97t-170 36q-86 0 -160.5 -32.5t-130 -88t-88 -130.5t-32.5 -158z" />
<glyph unicode="e" horiz-adv-x="1038" d="M152 449q0 92 34.5 172.5t96 142t142.5 96.5t173 35q88 0 166 -32t137 -87l25 -24l-607 -607q55 -51 127 -79.5t152 -28.5t151.5 28.5t124.5 79.5l27 -24q-59 -55 -137 -87t-166 -32t-166 32t-137 87l-25 24q-55 59 -86.5 137t-31.5 167zM186 449q0 -80 29 -152t80 -127 l579 582q-53 49 -124.5 78.5t-151.5 29.5q-86 0 -161 -32.5t-130 -89t-88 -131t-33 -158.5z" />
<glyph unicode="f" horiz-adv-x="415" d="M170 0v1087q0 94 35 177q25 57 64.5 106t91 84t111.5 56.5t126 23.5v-35q-80 -4 -150.5 -35.5t-124 -85t-85 -124t-35.5 -150.5l2 -209h373v-35h-373v-860h-35z" />
<glyph unicode="g" horiz-adv-x="1138" d="M164 446q0 92 34.5 173t96 142.5t142.5 96.5t173 35q20 0 56 -4t77 -16.5t85 -36t85 -62.5q6 35 19.5 57.5t30 35t32 17.5t25.5 7v-35q-31 -6 -51.5 -30.5t-20.5 -57.5v-1040l-35 -37q-59 -55 -137 -87t-166 -32t-165.5 31.5t-137.5 87.5l25 24q55 -51 126.5 -79.5 t151.5 -28.5q90 0 168 35.5t135 99.5v377q-61 -53 -138 -86t-165 -33h-20t-21 2q-104 10 -189 61.5t-140 133.5l-21 34q-55 94 -55 215zM199 446q0 -96 41 -178q4 -10 9 -18t11 -19q53 -86 142.5 -139t199.5 -57h8q10 0 22.5 1t22.5 3q78 8 143.5 43t114.5 88v553 q-57 61 -135 98t-168 37q-86 0 -160.5 -32.5t-130 -88t-88 -130.5t-32.5 -161z" />
<glyph unicode="h" horiz-adv-x="1073" d="M164 0v1538h37v-764q59 55 137 87t166 32q139 0 248.5 -75t162.5 -195q35 -83 35 -177v-446h-35v446q0 86 -32.5 161t-88 130.5t-130 88t-160.5 32.5q-92 0 -170 -36t-133 -99v-723h-37z" />
<glyph unicode="i" horiz-adv-x="401" d="M129 1081q0 23 15.5 38.5t37.5 15.5q23 0 38.5 -15.5t15.5 -38.5t-15.5 -38t-38.5 -15t-38 15.5t-15 37.5zM168 0v895h37v-895h-37z" />
<glyph unicode="j" horiz-adv-x="411" d="M-221 -377q82 4 153.5 38t125 89t84 128t30.5 157v862h37v-862q0 -90 -34 -170t-92 -140.5t-136 -97.5t-168 -39v35zM129 1081q0 23 15.5 38.5t37.5 15.5q23 0 38.5 -15.5t15.5 -38.5t-15.5 -38t-38.5 -15t-38 15.5t-15 37.5z" />
<glyph unicode="k" horiz-adv-x="1081" d="M209 0v1538h35v-1364l719 719v-49l-390 -391l400 -400v-49l-426 424l-303 -303v-125h-35z" />
<glyph unicode="l" horiz-adv-x="387" d="M162 125v1411h37v-1411q0 -33 20 -57.5t51 -30.5v-35q-47 6 -77.5 41t-30.5 82z" />
<glyph unicode="m" horiz-adv-x="1832" d="M158 0v895h37v-123q59 55 138 88t167 33q121 0 220 -56.5t159 -150.5q8 12 16 24.5t18 24.5l37 37q59 55 138 88t167 33q141 0 252 -76t164 -199q35 -82 35 -176v-442h-35v442q0 86 -32.5 161t-89 131.5t-132.5 89t-162 32.5q-92 0 -174 -41t-168 -139l-14 -25 q4 -8 7 -16t7 -17q37 -80 37 -176v-442h-37v442q0 88 -34 168q-4 10 -9.5 20.5t-11.5 20.5q-53 92 -147.5 148.5t-210.5 56.5q-92 0 -170 -36t-135 -99v-721h-37z" />
<glyph unicode="n" horiz-adv-x="1085" d="M166 0v895h37v-123q59 55 137 88t168 33q59 0 117.5 -17.5t110.5 -48t96.5 -75.5t74.5 -101l15 -33q16 -41 26 -85t10 -91v-442h-36v442q0 88 -35 168q-8 20 -23 41q-53 92 -147 148.5t-209 56.5q-92 0 -170 -36t-135 -99v-721h-37z" />
<glyph unicode="o" horiz-adv-x="1159" d="M119 451q0 92 35.5 174t97 143t143.5 96t174 35t174 -35t143.5 -96t97.5 -143t36 -174t-36 -174t-97.5 -143.5t-143.5 -97.5t-174 -36t-174 36t-143.5 97.5t-97 143t-35.5 174.5zM156 451q0 -86 32.5 -162t88 -131.5t131 -88t161.5 -32.5t161 32.5t131.5 88t89 131.5 t32.5 162t-32.5 160.5t-89 131t-131.5 89t-161 32.5t-161.5 -32.5t-131 -89t-88 -131t-32.5 -160.5z" />
<glyph unicode="p" horiz-adv-x="1058" d="M168 -412v1307h37v-119q59 55 138 88t167 33q92 0 174 -35t143.5 -96t97.5 -143t36 -174t-36 -174t-97.5 -141.5t-143.5 -94.5t-174 -35q-88 0 -167 32t-138 89v-537h-37zM205 176q57 -63 135 -99t170 -36q86 0 162 31.5t131 86t88 129t33 161.5q0 86 -33 160.5t-88 130 t-131 88t-162 32.5q-92 0 -170 -37t-135 -98v-549z" />
<glyph unicode="q" horiz-adv-x="1058" d="M92 449q0 -92 36 -174t97.5 -141.5t143.5 -94.5t174 -35q88 0 167 32t138 89v-537h37v1307h-37v-119q-59 55 -138 88t-167 33q-92 0 -174 -35t-143.5 -96t-97.5 -143t-36 -174zM129 449q0 86 33 160.5t88 130t131 88t162 32.5q92 0 170 -37t135 -98v-549 q-57 -63 -135 -99t-170 -36q-86 0 -162 31.5t-131 86t-88 129t-33 161.5z" />
<glyph unicode="r" horiz-adv-x="563" d="M166 0v895h35v-121q57 53 130.5 84t157.5 35v-35q-86 -4 -160.5 -40t-127.5 -95v-723h-35z" />
<glyph unicode="s" horiz-adv-x="1042" d="M170 662q0 49 27.5 91t76 73.5t114 50t142.5 18.5q121 0 208 -40t128 -105l-26 -23q-35 59 -116 96t-194 37q-72 0 -131 -15.5t-102 -42t-67.5 -63.5t-24.5 -77q0 -41 23.5 -76t66.5 -61.5t101.5 -42t127.5 -17.5q41 -2 83 -6t73 -13q104 -29 158.5 -86t54.5 -131 q0 -49 -27.5 -91t-76 -73.5t-115 -50t-144.5 -18.5q-119 0 -205.5 41t-127.5 106q-4 8 -8.5 15.5t-8.5 15.5l29 25q6 -20 16 -35q35 -57 115 -94t190 -37q70 0 130.5 15t103.5 42t67.5 62.5t24.5 76.5q0 82 -83 137.5t-224 57.5q-16 0 -34.5 3t-31.5 3q-49 2 -104 17.5 t-101.5 44t-77 70.5t-30.5 100z" />
<glyph unicode="t" horiz-adv-x="409" d="M168 125v1309h37v-539h205v-33h-205v-737q0 -33 20.5 -57.5t50.5 -30.5v-37q-47 6 -77.5 42t-30.5 83z" />
<glyph unicode="u" horiz-adv-x="1105" d="M170 453v440h35v-440q0 -47 10 -88t27 -82q4 -10 9 -19.5t11 -19.5q53 -92 147.5 -148.5t211.5 -56.5q92 0 169.5 36t135.5 99v719h37v-873h-37v103q-59 -57 -138 -89t-167 -32q-121 0 -220.5 56.5t-158.5 150.5q-6 8 -11.5 16t-9.5 19l-16 32q-35 83 -35 177z" />
<glyph unicode="v" horiz-adv-x="1079" d="M96 895h41l406 -844l407 844h41l-432 -895h-31z" />
<glyph unicode="w" horiz-adv-x="1638" d="M102 895h41l404 -844l250 527l-154 317h39l135 -277l133 277h41l-153 -317l249 -527l404 844h39l-428 -895h-31l-254 537l-256 -537h-29z" />
<glyph unicode="x" horiz-adv-x="1005" d="M104 0l367 457l-360 438h47l336 -410l335 410h48l-359 -438l367 -457h-47l-344 428l-344 -428h-46z" />
<glyph unicode="y" horiz-adv-x="1167" d="M147 893h41l410 -836l410 836h41l-537 -1094q-4 -8 -8 -15t-8 -13q-31 -59 -97 -70q-6 -2 -18 -2q-10 0 -16 2v37q4 -2 16 -2t18 2q27 4 47.5 23.5t42.5 66.5l89 188z" />
<glyph unicode="z" horiz-adv-x="980" d="M111 0l663 858h-627v37h701l-664 -858h627v-37h-700z" />
<glyph unicode="&#xa0;" />
<glyph unicode="&#x2000;" horiz-adv-x="769" />
<glyph unicode="&#x2001;" horiz-adv-x="1538" />
<glyph unicode="&#x2002;" horiz-adv-x="769" />
<glyph unicode="&#x2003;" horiz-adv-x="1538" />
<glyph unicode="&#x2004;" horiz-adv-x="512" />
<glyph unicode="&#x2005;" horiz-adv-x="384" />
<glyph unicode="&#x2006;" horiz-adv-x="256" />
<glyph unicode="&#x2007;" horiz-adv-x="256" />
<glyph unicode="&#x2008;" horiz-adv-x="192" />
<glyph unicode="&#x2009;" horiz-adv-x="307" />
<glyph unicode="&#x200a;" horiz-adv-x="85" />
<glyph unicode="&#x202f;" horiz-adv-x="307" />
<glyph unicode="&#x205f;" horiz-adv-x="384" />
<glyph unicode="&#xe000;" horiz-adv-x="890" d="M0 0v891h891v-891h-891z" />
</font>
</defs>
</svg>
